  0
SECTION
  2
HEADER
  9
$ACADVER
  1
AC1018
  9
$ACADMAINTVER
 70
     0
  9
$DWGCODEPAGE
  3
ANSI_932
  9
$INSBASE
 10
0.0
 20
0.0
 30
0.0
  9
$EXTMIN
 10
29.70643997856496
 20
29.91097830691433
 30
-0.0000000000000053
  9
$EXTMAX
 10
8150.293598112524
 20
5685.089048305631
 30
0.0000000000000099
  9
$LIMMIN
 10
0.0
 20
0.0
  9
$LIMMAX
 10
8179.999999999999
 20
5715.0
  9
$ORTHOMODE
 70
     1
  9
$REGENMODE
 70
     1
  9
$FILLMODE
 70
     1
  9
$QTEXTMODE
 70
     0
  9
$MIRRTEXT
 70
     1
  9
$LTSCALE
 40
1.0
  9
$ATTMODE
 70
     1
  9
$TEXTSIZE
 40
2.5
  9
$TRACEWID
 40
1.0
  9
$TEXTSTYLE
  7
Standard
  9
$CLAYER
  8
LAYER
  9
$CELTYPE
  6
ByLayer
  9
$CECOLOR
 62
   256
  9
$CELTSCALE
 40
1.0
  9
$DISPSILH
 70
     0
  9
$DIMSCALE
 40
1.0
  9
$DIMASZ
 40
40.0
  9
$DIMEXO
 40
70.0
  9
$DIMDLI
 40
150.0
  9
$DIMRND
 40
0.0
  9
$DIMDLE
 40
0.0
  9
$DIMEXE
 40
30.0
  9
$DIMTP
 40
0.0
  9
$DIMTM
 40
0.0
  9
$DIMTXT
 40
40.0
  9
$DIMCEN
 40
2.0
  9
$DIMTSZ
 40
0.0
  9
$DIMTOL
 70
     0
  9
$DIMLIM
 70
     0
  9
$DIMTIH
 70
     0
  9
$DIMTOH
 70
     0
  9
$DIMSE1
 70
     0
  9
$DIMSE2
 70
     0
  9
$DIMTAD
 70
     1
  9
$DIMZIN
 70
     8
  9
$DIMBLK
  1

  9
$DIMASO
 70
     1
  9
$DIMSHO
 70
     1
  9
$DIMPOST
  1

  9
$DIMAPOST
  1

  9
$DIMALT
 70
     0
  9
$DIMALTD
 70
     3
  9
$DIMALTF
 40
0.03937007874016
  9
$DIMLFAC
 40
1.0
  9
$DIMTOFL
 70
     0
  9
$DIMTVP
 40
0.0
  9
$DIMTIX
 70
     0
  9
$DIMSOXD
 70
     0
  9
$DIMSAH
 70
     0
  9
$DIMBLK1
  1

  9
$DIMBLK2
  1

  9
$DIMSTYLE
  2
Standerd
  9
$DIMCLRD
 70
     0
  9
$DIMCLRE
 70
     0
  9
$DIMCLRT
 70
     0
  9
$DIMTFAC
 40
1.0
  9
$DIMGAP
 40
15.0
  9
$DIMJUST
 70
     0
  9
$DIMSD1
 70
     0
  9
$DIMSD2
 70
     0
  9
$DIMTOLJ
 70
     0
  9
$DIMTZIN
 70
     8
  9
$DIMALTZ
 70
     0
  9
$DIMALTTZ
 70
     0
  9
$DIMUPT
 70
     0
  9
$DIMDEC
 70
     2
  9
$DIMTDEC
 70
     2
  9
$DIMALTU
 70
     2
  9
$DIMALTTD
 70
     3
  9
$DIMTXSTY
  7
Standard
  9
$DIMAUNIT
 70
     0
  9
$DIMADEC
 70
     0
  9
$DIMALTRND
 40
0.0
  9
$DIMAZIN
 70
     0
  9
$DIMDSEP
 70
    46
  9
$DIMATFIT
 70
     3
  9
$DIMFRAC
 70
     0
  9
$DIMLDRBLK
  1

  9
$DIMLUNIT
 70
     2
  9
$DIMLWD
 70
    -2
  9
$DIMLWE
 70
    -2
  9
$DIMTMOVE
 70
     0
  9
$LUNITS
 70
     2
  9
$LUPREC
 70
     2
  9
$SKETCHINC
 40
1.0
  9
$FILLETRAD
 40
10.0
  9
$AUNITS
 70
     0
  9
$AUPREC
 70
     0
  9
$MENU
  1
.
  9
$ELEVATION
 40
0.0
  9
$PELEVATION
 40
0.0
  9
$THICKNESS
 40
0.0
  9
$LIMCHECK
 70
     0
  9
$CHAMFERA
 40
10.0
  9
$CHAMFERB
 40
10.0
  9
$CHAMFERC
 40
20.0
  9
$CHAMFERD
 40
0.0
  9
$SKPOLY
 70
     0
  9
$TDCREATE
 40
2452621.494232755
  9
$TDUCREATE
 40
2452621.119232755
  9
$TDUPDATE
 40
2453885.683603183
  9
$TDUUPDATE
 40
2453885.308603183
  9
$TDINDWG
 40
0.2245598958
  9
$TDUSRTIMER
 40
0.2245596644
  9
$USRTIMER
 70
     1
  9
$ANGBASE
 50
0.0
  9
$ANGDIR
 70
     0
  9
$PDMODE
 70
     0
  9
$PDSIZE
 40
0.0
  9
$PLINEWID
 40
0.0
  9
$SPLFRAME
 70
     0
  9
$SPLINETYPE
 70
     6
  9
$SPLINESEGS
 70
     8
  9
$HANDSEED
  5
2788
  9
$SURFTAB1
 70
     6
  9
$SURFTAB2
 70
     6
  9
$SURFTYPE
 70
     6
  9
$SURFU
 70
     6
  9
$SURFV
 70
     6
  9
$UCSBASE
  2

  9
$UCSNAME
  2

  9
$UCSORG
 10
0.0
 20
0.0
 30
0.0
  9
$UCSXDIR
 10
1.0
 20
0.0
 30
0.0
  9
$UCSYDIR
 10
0.0
 20
1.0
 30
0.0
  9
$UCSORTHOREF
  2

  9
$UCSORTHOVIEW
 70
     0
  9
$UCSORGTOP
 10
0.0
 20
0.0
 30
0.0
  9
$UCSORGBOTTOM
 10
0.0
 20
0.0
 30
0.0
  9
$UCSORGLEFT
 10
0.0
 20
0.0
 30
0.0
  9
$UCSORGRIGHT
 10
0.0
 20
0.0
 30
0.0
  9
$UCSORGFRONT
 10
0.0
 20
0.0
 30
0.0
  9
$UCSORGBACK
 10
0.0
 20
0.0
 30
0.0
  9
$PUCSBASE
  2

  9
$PUCSNAME
  2

  9
$PUCSORG
 10
0.0
 20
0.0
 30
0.0
  9
$PUCSXDIR
 10
1.0
 20
0.0
 30
0.0
  9
$PUCSYDIR
 10
0.0
 20
1.0
 30
0.0
  9
$PUCSORTHOREF
  2

  9
$PUCSORTHOVIEW
 70
     0
  9
$PUCSORGTOP
 10
0.0
 20
0.0
 30
0.0
  9
$PUCSORGBOTTOM
 10
0.0
 20
0.0
 30
0.0
  9
$PUCSORGLEFT
 10
0.0
 20
0.0
 30
0.0
  9
$PUCSORGRIGHT
 10
0.0
 20
0.0
 30
0.0
  9
$PUCSORGFRONT
 10
0.0
 20
0.0
 30
0.0
  9
$PUCSORGBACK
 10
0.0
 20
0.0
 30
0.0
  9
$USERI1
 70
     0
  9
$USERI2
 70
     0
  9
$USERI3
 70
     0
  9
$USERI4
 70
     0
  9
$USERI5
 70
     0
  9
$USERR1
 40
0.0
  9
$USERR2
 40
0.0
  9
$USERR3
 40
0.0
  9
$USERR4
 40
0.0
  9
$USERR5
 40
0.0
  9
$WORLDVIEW
 70
     1
  9
$SHADEDGE
 70
     3
  9
$SHADEDIF
 70
    70
  9
$TILEMODE
 70
     1
  9
$MAXACTVP
 70
    64
  9
$PINSBASE
 10
0.0
 20
0.0
 30
0.0
  9
$PLIMCHECK
 70
     0
  9
$PEXTMIN
 10
1.049999952316283
 20
0.7999999523162842
 30
0.0
  9
$PEXTMAX
 10
9.449999570846555
 20
7.199999570846556
 30
0.0
  9
$PLIMMIN
 10
-0.2500002402958907
 20
-0.2499999962453767
  9
$PLIMMAX
 10
10.74999951940821
 20
8.249999763458731
  9
$UNITMODE
 70
     0
  9
$VISRETAIN
 70
     1
  9
$PLINEGEN
 70
     0
  9
$PSLTSCALE
 70
     1
  9
$TREEDEPTH
 70
  3020
  9
$CMLSTYLE
  2
Standard
  9
$CMLJUST
 70
     0
  9
$CMLSCALE
 40
20.0
  9
$PROXYGRAPHICS
 70
     1
  9
$MEASUREMENT
 70
     1
  9
$CELWEIGHT
370
    -1
  9
$ENDCAPS
280
     0
  9
$JOINSTYLE
280
     0
  9
$LWDISPLAY
290
     0
  9
$INSUNITS
 70
     4
  9
$HYPERLINKBASE
  1

  9
$STYLESHEET
  1
MONOCHROME.CTB
  9
$XEDIT
290
     1
  9
$CEPSNTYPE
380
     0
  9
$PSTYLEMODE
290
     1
  9
$FINGERPRINTGUID
  2
{6E626E7D-BCE8-4A34-9F3D-2964C1FA831F}
  9
$VERSIONGUID
  2
{6A92C7B4-62D3-40C8-B522-8EAE90FE52F3}
  9
$EXTNAMES
290
     1
  9
$PSVPSCALE
 40
0.0
  9
$OLESTARTUP
290
     0
  9
$SORTENTS
280
   127
  9
$INDEXCTL
280
     0
  9
$HIDETEXT
280
     0
  9
$XCLIPFRAME
290
     0
  9
$HALOGAP
280
     0
  9
$OBSCOLOR
 70
   257
  9
$OBSLTYPE
280
     0
  9
$INTERSECTIONDISPLAY
280
     0
  9
$INTERSECTIONCOLOR
 70
   257
  9
$DIMASSOC
280
     1
  9
$PROJECTNAME
  1

  0
ENDSEC
  0
SECTION
  2
CLASSES
  0
CLASS
  1
ACDBDICTIONARYWDFLT
  2
AcDbDictionaryWithDefault
  3
ObjectDBX Classes
 90
        0
 91
        1
280
     0
281
     0
  0
ENDSEC
  0
SECTION
  2
TABLES
  0
TABLE
  2
VPORT
  5
8
330
0
100
AcDbSymbolTable
 70
     3
  0
VPORT
  5
2787
330
8
100
AcDbSymbolTableRecord
100
AcDbViewportTableRecord
  2
*Active
 70
     0
 10
0.0
 20
0.0
 11
1.0
 21
1.0
 12
4090.000019045545
 22
2857.500013306273
 13
0.0
 23
0.0
 14
10.0
 24
10.0
 15
10.0
 25
10.0
 16
0.0
 26
0.0
 36
1.0
 17
0.0
 27
0.0
 37
0.0
 40
5716.536240740113
 41
1.625
 42
50.0
 43
0.0
 44
0.0
 50
0.0
 51
0.0
 71
     0
 72
   100
 73
     1
 74
     3
 75
     0
 76
     0
 77
     0
 78
     0
281
     0
 65
     1
110
0.0
120
0.0
130
0.0
111
1.0
121
0.0
131
0.0
112
0.0
122
1.0
132
0.0
 79
     0
146
0.0
  0
ENDTAB
  0
TABLE
  2
LTYPE
  5
5
330
0
100
AcDbSymbolTable
 70
     3
  0
LTYPE
  5
14
330
5
100
AcDbSymbolTableRecord
100
AcDbLinetypeTableRecord
  2
ByBlock
 70
     0
  3

 72
    65
 73
     0
 40
0.0
  0
LTYPE
  5
15
330
5
100
AcDbSymbolTableRecord
100
AcDbLinetypeTableRecord
  2
ByLayer
 70
     0
  3

 72
    65
 73
     0
 40
0.0
  0
LTYPE
  5
16
330
5
100
AcDbSymbolTableRecord
100
AcDbLinetypeTableRecord
  2
Continuous
 70
     0
  3
Solid line
 72
    65
 73
     0
 40
0.0
  0
LTYPE
  5
35
330
5
100
AcDbSymbolTableRecord
100
AcDbLinetypeTableRecord
  2
DASHED
 70
     0
  3
Dashed __ __ __ __ __ __ __ __ __ __ __ __ __ _
 72
    65
 73
     2
 40
19.05
 49
12.7
 74
     0
 49
-6.349999999999998
 74
     0
  0
LTYPE
  5
36
330
5
100
AcDbSymbolTableRecord
100
AcDbLinetypeTableRecord
  2
CENTER
 70
     0
  3
Center ____ _ ____ _ ____ _ ____ _ ____ _ ____
 72
    65
 73
     4
 40
50.8
 49
31.75
 74
     0
 49
-6.349999999999998
 74
     0
 49
6.349999999999998
 74
     0
 49
-6.349999999999998
 74
     0
  0
ENDTAB
  0
TABLE
  2
LAYER
  5
2
330
0
100
AcDbSymbolTable
 70
    15
  0
LAYER
  5
10
330
2
100
AcDbSymbolTableRecord
100
AcDbLayerTableRecord
  2
0
 70
     0
 62
     7
  6
Continuous
370
    -3
390
F
  0
LAYER
  5
37
330
2
100
AcDbSymbolTableRecord
100
AcDbLayerTableRecord
  2
DASHED
 70
     0
 62
     7
  6
DASHED
370
    -3
390
F
  0
LAYER
  5
38
330
2
100
AcDbSymbolTableRecord
100
AcDbLayerTableRecord
  2
DIM
 70
     0
 62
     7
  6
Continuous
370
    -3
390
F
  0
LAYER
  5
39
330
2
100
AcDbSymbolTableRecord
100
AcDbLayerTableRecord
  2
LATER
 70
     0
 62
     7
  6
Continuous
370
    -3
390
F
  0
LAYER
  5
3A
330
2
100
AcDbSymbolTableRecord
100
AcDbLayerTableRecord
  2
CENTER
 70
     0
 62
     7
  6
CENTER
370
    -3
390
F
  0
LAYER
  5
3B
330
2
100
AcDbSymbolTableRecord
100
AcDbLayerTableRecord
  2
TXT
 70
     0
 62
     7
  6
Continuous
370
    -3
390
F
  0
LAYER
  5
58
330
2
100
AcDbSymbolTableRecord
100
AcDbLayerTableRecord
  2
FLAM
 70
     0
 62
     5
  6
Continuous
370
    -3
390
F
  0
LAYER
  5
59
330
2
100
AcDbSymbolTableRecord
100
AcDbLayerTableRecord
  2
LAYER
 70
     0
 62
     7
  6
Continuous
370
    -3
390
F
  0
LAYER
  5
97
330
2
100
AcDbSymbolTableRecord
100
AcDbLayerTableRecord
  2
Defpoints
 70
     0
 62
     7
  6
Continuous
290
     0
370
    -3
390
F
  0
LAYER
  5
12E
330
2
100
AcDbSymbolTableRecord
100
AcDbLayerTableRecord
  2
LAYER2
 70
     0
 62
     7
  6
Continuous
370
    -3
390
F
  0
LAYER
  5
4B9
330
2
100
AcDbSymbolTableRecord
100
AcDbLayerTableRecord
  2
NO
 70
     0
 62
     7
  6
Continuous
370
    -3
390
F
  0
LAYER
  5
4BA
330
2
100
AcDbSymbolTableRecord
100
AcDbLayerTableRecord
  2
NO2
 70
     0
 62
     7
  6
DASHED
370
    -3
390
F
  0
LAYER
  5
50E
330
2
100
AcDbSymbolTableRecord
100
AcDbLayerTableRecord
  2
CR
 70
     0
 62
     7
  6
Continuous
370
    -3
390
F
  0
LAYER
  5
CD5
330
2
100
AcDbSymbolTableRecord
100
AcDbLayerTableRecord
  2
DIM2
 70
     0
 62
     7
  6
Continuous
370
    -3
390
F
  0
LAYER
  5
CD6
330
2
100
AcDbSymbolTableRecord
100
AcDbLayerTableRecord
  2
TEXT
 70
     0
 62
     7
  6
Continuous
370
    -3
390
F
  0
ENDTAB
  0
TABLE
  2
STYLE
  5
3
330
0
100
AcDbSymbolTable
 70
     2
  0
STYLE
  5
11
330
3
100
AcDbSymbolTableRecord
100
AcDbTextStyleTableRecord
  2
Standard
 70
     0
 40
0.0
 41
1.0
 50
0.0
 71
     0
 42
2.5
  3
isocp.shx
  4
extfont.shx
  0
STYLE
  5
34
330
3
100
AcDbSymbolTableRecord
100
AcDbTextStyleTableRecord
  2

 70
     1
 40
0.0
 41
1.0
 50
0.0
 71
     0
 42
2.5
  3
ltypeshp.shx
  4

  0
ENDTAB
  0
TABLE
  2
VIEW
  5
6
330
0
100
AcDbSymbolTable
 70
     0
  0
ENDTAB
  0
TABLE
  2
UCS
  5
7
330
0
100
AcDbSymbolTable
 70
     0
  0
ENDTAB
  0
TABLE
  2
APPID
  5
9
330
0
100
AcDbSymbolTable
 70
     1
  0
APPID
  5
12
330
9
100
AcDbSymbolTableRecord
100
AcDbRegAppTableRecord
  2
ACAD
 70
     0
  0
ENDTAB
  0
TABLE
  2
DIMSTYLE
  5
A
330
0
100
AcDbSymbolTable
 70
     5
100
AcDbDimStyleTable
 71
     1
340
27
  0
DIMSTYLE
105
27
102
{ACAD_REACTORS
330
3F7
330
3F9
330
3FA
330
3FB
330
3FD
330
3FE
330
3FF
330
402
330
403
330
404
330
407
330
408
330
409
330
4DD
330
4DE
330
4DF
330
4E0
330
4E1
330
4E2
330
4E3
330
4E4
330
4E5
330
52A
330
52B
330
224C
330
224F
330
225B
330
225C
330
225D
330
225E
330
225F
330
2260
330
2261
330
2262
330
2263
330
24ED
330
24EE
330
24EF
330
24F2
330
24F3
330
24F4
330
24F9
330
24E8
330
24EC
330
261E
102
}
330
A
100
AcDbSymbolTableRecord
100
AcDbDimStyleTableRecord
  2
Standerd
 70
     0
 41
40.0
 42
70.0
 43
150.0
 44
30.0
 73
     0
 74
     0
 77
     1
 78
     8
140
40.0
141
2.0
143
0.03937007874016
147
15.0
171
     3
271
     2
272
     2
274
     3
283
     0
284
     8
340
11
  0
DIMSTYLE
105
5A
330
A
100
AcDbSymbolTableRecord
100
AcDbDimStyleTableRecord
  2
ISO-25
 70
     0
 41
2.5
 42
0.625
 43
3.75
 44
1.25
 73
     0
 74
     0
 77
     1
 78
     8
140
2.5
141
2.5
143
0.03937007874016
147
0.625
171
     3
172
     1
271
     2
272
     2
274
     3
283
     0
284
     8
340
11
  0
DIMSTYLE
105
5B
330
A
100
AcDbSymbolTableRecord
100
AcDbDimStyleTableRecord
  2
STANDARD
 70
     0
 41
2.0
 42
1.75
 43
5.75
 44
1.3
 73
     0
 74
     0
 77
     1
 78
     8
 79
     2
140
1.75
141
2.5
143
0.03937007874016
147
0.65
171
     3
172
     1
271
     3
272
     3
274
     3
276
     2
283
     0
284
     8
340
11
  0
DIMSTYLE
105
3E1
102
{ACAD_REACTORS
330
3F8
330
4F0
330
4F1
330
2255
330
2256
330
2257
102
}
330
A
100
AcDbSymbolTableRecord
100
AcDbDimStyleTableRecord
  2
Standerd1
 70
     0
 41
40.0
 42
35.0
 43
150.0
 44
30.0
 73
     0
 74
     0
 77
     1
 78
     8
140
40.0
141
20.0
143
0.03937007874016
147
15.0
171
     3
271
     2
272
     2
274
     3
283
     0
284
     8
340
11
  0
DIMSTYLE
105
4BB
102
{ACAD_REACTORS
330
4E6
330
4E7
330
4E8
102
}
330
A
100
AcDbSymbolTableRecord
100
AcDbDimStyleTableRecord
  2
Standerd2
 70
     0
 41
40.0
 42
35.0
 43
150.0
 44
30.0
 73
     0
 74
     0
 77
     1
 78
     8
140
40.0
141
2.0
143
0.03937007874016
147
15.0
171
     3
271
     2
272
     2
274
     3
283
     0
284
     8
340
11
  0
ENDTAB
  0
TABLE
  2
BLOCK_RECORD
  5
1
330
0
100
AcDbSymbolTable
 70
   116
  0
BLOCK_RECORD
  5
1F
330
1
100
AcDbSymbolTableRecord
100
AcDbBlockTableRecord
  2
*Model_Space
340
22
  0
BLOCK_RECORD
  5
111E
330
1
100
AcDbSymbolTableRecord
100
AcDbBlockTableRecord
  2
*Paper_Space
340
111F
  0
BLOCK_RECORD
  5
5C
330
1
100
AcDbSymbolTableRecord
100
AcDbBlockTableRecord
  2
A$C0D8837DC
340
0
  0
BLOCK_RECORD
  5
338
330
1
100
AcDbSymbolTableRecord
100
AcDbBlockTableRecord
  2
*D1
340
0
  0
BLOCK_RECORD
  5
344
330
1
100
AcDbSymbolTableRecord
100
AcDbBlockTableRecord
  2
*D2
340
0
  0
BLOCK_RECORD
  5
350
330
1
100
AcDbSymbolTableRecord
100
AcDbBlockTableRecord
  2
*D3
340
0
  0
BLOCK_RECORD
  5
35C
330
1
100
AcDbSymbolTableRecord
100
AcDbBlockTableRecord
  2
*D4
340
0
  0
BLOCK_RECORD
  5
368
330
1
100
AcDbSymbolTableRecord
100
AcDbBlockTableRecord
  2
*D5
340
0
  0
BLOCK_RECORD
  5
374
330
1
100
AcDbSymbolTableRecord
100
AcDbBlockTableRecord
  2
*D6
340
0
  0
BLOCK_RECORD
  5
380
330
1
100
AcDbSymbolTableRecord
100
AcDbBlockTableRecord
  2
*D7
340
0
  0
BLOCK_RECORD
  5
38C
330
1
100
AcDbSymbolTableRecord
100
AcDbBlockTableRecord
  2
*D8
340
0
  0
BLOCK_RECORD
  5
398
330
1
100
AcDbSymbolTableRecord
100
AcDbBlockTableRecord
  2
*D9
340
0
  0
BLOCK_RECORD
  5
3A4
330
1
100
AcDbSymbolTableRecord
100
AcDbBlockTableRecord
  2
*D10
340
0
  0
BLOCK_RECORD
  5
3B0
330
1
100
AcDbSymbolTableRecord
100
AcDbBlockTableRecord
  2
*D11
340
0
  0
BLOCK_RECORD
  5
3BD
330
1
100
AcDbSymbolTableRecord
100
AcDbBlockTableRecord
  2
*D12
340
0
  0
BLOCK_RECORD
  5
3C9
330
1
100
AcDbSymbolTableRecord
100
AcDbBlockTableRecord
  2
*D13
340
0
  0
BLOCK_RECORD
  5
3D5
330
1
100
AcDbSymbolTableRecord
100
AcDbBlockTableRecord
  2
*D14
340
0
  0
BLOCK_RECORD
  5
3E2
330
1
100
AcDbSymbolTableRecord
100
AcDbBlockTableRecord
  2
B2-750
340
0
1001
ACAD
1000
DesignCenter Data
1002
{
1070
     1
1070
     4
1002
}
  0
BLOCK_RECORD
  5
40E
330
1
100
AcDbSymbolTableRecord
100
AcDbBlockTableRecord
  2
*D16
340
0
  0
BLOCK_RECORD
  5
41A
330
1
100
AcDbSymbolTableRecord
100
AcDbBlockTableRecord
  2
*D17
340
0
  0
BLOCK_RECORD
  5
426
330
1
100
AcDbSymbolTableRecord
100
AcDbBlockTableRecord
  2
*D18
340
0
  0
BLOCK_RECORD
  5
432
330
1
100
AcDbSymbolTableRecord
100
AcDbBlockTableRecord
  2
*D19
340
0
  0
BLOCK_RECORD
  5
43E
330
1
100
AcDbSymbolTableRecord
100
AcDbBlockTableRecord
  2
*D20
340
0
  0
BLOCK_RECORD
  5
44A
330
1
100
AcDbSymbolTableRecord
100
AcDbBlockTableRecord
  2
*D21
340
0
  0
BLOCK_RECORD
  5
456
330
1
100
AcDbSymbolTableRecord
100
AcDbBlockTableRecord
  2
*D22
340
0
  0
BLOCK_RECORD
  5
462
330
1
100
AcDbSymbolTableRecord
100
AcDbBlockTableRecord
  2
*D23
340
0
  0
BLOCK_RECORD
  5
46E
330
1
100
AcDbSymbolTableRecord
100
AcDbBlockTableRecord
  2
*D24
340
0
  0
BLOCK_RECORD
  5
47B
330
1
100
AcDbSymbolTableRecord
100
AcDbBlockTableRecord
  2
*D25
340
0
  0
BLOCK_RECORD
  5
488
330
1
100
AcDbSymbolTableRecord
100
AcDbBlockTableRecord
  2
*D26
340
0
  0
BLOCK_RECORD
  5
494
330
1
100
AcDbSymbolTableRecord
100
AcDbBlockTableRecord
  2
*D27
340
0
  0
BLOCK_RECORD
  5
4A1
330
1
100
AcDbSymbolTableRecord
100
AcDbBlockTableRecord
  2
*D28
340
0
  0
BLOCK_RECORD
  5
4AD
330
1
100
AcDbSymbolTableRecord
100
AcDbBlockTableRecord
  2
*D29
340
0
  0
BLOCK_RECORD
  5
4BC
330
1
100
AcDbSymbolTableRecord
100
AcDbBlockTableRecord
  2
B1-750
340
0
1001
ACAD
1000
DesignCenter Data
1002
{
1070
     1
1070
     4
1002
}
  0
BLOCK_RECORD
  5
4F6
330
1
100
AcDbSymbolTableRecord
100
AcDbBlockTableRecord
  2
*D31
340
0
  0
BLOCK_RECORD
  5
502
330
1
100
AcDbSymbolTableRecord
100
AcDbBlockTableRecord
  2
*D32
340
0
  0
BLOCK_RECORD
  5
50F
330
1
100
AcDbSymbolTableRecord
100
AcDbBlockTableRecord
  2
B2-top
340
0
1001
ACAD
1000
DesignCenter Data
1002
{
1070
     1
1070
     4
1002
}
  0
BLOCK_RECORD
  5
CA8
330
1
100
AcDbSymbolTableRecord
100
AcDbBlockTableRecord
  2
A4
340
0
  0
BLOCK_RECORD
  5
CD7
330
1
100
AcDbSymbolTableRecord
100
AcDbBlockTableRecord
  2
A3展開図dwg
340
0
1001
ACAD
1000
DesignCenter Data
1002
{
1070
     1
1070
     4
1002
}
  0
BLOCK_RECORD
  5
2283
330
1
100
AcDbSymbolTableRecord
100
AcDbBlockTableRecord
  2
*D75
340
0
  0
BLOCK_RECORD
  5
2290
330
1
100
AcDbSymbolTableRecord
100
AcDbBlockTableRecord
  2
*D76
340
0
  0
BLOCK_RECORD
  5
229C
330
1
100
AcDbSymbolTableRecord
100
AcDbBlockTableRecord
  2
*D77
340
0
  0
BLOCK_RECORD
  5
22A9
330
1
100
AcDbSymbolTableRecord
100
AcDbBlockTableRecord
  2
*D78
340
0
  0
BLOCK_RECORD
  5
22B6
330
1
100
AcDbSymbolTableRecord
100
AcDbBlockTableRecord
  2
*D79
340
0
  0
BLOCK_RECORD
  5
22CE
330
1
100
AcDbSymbolTableRecord
100
AcDbBlockTableRecord
  2
*D81
340
0
  0
BLOCK_RECORD
  5
22DA
330
1
100
AcDbSymbolTableRecord
100
AcDbBlockTableRecord
  2
*D82
340
0
  0
BLOCK_RECORD
  5
22E6
330
1
100
AcDbSymbolTableRecord
100
AcDbBlockTableRecord
  2
*D83
340
0
  0
BLOCK_RECORD
  5
22F2
330
1
100
AcDbSymbolTableRecord
100
AcDbBlockTableRecord
  2
*D84
340
0
  0
BLOCK_RECORD
  5
22FE
330
1
100
AcDbSymbolTableRecord
100
AcDbBlockTableRecord
  2
*D85
340
0
  0
BLOCK_RECORD
  5
230B
330
1
100
AcDbSymbolTableRecord
100
AcDbBlockTableRecord
  2
*D86
340
0
  0
BLOCK_RECORD
  5
2317
330
1
100
AcDbSymbolTableRecord
100
AcDbBlockTableRecord
  2
*D87
340
0
  0
BLOCK_RECORD
  5
2323
330
1
100
AcDbSymbolTableRecord
100
AcDbBlockTableRecord
  2
*D88
340
0
  0
BLOCK_RECORD
  5
232F
330
1
100
AcDbSymbolTableRecord
100
AcDbBlockTableRecord
  2
*D89
340
0
  0
BLOCK_RECORD
  5
250A
330
1
100
AcDbSymbolTableRecord
100
AcDbBlockTableRecord
  2
*D99
340
0
  0
BLOCK_RECORD
  5
2516
330
1
100
AcDbSymbolTableRecord
100
AcDbBlockTableRecord
  2
*D100
340
0
  0
BLOCK_RECORD
  5
2523
330
1
100
AcDbSymbolTableRecord
100
AcDbBlockTableRecord
  2
*D101
340
0
  0
BLOCK_RECORD
  5
252F
330
1
100
AcDbSymbolTableRecord
100
AcDbBlockTableRecord
  2
*D102
340
0
  0
BLOCK_RECORD
  5
253B
330
1
100
AcDbSymbolTableRecord
100
AcDbBlockTableRecord
  2
*D103
340
0
  0
BLOCK_RECORD
  5
2547
330
1
100
AcDbSymbolTableRecord
100
AcDbBlockTableRecord
  2
*D104
340
0
  0
BLOCK_RECORD
  5
2553
330
1
100
AcDbSymbolTableRecord
100
AcDbBlockTableRecord
  2
*D105
340
0
  0
BLOCK_RECORD
  5
255F
330
1
100
AcDbSymbolTableRecord
100
AcDbBlockTableRecord
  2
*D106
340
0
  0
BLOCK_RECORD
  5
256B
330
1
100
AcDbSymbolTableRecord
100
AcDbBlockTableRecord
  2
*D107
340
0
  0
BLOCK_RECORD
  5
261F
330
1
100
AcDbSymbolTableRecord
100
AcDbBlockTableRecord
  2
*D108
340
0
  0
ENDTAB
  0
ENDSEC
  0
SECTION
  2
BLOCKS
  0
BLOCK
  5
20
330
1F
100
AcDbEntity
  8
0
100
AcDbBlockBegin
  2
*Model_Space
 70
     0
 10
0.0
 20
0.0
 30
0.0
  3
*Model_Space
  1

  0
ENDBLK
  5
21
330
1F
100
AcDbEntity
  8
0
100
AcDbBlockEnd
  0
BLOCK
  5
1120
330
111E
100
AcDbEntity
 67
     1
  8
0
100
AcDbBlockBegin
  2
*Paper_Space
 70
     0
 10
0.0
 20
0.0
 30
0.0
  3
*Paper_Space
  1

  0
ENDBLK
  5
1121
330
111E
100
AcDbEntity
 67
     1
  8
0
100
AcDbBlockEnd
  0
BLOCK
  5
87
330
5C
100
AcDbEntity
  8
0
100
AcDbBlockBegin
  2
A$C0D8837DC
 70
     0
 10
0.0
 20
0.0
 30
0.0
  3
A$C0D8837DC
  1

  0
LINE
  5
5D
330
5C
100
AcDbEntity
  8
FLAM
100
AcDbLine
 10
34.99999953015538
 20
11.25000005996003
 30
0.0
 11
209.9999995301553
 21
11.25000005996003
 31
0.0
  0
LINE
  5
5E
330
5C
100
AcDbEntity
  8
FLAM
100
AcDbLine
 10
34.99999953015538
 20
3.750000059960028
 30
0.0
 11
209.9999995301553
 21
3.750000059960029
 31
0.0
  0
LINE
  5
5F
330
5C
100
AcDbEntity
  8
LAYER
100
AcDbLine
 10
34.99999953015538
 20
7.500000059960028
 30
0.0
 11
209.9999995301553
 21
7.500000059960028
 31
0.0
  0
LINE
  5
60
330
5C
100
AcDbEntity
  8
LAYER
100
AcDbLine
 10
-0.0000004698446219
 20
15.00000005996003
 30
0.0
 11
405.9999995301553
 21
15.00000005996003
 31
0.0
  0
LWPOLYLINE
  5
61
330
5C
100
AcDbEntity
  8
LAYER
100
AcDbPolyline
 90
        4
 70
     1
 43
0.0
 10
-0.0000004698446219
 20
0.0000000599600298
 10
-0.0000004698446219
 20
282.75000005996
 10
405.9999995301553
 20
282.75000005996
 10
405.9999995301553
 20
0.0000000599600298
  0
VIEWPORT
  5
62
330
5C
100
AcDbEntity
  8
0
100
AcDbViewport
 10
202.9999995301554
 20
148.87500005996
 30
0.0
 40
405.9999999999998
 41
267.75
 69
     0
 12
228.1209015211101
 22
160.8176196896051
 13
0.0
 23
0.0
 14
10.0
 24
10.0
 15
10.0
 25
10.0
 16
0.0
 26
0.0
 36
1.0
 17
0.0
 27
0.0
 37
0.0
 42
50.0
 43
0.0
 44
0.0
 45
267.75
 50
0.0
 51
0.0
 72
   100
 90
    32864
  1

281
     0
 71
     1
 74
     0
110
0.0
120
0.0
130
0.0
111
1.0
121
0.0
131
0.0
112
0.0
122
1.0
132
0.0
 79
     0
146
0.0
170
     0
  0
TEXT
  5
63
330
5C
100
AcDbEntity
  8
LAYER
100
AcDbText
 10
2.049999530155377
 20
5.000000059960028
 30
0.0
 40
5.0
  1
種類・呼び名
 41
0.9
 72
     4
 11
17.49999953015538
 21
7.500000059960028
 31
0.0
100
AcDbText
  0
LINE
  5
64
330
5C
100
AcDbEntity
  8
LAYER
100
AcDbLine
 10
34.99999953015538
 20
15.00000005996003
 30
0.0
 11
34.99999953015538
 21
0.0000000599600298
 31
0.0
  0
LINE
  5
65
330
5C
100
AcDbEntity
  8
FLAM
100
AcDbLine
 10
122.4999995301553
 20
7.500000059960028
 30
0.0
 11
122.4999995301553
 21
0.0000000599600298
 31
0.0
  0
LINE
  5
66
330
5C
100
AcDbEntity
  8
FLAM
100
AcDbLine
 10
122.4999995301553
 20
7.500000059960028
 30
0.0
 11
122.4999995301553
 21
15.00000005996003
 31
0.0
  0
LINE
  5
67
330
5C
100
AcDbEntity
  8
LAYER
100
AcDbLine
 10
309.9999995301553
 20
10.00000005996003
 30
0.0
 11
345.9999995301553
 21
10.00000005996003
 31
0.0
  0
LINE
  5
68
330
5C
100
AcDbEntity
  8
FLAM
100
AcDbLine
 10
216.9999995301553
 20
11.25000005996003
 30
0.0
 11
309.9999995301553
 21
11.25000005996003
 31
0.0
  0
LINE
  5
69
330
5C
100
AcDbEntity
  8
FLAM
100
AcDbLine
 10
216.9999995301553
 20
3.750000059960029
 30
0.0
 11
309.9999995301553
 21
3.750000059960028
 31
0.0
  0
LINE
  5
6A
330
5C
100
AcDbEntity
  8
FLAM
100
AcDbLine
 10
216.9999995301553
 20
7.500000059960028
 30
0.0
 11
309.9999995301553
 21
7.500000059960028
 31
0.0
  0
TEXT
  5
6B
330
5C
100
AcDbEntity
  8
LAYER
100
AcDbText
 10
211.6333328634886
 20
1.883333393293361
 30
0.0
 40
4.0
  1
要
 72
     4
 11
213.4999995301553
 21
3.750000059960028
 31
0.0
100
AcDbText
  0
LINE
  5
6C
330
5C
100
AcDbEntity
  8
FLAM
100
AcDbLine
 10
263.4999995301553
 20
7.500000059960028
 30
0.0
 11
263.4999995301553
 21
0.0000000599600298
 31
0.0
  0
LINE
  5
6D
330
5C
100
AcDbEntity
  8
LAYER
100
AcDbLine
 10
216.9999995301553
 20
15.00000005996003
 30
0.0
 11
216.9999995301553
 21
0.0000000599600298
 31
0.0
  0
LINE
  5
6E
330
5C
100
AcDbEntity
  8
LAYER
100
AcDbLine
 10
209.9999995301553
 20
15.00000005996003
 30
0.0
 11
209.9999995301553
 21
0.0000000599600298
 31
0.0
  0
TEXT
  5
6F
330
5C
100
AcDbEntity
  8
LAYER
100
AcDbText
 10
211.5952376253934
 20
9.250000059960029
 30
0.0
 40
4.0
  1
摘
 72
     4
 11
213.4999995301553
 21
11.25000005996003
 31
0.0
100
AcDbText
  0
LINE
  5
70
330
5C
100
AcDbEntity
  8
FLAM
100
AcDbLine
 10
263.4999995301553
 20
7.500000059960028
 30
0.0
 11
263.4999995301553
 21
15.00000005996003
 31
0.0
  0
LINE
  5
71
330
5C
100
AcDbEntity
  8
LAYER
100
AcDbLine
 10
333.9999995301553
 20
15.00000005996003
 30
0.0
 11
333.9999995301553
 21
0.0000000599600298
 31
0.0
  0
LINE
  5
72
330
5C
100
AcDbEntity
  8
LAYER
100
AcDbLine
 10
321.9999995301553
 20
15.00000005996003
 30
0.0
 11
321.9999995301553
 21
0.0000000599600298
 31
0.0
  0
LINE
  5
73
330
5C
100
AcDbEntity
  8
LAYER
100
AcDbLine
 10
309.9999995301553
 20
15.00000005996003
 30
0.0
 11
309.9999995301553
 21
0.0000000599600298
 31
0.0
  0
TEXT
  5
74
330
5C
100
AcDbEntity
  8
LAYER
100
AcDbText
 10
310.9999995301553
 20
11.00000005996003
 30
0.0
 40
3.0
  1
工場長
 72
     4
 11
315.9999995301553
 21
12.50000005996003
 31
0.0
100
AcDbText
  0
TEXT
  5
75
330
5C
100
AcDbEntity
  8
LAYER
100
AcDbText
 10
323.0999995301553
 20
11.00000005996003
 30
0.0
 40
3.0
  1
検　図
 72
     4
 11
327.9999995301553
 21
12.50000005996003
 31
0.0
100
AcDbText
  0
TEXT
  5
76
330
5C
100
AcDbEntity
  8
LAYER
100
AcDbText
 10
367.7624995301553
 20
17.00000005996003
 30
0.0
 40
3.5
  1
H.   年   月   日
 72
     4
 11
384.9999995301553
 21
18.75000005996003
 31
0.0
100
AcDbText
  0
TEXT
  5
77
330
5C
100
AcDbEntity
  8
LAYER
100
AcDbText
 10
347.066666196822
 20
2.000000059960029
 30
0.0
 40
3.5
  1
阿賀コンクリート工業株式会社
 72
     4
 11
375.9999995301553
 21
3.750000059960028
 31
0.0
100
AcDbText
  0
LINE
  5
78
330
5C
100
AcDbEntity
  8
FLAM
100
AcDbLine
 10
363.9999995301553
 20
11.25000005996003
 30
0.0
 11
405.9999995301553
 21
11.25000005996003
 31
0.0
  0
LINE
  5
79
330
5C
100
AcDbEntity
  8
FLAM
100
AcDbLine
 10
363.9999995301553
 20
26.25000005996003
 30
0.0
 11
405.9999995301553
 21
26.25000005996003
 31
0.0
  0
LINE
  5
7A
330
5C
100
AcDbEntity
  8
FLAM
100
AcDbLine
 10
363.9999995301553
 20
18.75000005996003
 30
0.0
 11
405.9999995301553
 21
18.75000005996003
 31
0.0
  0
LINE
  5
7B
330
5C
100
AcDbEntity
  8
LAYER
100
AcDbLine
 10
345.9999995301553
 20
7.500000059960028
 30
0.0
 11
405.9999995301553
 21
7.500000059960028
 31
0.0
  0
LINE
  5
7C
330
5C
100
AcDbEntity
  8
LAYER
100
AcDbLine
 10
345.9999995301553
 20
22.50000005996003
 30
0.0
 11
405.9999995301553
 21
22.50000005996003
 31
0.0
  0
LINE
  5
7D
330
5C
100
AcDbEntity
  8
LAYER
100
AcDbLine
 10
345.9999995301553
 20
30.00000005996003
 30
0.0
 11
405.9999995301553
 21
30.00000005996003
 31
0.0
  0
LINE
  5
7E
330
5C
100
AcDbEntity
  8
LAYER
100
AcDbLine
 10
345.9999995301553
 20
15.00000005996003
 30
0.0
 11
345.9999995301553
 21
0.0000000599600298
 31
0.0
  0
TEXT
  5
7F
330
5C
100
AcDbEntity
  8
LAYER
100
AcDbText
 10
349.166666196822
 20
24.50000005996003
 30
0.0
 40
3.5
  1
縮　尺
 72
     4
 11
354.9999995301553
 21
26.25000005996003
 31
0.0
100
AcDbText
  0
LINE
  5
80
330
5C
100
AcDbEntity
  8
LAYER
100
AcDbLine
 10
363.9999995301553
 20
30.00000005996003
 30
0.0
 11
363.9999995301553
 21
7.500000059960028
 31
0.0
  0
LINE
  5
81
330
5C
100
AcDbEntity
  8
LAYER
100
AcDbLine
 10
345.9999995301553
 20
15.00000005996003
 30
0.0
 11
345.9999995301553
 21
30.00000005996003
 31
0.0
  0
TEXT
  5
82
330
5C
100
AcDbEntity
  8
LAYER
100
AcDbText
 10
349.0499995301553
 20
9.500000059960029
 30
0.0
 40
3.5
  1
図　番
 72
     4
 11
354.9999995301553
 21
11.25000005996003
 31
0.0
100
AcDbText
  0
TEXT
  5
83
330
5C
100
AcDbEntity
  8
LAYER
100
AcDbText
 10
348.9333328634887
 20
17.00000005996003
 30
0.0
 40
3.5
  1
日　付
 72
     4
 11
354.9999995301553
 21
18.75000005996003
 31
0.0
100
AcDbText
  0
TEXT
  5
84
330
5C
100
AcDbEntity
  8
LAYER
100
AcDbText
 10
335.0999995301553
 20
11.00000005996003
 30
0.0
 40
3.0
  1
製　図
 72
     4
 11
339.9999995301553
 21
12.50000005996003
 31
0.0
100
AcDbText
  0
LINE
  5
85
330
5C
100
AcDbEntity
  8
FLAM
100
AcDbLine
 10
384.9999995301553
 20
26.25000005996003
 30
0.0
 11
384.9999995301553
 21
7.500000059960028
 31
0.0
  0
LINE
  5
86
330
5C
100
AcDbEntity
  8
FLAM
100
AcDbLine
 10
384.9999995301553
 20
26.25000005996003
 30
0.0
 11
384.9999995301553
 21
30.00000005996003
 31
0.0
  0
ENDBLK
  5
88
330
5C
100
AcDbEntity
  8
0
100
AcDbBlockEnd
  0
BLOCK
  5
339
330
338
100
AcDbEntity
  8
0
100
AcDbBlockBegin
  2
*D1
 70
     1
 10
0.0
 20
0.0
 30
0.0
  3
*D1
  1

  0
LINE
  5
33A
330
338
100
AcDbEntity
  8
DIM
 62
     0
370
    -2
100
AcDbLine
 10
1227.5
 20
750.0
 30
0.0
 11
1645.0
 21
749.9999999999999
 31
0.0
  0
LINE
  5
33B
330
338
100
AcDbEntity
  8
DIM
 62
     0
370
    -2
100
AcDbLine
 10
1375.0
 20
-0.0000000000000198
 30
0.0
 11
1645.0
 21
-0.0000000000000963
 31
0.0
  0
LINE
  5
33C
330
338
100
AcDbEntity
  8
DIM
 62
     0
370
    -2
100
AcDbLine
 10
1615.0
 20
709.9999999999996
 30
0.0
 11
1615.0
 21
39.99999999999992
 31
0.0
  0
SOLID
  5
33D
330
338
100
AcDbEntity
  8
DIM
 62
     0
100
AcDbTrace
 10
1608.333333333333
 20
709.9999999999996
 30
0.0
 11
1621.666666666667
 21
709.9999999999996
 31
0.0
 12
1615.0
 22
749.9999999999999
 32
0.0
 13
1615.0
 23
749.9999999999999
 33
0.0
  0
SOLID
  5
33E
330
338
100
AcDbEntity
  8
DIM
 62
     0
100
AcDbTrace
 10
1608.333333333333
 20
39.99999999999992
 30
0.0
 11
1621.666666666667
 21
39.99999999999991
 31
0.0
 12
1615.0
 22
-0.0000000000000878
 32
0.0
 13
1615.0
 23
-0.0000000000000878
 33
0.0
  0
MTEXT
  5
33F
330
338
100
AcDbEntity
  8
DIM
 62
     0
100
AcDbMText
 10
1580.0
 20
375.0000000000002
 30
0.0
 40
40.0
 41
0.0
 71
     5
 72
     1
  1
750
 11
0.0000000000000001
 21
1.0
 31
0.0
 73
     1
 44
1.0
  0
POINT
  5
340
330
338
100
AcDbEntity
  8
Defpoints
 62
     0
100
AcDbPoint
 10
1157.5
 20
750.0
 30
0.0
  0
POINT
  5
341
330
338
100
AcDbEntity
  8
Defpoints
 62
     0
100
AcDbPoint
 10
1305.0
 20
0.0
 30
0.0
  0
POINT
  5
342
330
338
100
AcDbEntity
  8
Defpoints
 62
     0
100
AcDbPoint
 10
1615.0
 20
-0.0000000000000878
 30
0.0
  0
ENDBLK
  5
343
330
338
100
AcDbEntity
  8
0
100
AcDbBlockEnd
  0
BLOCK
  5
345
330
344
100
AcDbEntity
  8
0
100
AcDbBlockBegin
  2
*D2
 70
     1
 10
0.0
 20
0.0
 30
0.0
  3
*D2
  1

  0
LINE
  5
346
330
344
100
AcDbEntity
  8
DIM
 62
     0
370
    -2
100
AcDbLine
 10
98.82855567520373
 20
865.0
 30
0.0
 11
82.22611542610129
 21
770.842882453976
 31
0.0
  0
LINE
  5
347
330
344
100
AcDbEntity
  8
DIM
 62
     0
370
    -2
100
AcDbLine
 10
708.8285556752037
 20
865.0
 30
0.0
 11
692.2261154261012
 21
770.842882453976
 31
0.0
  0
LINE
  5
348
330
344
100
AcDbEntity
  8
DIM
 62
     0
370
    -2
100
AcDbLine
 10
127.5159248473552
 20
800.8428824539757
 30
0.0
 11
657.5159248473552
 21
800.8428824539757
 31
0.0
  0
SOLID
  5
349
330
344
100
AcDbEntity
  8
DIM
 62
     0
100
AcDbTrace
 10
127.5159248473552
 20
807.5095491206425
 30
0.0
 11
127.5159248473552
 21
794.1762157873093
 31
0.0
 12
87.51592484735523
 22
800.8428824539757
 32
0.0
 13
87.51592484735523
 23
800.8428824539757
 33
0.0
  0
SOLID
  5
34A
330
344
100
AcDbEntity
  8
DIM
 62
     0
100
AcDbTrace
 10
657.5159248473552
 20
807.5095491206425
 30
0.0
 11
657.5159248473552
 21
794.1762157873093
 31
0.0
 12
697.5159248473552
 22
800.8428824539757
 32
0.0
 13
697.5159248473552
 23
800.8428824539757
 33
0.0
  0
MTEXT
  5
34B
330
344
100
AcDbEntity
  8
DIM
 62
     0
100
AcDbMText
 10
392.5159248473552
 20
835.842882453976
 30
0.0
 40
40.0
 41
0.0
 71
     5
 72
     1
  1
610
 73
     1
 44
1.0
  0
POINT
  5
34C
330
344
100
AcDbEntity
  8
Defpoints
 62
     0
100
AcDbPoint
 10
105.0
 20
900.0
 30
0.0
  0
POINT
  5
34D
330
344
100
AcDbEntity
  8
Defpoints
 62
     0
100
AcDbPoint
 10
715.0
 20
900.0
 30
0.0
  0
POINT
  5
34E
330
344
100
AcDbEntity
  8
Defpoints
 62
     0
100
AcDbPoint
 10
697.5159248473552
 20
800.8428824539757
 30
0.0
  0
ENDBLK
  5
34F
330
344
100
AcDbEntity
  8
0
100
AcDbBlockEnd
  0
BLOCK
  5
351
330
350
100
AcDbEntity
  8
0
100
AcDbBlockBegin
  2
*D3
 70
     1
 10
0.0
 20
0.0
 30
0.0
  3
*D3
  1

  0
LINE
  5
352
330
350
100
AcDbEntity
  8
DIM
 62
     0
370
    -2
100
AcDbLine
 10
110.0
 20
1070.0
 30
0.0
 11
110.0
 21
1180.0
 31
0.0
  0
LINE
  5
353
330
350
100
AcDbEntity
  8
DIM
 62
     0
370
    -2
100
AcDbLine
 10
710.0
 20
1070.0
 30
0.0
 11
710.0
 21
1180.0
 31
0.0
  0
LINE
  5
354
330
350
100
AcDbEntity
  8
DIM
 62
     0
370
    -2
100
AcDbLine
 10
150.0
 20
1150.0
 30
0.0
 11
670.0
 21
1150.0
 31
0.0
  0
SOLID
  5
355
330
350
100
AcDbEntity
  8
DIM
 62
     0
100
AcDbTrace
 10
150.0
 20
1156.666666666667
 30
0.0
 11
150.0
 21
1143.333333333333
 31
0.0
 12
110.0
 22
1150.0
 32
0.0
 13
110.0
 23
1150.0
 33
0.0
  0
SOLID
  5
356
330
350
100
AcDbEntity
  8
DIM
 62
     0
100
AcDbTrace
 10
670.0
 20
1156.666666666667
 30
0.0
 11
670.0
 21
1143.333333333333
 31
0.0
 12
710.0
 22
1150.0
 32
0.0
 13
710.0
 23
1150.0
 33
0.0
  0
MTEXT
  5
357
330
350
100
AcDbEntity
  8
DIM
 62
     0
100
AcDbMText
 10
421.7551294819541
 20
1185.0
 30
0.0
 40
40.0
 41
0.0
 71
     5
 72
     1
  1
600
 73
     1
 44
1.0
  0
POINT
  5
358
330
350
100
AcDbEntity
  8
Defpoints
 62
     0
100
AcDbPoint
 10
110.0
 20
1000.0
 30
0.0
  0
POINT
  5
359
330
350
100
AcDbEntity
  8
Defpoints
 62
     0
100
AcDbPoint
 10
710.0
 20
1000.0
 30
0.0
  0
POINT
  5
35A
330
350
100
AcDbEntity
  8
Defpoints
 62
     0
100
AcDbPoint
 10
710.0
 20
1150.0
 30
0.0
  0
ENDBLK
  5
35B
330
350
100
AcDbEntity
  8
0
100
AcDbBlockEnd
  0
BLOCK
  5
35D
330
35C
100
AcDbEntity
  8
0
100
AcDbBlockBegin
  2
*D4
 70
     1
 10
0.0
 20
0.0
 30
0.0
  3
*D4
  1

  0
LINE
  5
35E
330
35C
100
AcDbEntity
  8
DIM
 62
     0
370
    -2
100
AcDbLine
 10
110.0
 20
1070.0
 30
0.0
 11
110.0
 21
1180.0
 31
0.0
  0
LINE
  5
35F
330
35C
100
AcDbEntity
  8
DIM
 62
     0
370
    -2
100
AcDbLine
 10
-25.0
 20
1055.0
 30
0.0
 11
-24.99999999999999
 21
1180.0
 31
0.0
  0
LINE
  5
360
330
35C
100
AcDbEntity
  8
DIM
 62
     0
370
    -2
100
AcDbLine
 10
70.00000000000001
 20
1150.0
 30
0.0
 11
15.00000000000001
 21
1150.0
 31
0.0
  0
SOLID
  5
361
330
35C
100
AcDbEntity
  8
DIM
 62
     0
100
AcDbTrace
 10
70.00000000000001
 20
1156.666666666667
 30
0.0
 11
70.00000000000001
 21
1143.333333333333
 31
0.0
 12
110.0
 22
1150.0
 32
0.0
 13
110.0
 23
1150.0
 33
0.0
  0
SOLID
  5
362
330
35C
100
AcDbEntity
  8
DIM
 62
     0
100
AcDbTrace
 10
15.00000000000001
 20
1156.666666666667
 30
0.0
 11
15.00000000000001
 21
1143.333333333333
 31
0.0
 12
-24.99999999999999
 22
1150.0
 32
0.0
 13
-24.99999999999999
 23
1150.0
 33
0.0
  0
MTEXT
  5
363
330
35C
100
AcDbEntity
  8
DIM
 62
     0
100
AcDbMText
 10
42.5
 20
1185.0
 30
0.0
 40
40.0
 41
0.0
 71
     5
 72
     1
  1
135
 73
     1
 44
1.0
  0
POINT
  5
364
330
35C
100
AcDbEntity
  8
Defpoints
 62
     0
100
AcDbPoint
 10
110.0
 20
1000.0
 30
0.0
  0
POINT
  5
365
330
35C
100
AcDbEntity
  8
Defpoints
 62
     0
100
AcDbPoint
 10
-25.0
 20
985.0
 30
0.0
  0
POINT
  5
366
330
35C
100
AcDbEntity
  8
Defpoints
 62
     0
100
AcDbPoint
 10
-24.99999999999999
 20
1150.0
 30
0.0
  0
ENDBLK
  5
367
330
35C
100
AcDbEntity
  8
0
100
AcDbBlockEnd
  0
BLOCK
  5
369
330
368
100
AcDbEntity
  8
0
100
AcDbBlockBegin
  2
*D5
 70
     1
 10
0.0
 20
0.0
 30
0.0
  3
*D5
  1

  0
LINE
  5
36A
330
368
100
AcDbEntity
  8
DIM
 62
     0
370
    -2
100
AcDbLine
 10
710.0
 20
1070.0
 30
0.0
 11
710.0
 21
1180.0
 31
0.0
  0
LINE
  5
36B
330
368
100
AcDbEntity
  8
DIM
 62
     0
370
    -2
100
AcDbLine
 10
845.0000000000001
 20
1055.0
 30
0.0
 11
845.0000000000001
 21
1180.0
 31
0.0
  0
LINE
  5
36C
330
368
100
AcDbEntity
  8
DIM
 62
     0
370
    -2
100
AcDbLine
 10
750.0
 20
1150.0
 30
0.0
 11
805.0
 21
1150.0
 31
0.0
  0
SOLID
  5
36D
330
368
100
AcDbEntity
  8
DIM
 62
     0
100
AcDbTrace
 10
750.0
 20
1156.666666666667
 30
0.0
 11
750.0
 21
1143.333333333333
 31
0.0
 12
710.0
 22
1150.0
 32
0.0
 13
710.0
 23
1150.0
 33
0.0
  0
SOLID
  5
36E
330
368
100
AcDbEntity
  8
DIM
 62
     0
100
AcDbTrace
 10
805.0
 20
1156.666666666667
 30
0.0
 11
805.0
 21
1143.333333333333
 31
0.0
 12
845.0000000000001
 22
1150.0
 32
0.0
 13
845.0000000000001
 23
1150.0
 33
0.0
  0
MTEXT
  5
36F
330
368
100
AcDbEntity
  8
DIM
 62
     0
100
AcDbMText
 10
777.5
 20
1185.0
 30
0.0
 40
40.0
 41
0.0
 71
     5
 72
     1
  1
135
 73
     1
 44
1.0
  0
POINT
  5
370
330
368
100
AcDbEntity
  8
Defpoints
 62
     0
100
AcDbPoint
 10
710.0
 20
1000.0
 30
0.0
  0
POINT
  5
371
330
368
100
AcDbEntity
  8
Defpoints
 62
     0
100
AcDbPoint
 10
845.0000000000001
 20
985.0
 30
0.0
  0
POINT
  5
372
330
368
100
AcDbEntity
  8
Defpoints
 62
     0
100
AcDbPoint
 10
845.0000000000001
 20
1150.0
 30
0.0
  0
ENDBLK
  5
373
330
368
100
AcDbEntity
  8
0
100
AcDbBlockEnd
  0
BLOCK
  5
375
330
374
100
AcDbEntity
  8
0
100
AcDbBlockBegin
  2
*D6
 70
     1
 10
0.0
 20
0.0
 30
0.0
  3
*D6
  1

  0
LINE
  5
376
330
374
100
AcDbEntity
  8
DIM
 62
     0
370
    -2
100
AcDbLine
 10
410.0000000000001
 20
1120.0
 30
0.0
 11
410.0000000000001
 21
1330.0
 31
0.0
  0
LINE
  5
377
330
374
100
AcDbEntity
  8
DIM
 62
     0
370
    -2
100
AcDbLine
 10
-100.0
 20
960.0
 30
0.0
 11
-100.0
 21
1330.0
 31
0.0
  0
LINE
  5
378
330
374
100
AcDbEntity
  8
DIM
 62
     0
370
    -2
100
AcDbLine
 10
370.0000000000002
 20
1300.0
 30
0.0
 11
-59.99999999999997
 21
1300.0
 31
0.0
  0
SOLID
  5
379
330
374
100
AcDbEntity
  8
DIM
 62
     0
100
AcDbTrace
 10
370.0000000000002
 20
1306.666666666667
 30
0.0
 11
370.0000000000002
 21
1293.333333333333
 31
0.0
 12
410.0000000000001
 22
1300.0
 32
0.0
 13
410.0000000000001
 23
1300.0
 33
0.0
  0
SOLID
  5
37A
330
374
100
AcDbEntity
  8
DIM
 62
     0
100
AcDbTrace
 10
-59.99999999999997
 20
1306.666666666667
 30
0.0
 11
-59.99999999999997
 21
1293.333333333333
 31
0.0
 12
-100.0
 22
1300.0
 32
0.0
 13
-100.0
 23
1300.0
 33
0.0
  0
MTEXT
  5
37B
330
374
100
AcDbEntity
  8
DIM
 62
     0
100
AcDbMText
 10
155.0
 20
1335.0
 30
0.0
 40
40.0
 41
0.0
 71
     5
 72
     1
  1
510
 73
     1
 44
1.0
  0
POINT
  5
37C
330
374
100
AcDbEntity
  8
Defpoints
 62
     0
100
AcDbPoint
 10
410.0000000000001
 20
1050.0
 30
0.0
  0
POINT
  5
37D
330
374
100
AcDbEntity
  8
Defpoints
 62
     0
100
AcDbPoint
 10
-100.0
 20
890.0
 30
0.0
  0
POINT
  5
37E
330
374
100
AcDbEntity
  8
Defpoints
 62
     0
100
AcDbPoint
 10
-100.0
 20
1300.0
 30
0.0
  0
ENDBLK
  5
37F
330
374
100
AcDbEntity
  8
0
100
AcDbBlockEnd
  0
BLOCK
  5
381
330
380
100
AcDbEntity
  8
0
100
AcDbBlockBegin
  2
*D7
 70
     1
 10
0.0
 20
0.0
 30
0.0
  3
*D7
  1

  0
LINE
  5
382
330
380
100
AcDbEntity
  8
DIM
 62
     0
370
    -2
100
AcDbLine
 10
410.0000000000001
 20
1120.0
 30
0.0
 11
410.0000000000001
 21
1330.0
 31
0.0
  0
LINE
  5
383
330
380
100
AcDbEntity
  8
DIM
 62
     0
370
    -2
100
AcDbLine
 10
1315.0
 20
960.0
 30
0.0
 11
1315.0
 21
1330.0
 31
0.0
  0
LINE
  5
384
330
380
100
AcDbEntity
  8
DIM
 62
     0
370
    -2
100
AcDbLine
 10
450.0
 20
1300.0
 30
0.0
 11
1275.0
 21
1300.0
 31
0.0
  0
SOLID
  5
385
330
380
100
AcDbEntity
  8
DIM
 62
     0
100
AcDbTrace
 10
450.0
 20
1306.666666666667
 30
0.0
 11
450.0
 21
1293.333333333333
 31
0.0
 12
410.0000000000001
 22
1300.0
 32
0.0
 13
410.0000000000001
 23
1300.0
 33
0.0
  0
SOLID
  5
386
330
380
100
AcDbEntity
  8
DIM
 62
     0
100
AcDbTrace
 10
1275.0
 20
1306.666666666667
 30
0.0
 11
1275.0
 21
1293.333333333333
 31
0.0
 12
1315.0
 22
1300.0
 32
0.0
 13
1315.0
 23
1300.0
 33
0.0
  0
MTEXT
  5
387
330
380
100
AcDbEntity
  8
DIM
 62
     0
100
AcDbMText
 10
862.5
 20
1335.0
 30
0.0
 40
40.0
 41
0.0
 71
     5
 72
     1
  1
905
 73
     1
 44
1.0
  0
POINT
  5
388
330
380
100
AcDbEntity
  8
Defpoints
 62
     0
100
AcDbPoint
 10
410.0000000000001
 20
1050.0
 30
0.0
  0
POINT
  5
389
330
380
100
AcDbEntity
  8
Defpoints
 62
     0
100
AcDbPoint
 10
1315.0
 20
890.0
 30
0.0
  0
POINT
  5
38A
330
380
100
AcDbEntity
  8
Defpoints
 62
     0
100
AcDbPoint
 10
1315.0
 20
1300.0
 30
0.0
  0
ENDBLK
  5
38B
330
380
100
AcDbEntity
  8
0
100
AcDbBlockEnd
  0
BLOCK
  5
38D
330
38C
100
AcDbEntity
  8
0
100
AcDbBlockBegin
  2
*D8
 70
     1
 10
0.0
 20
0.0
 30
0.0
  3
*D8
  1

  0
LINE
  5
38E
330
38C
100
AcDbEntity
  8
DIM
 62
     0
370
    -2
100
AcDbLine
 10
-100.0
 20
960.0
 30
0.0
 11
-99.99999999999996
 21
1480.0
 31
0.0
  0
LINE
  5
38F
330
38C
100
AcDbEntity
  8
DIM
 62
     0
370
    -2
100
AcDbLine
 10
1315.0
 20
960.0
 30
0.0
 11
1315.0
 21
1480.0
 31
0.0
  0
LINE
  5
390
330
38C
100
AcDbEntity
  8
DIM
 62
     0
370
    -2
100
AcDbLine
 10
-59.99999999999997
 20
1450.0
 30
0.0
 11
1275.0
 21
1450.0
 31
0.0
  0
SOLID
  5
391
330
38C
100
AcDbEntity
  8
DIM
 62
     0
100
AcDbTrace
 10
-59.99999999999997
 20
1456.666666666667
 30
0.0
 11
-59.99999999999997
 21
1443.333333333333
 31
0.0
 12
-100.0
 22
1450.0
 32
0.0
 13
-100.0
 23
1450.0
 33
0.0
  0
SOLID
  5
392
330
38C
100
AcDbEntity
  8
DIM
 62
     0
100
AcDbTrace
 10
1275.0
 20
1456.666666666667
 30
0.0
 11
1275.0
 21
1443.333333333333
 31
0.0
 12
1315.0
 22
1450.0
 32
0.0
 13
1315.0
 23
1450.0
 33
0.0
  0
MTEXT
  5
393
330
38C
100
AcDbEntity
  8
DIM
 62
     0
100
AcDbMText
 10
607.5
 20
1485.0
 30
0.0
 40
40.0
 41
0.0
 71
     5
 72
     1
  1
1415
 73
     1
 44
1.0
  0
POINT
  5
394
330
38C
100
AcDbEntity
  8
Defpoints
 62
     0
100
AcDbPoint
 10
-100.0
 20
890.0
 30
0.0
  0
POINT
  5
395
330
38C
100
AcDbEntity
  8
Defpoints
 62
     0
100
AcDbPoint
 10
1315.0
 20
890.0
 30
0.0
  0
POINT
  5
396
330
38C
100
AcDbEntity
  8
Defpoints
 62
     0
100
AcDbPoint
 10
1315.0
 20
1450.0
 30
0.0
  0
ENDBLK
  5
397
330
38C
100
AcDbEntity
  8
0
100
AcDbBlockEnd
  0
BLOCK
  5
399
330
398
100
AcDbEntity
  8
0
100
AcDbBlockBegin
  2
*D9
 70
     1
 10
0.0
 20
0.0
 30
0.0
  3
*D9
  1

  0
LINE
  5
39A
330
398
100
AcDbEntity
  8
DIM
 62
     0
370
    -2
100
AcDbLine
 10
1227.5
 20
750.0
 30
0.0
 11
1645.0
 21
749.9999999999999
 31
0.0
  0
LINE
  5
39B
330
398
100
AcDbEntity
  8
DIM
 62
     0
370
    -2
100
AcDbLine
 10
1375.0
 20
900.0
 30
0.0
 11
1645.0
 21
900.0
 31
0.0
  0
LINE
  5
39C
330
398
100
AcDbEntity
  8
DIM
 62
     0
370
    -2
100
AcDbLine
 10
1615.0
 20
789.9999999999999
 30
0.0
 11
1615.0
 21
860.0
 31
0.0
  0
SOLID
  5
39D
330
398
100
AcDbEntity
  8
DIM
 62
     0
100
AcDbTrace
 10
1608.333333333333
 20
789.9999999999999
 30
0.0
 11
1621.666666666667
 21
789.9999999999999
 31
0.0
 12
1615.0
 22
749.9999999999999
 32
0.0
 13
1615.0
 23
749.9999999999999
 33
0.0
  0
SOLID
  5
39E
330
398
100
AcDbEntity
  8
DIM
 62
     0
100
AcDbTrace
 10
1608.333333333333
 20
860.0
 30
0.0
 11
1621.666666666667
 21
860.0
 31
0.0
 12
1615.0
 22
900.0
 32
0.0
 13
1615.0
 23
900.0
 33
0.0
  0
MTEXT
  5
39F
330
398
100
AcDbEntity
  8
DIM
 62
     0
100
AcDbMText
 10
1580.0
 20
825.0000000000001
 30
0.0
 40
40.0
 41
0.0
 71
     5
 72
     1
  1
150
 11
0.0000000000000001
 21
1.0
 31
0.0
 73
     1
 44
1.0
  0
POINT
  5
3A0
330
398
100
AcDbEntity
  8
Defpoints
 62
     0
100
AcDbPoint
 10
1157.5
 20
750.0
 30
0.0
  0
POINT
  5
3A1
330
398
100
AcDbEntity
  8
Defpoints
 62
     0
100
AcDbPoint
 10
1305.0
 20
900.0
 30
0.0
  0
POINT
  5
3A2
330
398
100
AcDbEntity
  8
Defpoints
 62
     0
100
AcDbPoint
 10
1615.0
 20
900.0
 30
0.0
  0
ENDBLK
  5
3A3
330
398
100
AcDbEntity
  8
0
100
AcDbBlockEnd
  0
BLOCK
  5
3A5
330
3A4
100
AcDbEntity
  8
0
100
AcDbBlockBegin
  2
*D10
 70
     1
 10
0.0
 20
0.0
 30
0.0
  3
*D10
  1

  0
LINE
  5
3A6
330
3A4
100
AcDbEntity
  8
DIM
 62
     0
370
    -2
100
AcDbLine
 10
1375.0
 20
900.0
 30
0.0
 11
1795.0
 21
899.9999999999996
 31
0.0
  0
LINE
  5
3A7
330
3A4
100
AcDbEntity
  8
DIM
 62
     0
370
    -2
100
AcDbLine
 10
1375.0
 20
-0.0000000000000198
 30
0.0
 11
1795.0
 21
-0.0000000000001388
 31
0.0
  0
LINE
  5
3A8
330
3A4
100
AcDbEntity
  8
DIM
 62
     0
370
    -2
100
AcDbLine
 10
1765.0
 20
860.0
 30
0.0
 11
1765.0
 21
39.99999999999987
 31
0.0
  0
SOLID
  5
3A9
330
3A4
100
AcDbEntity
  8
DIM
 62
     0
100
AcDbTrace
 10
1758.333333333333
 20
860.0
 30
0.0
 11
1771.666666666667
 21
860.0
 31
0.0
 12
1765.0
 22
900.0
 32
0.0
 13
1765.0
 23
900.0
 33
0.0
  0
SOLID
  5
3AA
330
3A4
100
AcDbEntity
  8
DIM
 62
     0
100
AcDbTrace
 10
1758.333333333333
 20
39.99999999999987
 30
0.0
 11
1771.666666666667
 21
39.99999999999987
 31
0.0
 12
1765.0
 22
-0.0000000000001303
 32
0.0
 13
1765.0
 23
-0.0000000000001303
 33
0.0
  0
MTEXT
  5
3AB
330
3A4
100
AcDbEntity
  8
DIM
 62
     0
100
AcDbMText
 10
1730.0
 20
450.0000000000001
 30
0.0
 40
40.0
 41
0.0
 71
     5
 72
     1
  1
900
 11
0.0000000000000001
 21
1.0
 31
0.0
 73
     1
 44
1.0
  0
POINT
  5
3AC
330
3A4
100
AcDbEntity
  8
Defpoints
 62
     0
100
AcDbPoint
 10
1305.0
 20
900.0
 30
0.0
  0
POINT
  5
3AD
330
3A4
100
AcDbEntity
  8
Defpoints
 62
     0
100
AcDbPoint
 10
1305.0
 20
0.0
 30
0.0
  0
POINT
  5
3AE
330
3A4
100
AcDbEntity
  8
Defpoints
 62
     0
100
AcDbPoint
 10
1765.0
 20
-0.0000000000001303
 30
0.0
  0
ENDBLK
  5
3AF
330
3A4
100
AcDbEntity
  8
0
100
AcDbBlockEnd
  0
BLOCK
  5
3B1
330
3B0
100
AcDbEntity
  8
0
100
AcDbBlockBegin
  2
*D11
 70
     1
 10
0.0
 20
0.0
 30
0.0
  3
*D11
  1

  0
LINE
  5
3B2
330
3B0
100
AcDbEntity
  8
DIM
 62
     0
370
    -2
100
AcDbLine
 10
1375.0
 20
900.0
 30
0.0
 11
1795.0
 21
899.9999999999996
 31
0.0
  0
LINE
  5
3B3
330
3B0
100
AcDbEntity
  8
DIM
 62
     0
370
    -2
100
AcDbLine
 10
900.0000000000001
 20
1000.0
 30
0.0
 11
1795.0
 21
999.9999999999996
 31
0.0
  0
LINE
  5
3B4
330
3B0
100
AcDbEntity
  8
DIM
 62
     0
370
    -2
100
AcDbLine
 10
1765.0
 20
860.0
 30
0.0
 11
1765.0
 21
820.0
 31
0.0
  0
LINE
  5
3B5
330
3B0
100
AcDbEntity
  8
DIM
 62
     0
370
    -2
100
AcDbLine
 10
1765.0
 20
1039.999999999999
 30
0.0
 11
1765.0
 21
1079.999999999999
 31
0.0
  0
SOLID
  5
3B6
330
3B0
100
AcDbEntity
  8
DIM
 62
     0
100
AcDbTrace
 10
1758.333333333333
 20
860.0
 30
0.0
 11
1771.666666666667
 21
860.0
 31
0.0
 12
1765.0
 22
900.0
 32
0.0
 13
1765.0
 23
900.0
 33
0.0
  0
SOLID
  5
3B7
330
3B0
100
AcDbEntity
  8
DIM
 62
     0
100
AcDbTrace
 10
1758.333333333333
 20
1039.999999999999
 30
0.0
 11
1771.666666666667
 21
1039.999999999999
 31
0.0
 12
1765.0
 22
999.9999999999996
 32
0.0
 13
1765.0
 23
999.9999999999996
 33
0.0
  0
MTEXT
  5
3B8
330
3B0
100
AcDbEntity
  8
DIM
 62
     0
100
AcDbMText
 10
1730.0
 20
950.0
 30
0.0
 40
40.0
 41
0.0
 71
     5
 72
     1
  1
100
 11
0.0000000000000001
 21
1.0
 31
0.0
 73
     1
 44
1.0
  0
POINT
  5
3B9
330
3B0
100
AcDbEntity
  8
Defpoints
 62
     0
100
AcDbPoint
 10
1305.0
 20
900.0
 30
0.0
  0
POINT
  5
3BA
330
3B0
100
AcDbEntity
  8
Defpoints
 62
     0
100
AcDbPoint
 10
830.0
 20
1000.0
 30
0.0
  0
POINT
  5
3BB
330
3B0
100
AcDbEntity
  8
Defpoints
 62
     0
100
AcDbPoint
 10
1765.0
 20
999.9999999999996
 30
0.0
  0
ENDBLK
  5
3BC
330
3B0
100
AcDbEntity
  8
0
100
AcDbBlockEnd
  0
BLOCK
  5
3BE
330
3BD
100
AcDbEntity
  8
0
100
AcDbBlockBegin
  2
*D12
 70
     1
 10
0.0
 20
0.0
 30
0.0
  3
*D12
  1

  0
LINE
  5
3BF
330
3BD
100
AcDbEntity
  8
DIM
 62
     0
370
    -2
100
AcDbLine
 10
42.67857142857143
 20
250.0
 30
0.0
 11
120.0
 21
250.0
 31
0.0
  0
LINE
  5
3C0
330
3BD
100
AcDbEntity
  8
DIM
 62
     0
370
    -2
100
AcDbLine
 10
70.0
 20
-0.0000000000000198
 30
0.0
 11
120.0
 21
-0.000000000000034
 31
0.0
  0
LINE
  5
3C1
330
3BD
100
AcDbEntity
  8
DIM
 62
     0
370
    -2
100
AcDbLine
 10
90.00000000000005
 20
210.0
 30
0.0
 11
90.00000000000001
 21
39.99999999999996
 31
0.0
  0
SOLID
  5
3C2
330
3BD
100
AcDbEntity
  8
DIM
 62
     0
100
AcDbTrace
 10
83.33333333333337
 20
210.0
 30
0.0
 11
96.66666666666671
 21
210.0
 31
0.0
 12
90.00000000000005
 22
250.0
 32
0.0
 13
90.00000000000005
 23
250.0
 33
0.0
  0
SOLID
  5
3C3
330
3BD
100
AcDbEntity
  8
DIM
 62
     0
100
AcDbTrace
 10
83.33333333333333
 20
39.99999999999996
 30
0.0
 11
96.66666666666669
 21
39.99999999999996
 31
0.0
 12
90.0
 22
-0.0000000000000255
 32
0.0
 13
90.0
 23
-0.0000000000000255
 33
0.0
  0
MTEXT
  5
3C4
330
3BD
100
AcDbEntity
  8
DIM
 62
     0
100
AcDbMText
 10
54.99606299212598
 20
125.0
 30
0.0
 40
40.0
 41
0.0
 71
     5
 72
     1
  1
250
 11
0.0000000000000001
 21
1.0
 31
0.0
 73
     1
 44
1.0
  0
POINT
  5
3C5
330
3BD
100
AcDbEntity
  8
Defpoints
 62
     0
100
AcDbPoint
 10
-27.32142857142857
 20
250.0
 30
0.0
  0
POINT
  5
3C6
330
3BD
100
AcDbEntity
  8
Defpoints
 62
     0
100
AcDbPoint
 10
0.0
 20
0.0
 30
0.0
  0
POINT
  5
3C7
330
3BD
100
AcDbEntity
  8
Defpoints
 62
     0
100
AcDbPoint
 10
90.0
 20
-0.0000000000000255
 30
0.0
  0
ENDBLK
  5
3C8
330
3BD
100
AcDbEntity
  8
0
100
AcDbBlockEnd
  0
BLOCK
  5
3CA
330
3C9
100
AcDbEntity
  8
0
100
AcDbBlockBegin
  2
*D13
 70
     1
 10
0.0
 20
0.0
 30
0.0
  3
*D13
  1

  0
LINE
  5
3CB
330
3C9
100
AcDbEntity
  8
DIM
 62
     0
370
    -2
100
AcDbLine
 10
42.67857142857143
 20
250.0
 30
0.0
 11
120.0
 21
250.0
 31
0.0
  0
LINE
  5
3CC
330
3C9
100
AcDbEntity
  8
DIM
 62
     0
370
    -2
100
AcDbLine
 10
45.89285714285714
 20
550.0
 30
0.0
 11
120.0000000000001
 21
550.0
 31
0.0
  0
LINE
  5
3CD
330
3C9
100
AcDbEntity
  8
DIM
 62
     0
370
    -2
100
AcDbLine
 10
90.00000000000005
 20
290.0
 30
0.0
 11
90.00000000000012
 21
510.0
 31
0.0
  0
SOLID
  5
3CE
330
3C9
100
AcDbEntity
  8
DIM
 62
     0
100
AcDbTrace
 10
83.33333333333341
 20
290.0
 30
0.0
 11
96.66666666666674
 21
290.0
 31
0.0
 12
90.00000000000005
 22
250.0
 32
0.0
 13
90.00000000000005
 23
250.0
 33
0.0
  0
SOLID
  5
3CF
330
3C9
100
AcDbEntity
  8
DIM
 62
     0
100
AcDbTrace
 10
83.33333333333342
 20
510.0
 30
0.0
 11
96.66666666666678
 21
510.0
 31
0.0
 12
90.00000000000012
 22
550.0
 32
0.0
 13
90.00000000000012
 23
550.0
 33
0.0
  0
MTEXT
  5
3D0
330
3C9
100
AcDbEntity
  8
DIM
 62
     0
100
AcDbMText
 10
55.00000000000002
 20
400.0
 30
0.0
 40
40.0
 41
0.0
 71
     5
 72
     1
  1
300
 11
0.0000000000000001
 21
1.0
 31
0.0
 73
     1
 44
1.0
  0
POINT
  5
3D1
330
3C9
100
AcDbEntity
  8
Defpoints
 62
     0
100
AcDbPoint
 10
-27.32142857142857
 20
250.0
 30
0.0
  0
POINT
  5
3D2
330
3C9
100
AcDbEntity
  8
Defpoints
 62
     0
100
AcDbPoint
 10
-24.10714285714286
 20
550.0
 30
0.0
  0
POINT
  5
3D3
330
3C9
100
AcDbEntity
  8
Defpoints
 62
     0
100
AcDbPoint
 10
90.00000000000012
 20
550.0
 30
0.0
  0
ENDBLK
  5
3D4
330
3C9
100
AcDbEntity
  8
0
100
AcDbBlockEnd
  0
BLOCK
  5
3D6
330
3D5
100
AcDbEntity
  8
0
100
AcDbBlockBegin
  2
*D14
 70
     1
 10
0.0
 20
0.0
 30
0.0
  3
*D14
  1

  0
LINE
  5
3D7
330
3D5
100
AcDbEntity
  8
DIM
 62
     0
370
    -2
100
AcDbLine
 10
407.5
 20
340.0
 30
0.0
 11
407.5
 21
448.2243564018904
 31
0.0
  0
LINE
  5
3D8
330
3D5
100
AcDbEntity
  8
DIM
 62
     0
370
    -2
100
AcDbLine
 10
807.4999999999999
 20
340.0
 30
0.0
 11
807.4999999999999
 21
448.2243564018904
 31
0.0
  0
LINE
  5
3D9
330
3D5
100
AcDbEntity
  8
DIM
 62
     0
370
    -2
100
AcDbLine
 10
447.5
 20
418.2243564018904
 30
0.0
 11
767.4999999999998
 21
418.2243564018904
 31
0.0
  0
SOLID
  5
3DA
330
3D5
100
AcDbEntity
  8
DIM
 62
     0
100
AcDbTrace
 10
447.5
 20
424.8910230685571
 30
0.0
 11
447.5
 21
411.5576897352236
 31
0.0
 12
407.5
 22
418.2243564018904
 32
0.0
 13
407.5
 23
418.2243564018904
 33
0.0
  0
SOLID
  5
3DB
330
3D5
100
AcDbEntity
  8
DIM
 62
     0
100
AcDbTrace
 10
767.4999999999998
 20
424.8910230685571
 30
0.0
 11
767.4999999999998
 21
411.5576897352236
 31
0.0
 12
807.4999999999999
 22
418.2243564018904
 32
0.0
 13
807.4999999999999
 23
418.2243564018904
 33
0.0
  0
MTEXT
  5
3DC
330
3D5
100
AcDbEntity
  8
DIM
 62
     0
100
AcDbMText
 10
607.5
 20
453.2243564018904
 30
0.0
 40
40.0
 41
0.0
 71
     5
 72
     1
  1
400
 73
     1
 44
1.0
  0
POINT
  5
3DD
330
3D5
100
AcDbEntity
  8
Defpoints
 62
     0
100
AcDbPoint
 10
407.5
 20
270.0
 30
0.0
  0
POINT
  5
3DE
330
3D5
100
AcDbEntity
  8
Defpoints
 62
     0
100
AcDbPoint
 10
807.4999999999999
 20
270.0
 30
0.0
  0
POINT
  5
3DF
330
3D5
100
AcDbEntity
  8
Defpoints
 62
     0
100
AcDbPoint
 10
807.4999999999999
 20
418.2243564018904
 30
0.0
  0
ENDBLK
  5
3E0
330
3D5
100
AcDbEntity
  8
0
100
AcDbBlockEnd
  0
BLOCK
  5
40A
330
3E2
100
AcDbEntity
  8
0
100
AcDbBlockBegin
  2
B2-750
 70
     0
 10
0.0
 20
0.0
 30
0.0
  3
B2-750
  1

  0
LWPOLYLINE
  5
3E3
330
3E2
100
AcDbEntity
  8
LATER
100
AcDbPolyline
 90
        8
 70
     1
 43
0.0
 10
-90.0
 20
0.0
 10
1305.0
 20
0.0
 10
1315.0
 20
10.0
 10
1315.0
 20
890.0
 10
1305.0
 20
900.0
 10
-90.0
 20
900.0
 10
-100.0
 20
890.0
 10
-100.0
 20
10.0
  0
LINE
  5
3E4
330
3E2
100
AcDbEntity
  8
DASHED
 48
0.15
100
AcDbLine
 10
0.0
 20
0.0
 30
0.0
 11
7.5
 21
700.0
 31
0.0
  0
LINE
  5
3E5
330
3E2
100
AcDbEntity
  8
DASHED
 48
0.15
100
AcDbLine
 10
7.5
 20
700.0
 30
0.0
 11
57.5
 21
750.0
 31
0.0
  0
LINE
  5
3E6
330
3E2
100
AcDbEntity
  8
DASHED
 48
0.15
100
AcDbLine
 10
57.5
 20
750.0
 30
0.0
 11
1157.5
 21
750.0
 31
0.0
  0
LINE
  5
3E7
330
3E2
100
AcDbEntity
  8
DASHED
 48
0.15
100
AcDbLine
 10
1157.5
 20
750.0
 30
0.0
 11
1207.5
 21
700.0
 31
0.0
  0
LINE
  5
3E8
330
3E2
100
AcDbEntity
  8
DASHED
 48
0.15
100
AcDbLine
 10
1207.5
 20
700.0
 30
0.0
 11
1215.0
 21
0.0
 31
0.0
  0
LINE
  5
3E9
330
3E2
100
AcDbEntity
  8
DASHED
 48
0.15
100
AcDbLine
 10
95.0
 20
750.0
 30
0.0
 11
105.0
 21
900.0
 31
0.0
  0
LINE
  5
3EA
330
3E2
100
AcDbEntity
  8
DASHED
 48
0.15
100
AcDbLine
 10
715.0
 20
900.0
 30
0.0
 11
725.0
 21
750.0
 31
0.0
  0
CIRCLE
  5
3EB
330
3E2
100
AcDbEntity
  8
DASHED
 48
0.15
100
AcDbCircle
 10
407.5
 20
250.0
 30
0.0
 40
8.0
  0
LINE
  5
3EC
330
3E2
100
AcDbEntity
  8
DASHED
 48
0.15
100
AcDbLine
 10
387.5
 20
250.0
 30
0.0
 11
427.5
 21
250.0
 31
0.0
  0
LINE
  5
3ED
330
3E2
100
AcDbEntity
  8
DASHED
 48
0.15
100
AcDbLine
 10
407.5
 20
230.0
 30
0.0
 11
407.5
 21
270.0
 31
0.0
  0
LINE
  5
3EE
330
3E2
100
AcDbEntity
  8
DASHED
 48
0.15
100
AcDbLine
 10
787.5
 20
250.0
 30
0.0
 11
827.5
 21
250.0
 31
0.0
  0
CIRCLE
  5
3EF
330
3E2
100
AcDbEntity
  8
DASHED
 48
0.15
100
AcDbCircle
 10
807.4999999999999
 20
250.0
 30
0.0
 40
8.0
  0
LINE
  5
3F0
330
3E2
100
AcDbEntity
  8
DASHED
 48
0.15
100
AcDbLine
 10
807.4999999999999
 20
230.0
 30
0.0
 11
807.4999999999999
 21
270.0
 31
0.0
  0
LWPOLYLINE
  5
3F1
330
3E2
100
AcDbEntity
  8
DASHED
 48
0.15
100
AcDbPolyline
 90
        4
 70
     1
 43
0.0
 10
-27.32142857142857
 20
242.0
 10
2.67857142857143
 20
242.0
 10
2.67857142857143
 20
258.0
 10
-27.32142857142857
 20
258.0
  0
LWPOLYLINE
  5
3F2
330
3E2
100
AcDbEntity
  8
DASHED
 48
0.15
100
AcDbPolyline
 90
        4
 70
     1
 43
0.0
 10
-24.10714285714286
 20
542.0
 10
5.892857142857137
 20
542.0
 10
5.892857142857137
 20
558.0
 10
-24.10714285714286
 20
558.0
  0
LWPOLYLINE
  5
3F3
330
3E2
100
AcDbEntity
  8
DASHED
 48
0.15
100
AcDbPolyline
 90
        4
 70
     1
 43
0.0
 10
1242.321428571429
 20
242.0
 10
1212.321428571428
 20
242.0
 10
1212.321428571428
 20
258.0
 10
1242.321428571429
 20
258.0
  0
LWPOLYLINE
  5
3F4
330
3E2
100
AcDbEntity
  8
LATER
100
AcDbPolyline
 90
        6
 70
     1
 43
0.0
 10
-10.0
 20
1000.0
 10
830.0
 20
1000.0
 42
-0.4142135623730951
 10
845.0000000000001
 20
985.0
 10
845.0
 20
900.0
 10
-25.0
 20
900.0
 10
-25.0
 20
985.0
 42
-0.4142135623730951
  0
LINE
  5
3F5
330
3E2
100
AcDbEntity
  8
DASHED
 48
0.15
100
AcDbLine
 10
110.0
 20
1000.0
 30
0.0
 11
105.0
 21
900.0
 31
0.0
  0
LINE
  5
3F6
330
3E2
100
AcDbEntity
  8
DASHED
 48
0.15
100
AcDbLine
 10
710.0
 20
1000.0
 30
0.0
 11
715.0
 21
900.0
 31
0.0
  0
DIMENSION
  5
3F7
330
3E2
100
AcDbEntity
  8
DIM
100
AcDbDimension
  2
*D1
 10
1615.0
 20
-0.0000000000000878
 30
0.0
 11
1580.0
 21
375.0000000000002
 31
0.0
 70
    32
 71
     5
 42
749.9999999999999
  3
Standerd
100
AcDbAlignedDimension
 13
1157.5
 23
750.0
 33
0.0
 14
1305.0
 24
0.0
 34
0.0
 50
90.0
100
AcDbRotatedDimension
  0
DIMENSION
  5
3F8
330
3E2
100
AcDbEntity
  8
DIM
100
AcDbDimension
  2
*D2
 10
697.5159248473552
 20
800.8428824539757
 30
0.0
 11
392.5159248473552
 21
835.842882453976
 31
0.0
 70
    32
 71
     5
 42
610.0
  3
Standerd1
100
AcDbAlignedDimension
 13
105.0
 23
900.0
 33
0.0
 14
715.0
 24
900.0
 34
0.0
100
AcDbRotatedDimension
  0
DIMENSION
  5
3F9
330
3E2
100
AcDbEntity
  8
DIM
100
AcDbDimension
  2
*D3
 10
710.0
 20
1150.0
 30
0.0
 11
421.7551294819541
 21
1150.0
 31
0.0
 70
   160
 71
     5
 42
600.0
  3
Standerd
100
AcDbAlignedDimension
 13
110.0
 23
1000.0
 33
0.0
 14
710.0
 24
1000.0
 34
0.0
100
AcDbRotatedDimension
  0
DIMENSION
  5
3FA
330
3E2
100
AcDbEntity
  8
DIM
100
AcDbDimension
  2
*D4
 10
-24.99999999999999
 20
1150.0
 30
0.0
 11
42.5
 21
1185.0
 31
0.0
 70
    32
 71
     5
 42
135.0
  3
Standerd
100
AcDbAlignedDimension
 13
110.0
 23
1000.0
 33
0.0
 14
-25.0
 24
985.0
 34
0.0
100
AcDbRotatedDimension
  0
DIMENSION
  5
3FB
330
3E2
100
AcDbEntity
  8
DIM
100
AcDbDimension
  2
*D5
 10
845.0000000000001
 20
1150.0
 30
0.0
 11
777.5
 21
1185.0
 31
0.0
 70
    32
 71
     5
 42
135.0000000000001
  3
Standerd
100
AcDbAlignedDimension
 13
710.0
 23
1000.0
 33
0.0
 14
845.0000000000001
 24
985.0
 34
0.0
100
AcDbRotatedDimension
  0
LINE
  5
3FC
330
3E2
100
AcDbEntity
  8
CENTER
 48
0.2
100
AcDbLine
 10
410.0000000000001
 20
1050.0
 30
0.0
 11
410.0000000000001
 21
700.0
 31
0.0
  0
DIMENSION
  5
3FD
330
3E2
100
AcDbEntity
  8
DIM
100
AcDbDimension
  2
*D6
 10
-100.0
 20
1300.0
 30
0.0
 11
155.0
 21
1335.0
 31
0.0
 70
    32
 71
     5
 42
510.0000000000001
  3
Standerd
100
AcDbAlignedDimension
 13
410.0000000000001
 23
1050.0
 33
0.0
 14
-100.0
 24
890.0
 34
0.0
100
AcDbRotatedDimension
  0
DIMENSION
  5
3FE
330
3E2
100
AcDbEntity
  8
DIM
100
AcDbDimension
  2
*D7
 10
1315.0
 20
1300.0
 30
0.0
 11
862.5
 21
1335.0
 31
0.0
 70
    32
 71
     5
 42
904.9999999999997
  3
Standerd
100
AcDbAlignedDimension
 13
410.0000000000001
 23
1050.0
 33
0.0
 14
1315.0
 24
890.0
 34
0.0
100
AcDbRotatedDimension
  0
DIMENSION
  5
3FF
330
3E2
100
AcDbEntity
  8
DIM
100
AcDbDimension
  2
*D8
 10
1315.0
 20
1450.0
 30
0.0
 11
607.5
 21
1485.0
 31
0.0
 70
    32
 71
     5
 42
1415.0
  3
Standerd
100
AcDbAlignedDimension
 13
-100.0
 23
890.0
 33
0.0
 14
1315.0
 24
890.0
 34
0.0
100
AcDbRotatedDimension
  0
TEXT
  5
400
330
3E2
100
AcDbEntity
  8
TXT
100
AcDbText
 10
-550.0
 20
920.0
 30
0.0
 40
60.0
  1
C  R
 41
1.5
100
AcDbText
  0
TEXT
  5
401
330
3E2
100
AcDbEntity
  8
TXT
100
AcDbText
 10
-550.0
 20
820.0
 30
0.0
 40
60.0
  1
B2-750
 41
1.5
100
AcDbText
  0
DIMENSION
  5
402
330
3E2
100
AcDbEntity
  8
DIM
100
AcDbDimension
  2
*D9
 10
1615.0
 20
900.0
 30
0.0
 11
1580.0
 21
825.0000000000001
 31
0.0
 70
    32
 71
     5
 42
150.0000000000001
  3
Standerd
100
AcDbAlignedDimension
 13
1157.5
 23
750.0
 33
0.0
 14
1305.0
 24
900.0
 34
0.0
 50
90.0
100
AcDbRotatedDimension
  0
DIMENSION
  5
403
330
3E2
100
AcDbEntity
  8
DIM
100
AcDbDimension
  2
*D10
 10
1765.0
 20
-0.0000000000001303
 30
0.0
 11
1730.0
 21
450.0000000000001
 31
0.0
 70
    32
 71
     5
 42
900.0
  3
Standerd
100
AcDbAlignedDimension
 13
1305.0
 23
900.0
 33
0.0
 14
1305.0
 24
0.0
 34
0.0
 50
90.0
100
AcDbRotatedDimension
  0
DIMENSION
  5
404
330
3E2
100
AcDbEntity
  8
DIM
100
AcDbDimension
  2
*D11
 10
1765.0
 20
999.9999999999996
 30
0.0
 11
1730.0
 21
950.0
 31
0.0
 70
    32
 71
     5
 42
99.99999999999987
  3
Standerd
100
AcDbAlignedDimension
 13
1305.0
 23
900.0
 33
0.0
 14
830.0
 24
1000.0
 34
0.0
 50
90.0
100
AcDbRotatedDimension
  0
LEADER
  5
405
330
3E2
100
AcDbEntity
  8
TXT
100
AcDbLeader
  3
Standerd
 73
     0
 40
40.00787401574803
 41
481.6568542494918
 76
     2
 10
-24.10714285714286
 20
542.0
 30
0.0
 10
-263.8027353046391
 20
484.028735637265
 30
0.0
340
406
213
0.0
223
20.0
233
0.0
1001
ACAD
1000
DSTYLE
1002
{
1070
   147
1040
15.0
1070
    77
1070
     0
1002
}
  0
MTEXT
  5
406
102
{ACAD_REACTORS
330
405
102
}
330
3E2
100
AcDbEntity
  8
TXT
100
AcDbMText
 10
-278.8027353046391
 20
464.028735637265
 30
0.0
 40
40.0
 41
0.0
 71
     9
 72
     1
  1
M12ｲﾝｻｰﾄ（１面のみ）
 73
     1
 44
1.0
  0
DIMENSION
  5
407
330
3E2
100
AcDbEntity
  8
DIM
100
AcDbDimension
  2
*D12
 10
90.0
 20
-0.0000000000000255
 30
0.0
 11
54.99606299212598
 21
125.0
 31
0.0
 70
    32
 71
     5
 42
250.0
  3
Standerd
100
AcDbAlignedDimension
 13
-27.32142857142857
 23
250.0
 33
0.0
 14
0.0
 24
0.0
 34
0.0
 50
90.0
100
AcDbRotatedDimension
  0
DIMENSION
  5
408
330
3E2
100
AcDbEntity
  8
DIM
100
AcDbDimension
  2
*D13
 10
90.00000000000012
 20
550.0
 30
0.0
 11
55.00000000000002
 21
400.0
 31
0.0
 70
    32
 71
     5
 42
300.0
  3
Standerd
100
AcDbAlignedDimension
 13
-27.32142857142857
 23
250.0
 33
0.0
 14
-24.10714285714286
 24
550.0
 34
0.0
 50
90.0
100
AcDbRotatedDimension
  0
DIMENSION
  5
409
330
3E2
100
AcDbEntity
  8
DIM
100
AcDbDimension
  2
*D14
 10
807.4999999999999
 20
418.2243564018904
 30
0.0
 11
607.5
 21
453.2243564018904
 31
0.0
 70
    32
 71
     5
 42
400.0
  3
Standerd
100
AcDbAlignedDimension
 13
407.5
 23
270.0
 33
0.0
 14
807.4999999999999
 24
270.0
 34
0.0
100
AcDbRotatedDimension
  0
ENDBLK
  5
40B
330
3E2
100
AcDbEntity
  8
0
100
AcDbBlockEnd
  0
BLOCK
  5
40F
330
40E
100
AcDbEntity
  8
0
100
AcDbBlockBegin
  2
*D16
 70
     1
 10
0.0
 20
0.0
 30
0.0
  3
*D16
  1

  0
LINE
  5
410
330
40E
100
AcDbEntity
  8
NO
 62
     0
370
    -2
100
AcDbLine
 10
1907.842030105023
 20
1342.723087638182
 30
0.0
 11
2027.842030105023
 21
1342.723087638182
 31
0.0
  0
LINE
  5
411
330
40E
100
AcDbEntity
  8
NO
 62
     0
370
    -2
100
AcDbLine
 10
1882.842030105023
 20
1132.723087638182
 30
0.0
 11
2027.842030105023
 21
1132.723087638182
 31
0.0
  0
LINE
  5
412
330
40E
100
AcDbEntity
  8
NO
 62
     0
370
    -2
100
AcDbLine
 10
1997.842030105022
 20
1302.723087638182
 30
0.0
 11
1997.842030105022
 21
1172.723087638182
 31
0.0
  0
SOLID
  5
413
330
40E
100
AcDbEntity
  8
NO
 62
     0
100
AcDbTrace
 10
1991.175363438356
 20
1302.723087638182
 30
0.0
 11
2004.50869677169
 21
1302.723087638182
 31
0.0
 12
1997.842030105022
 22
1342.723087638182
 32
0.0
 13
1997.842030105022
 23
1342.723087638182
 33
0.0
  0
SOLID
  5
414
330
40E
100
AcDbEntity
  8
NO
 62
     0
100
AcDbTrace
 10
1991.175363438356
 20
1172.723087638182
 30
0.0
 11
2004.50869677169
 21
1172.723087638182
 31
0.0
 12
1997.842030105022
 22
1132.723087638182
 32
0.0
 13
1997.842030105022
 23
1132.723087638182
 33
0.0
  0
MTEXT
  5
415
330
40E
100
AcDbEntity
  8
NO
 62
     0
100
AcDbMText
 10
1962.838093097148
 20
1237.723087638182
 30
0.0
 40
40.0
 41
0.0
 71
     5
 72
     1
  1
210
 11
0.0000000000000001
 21
1.0
 31
0.0
 73
     1
 44
1.0
  0
POINT
  5
416
330
40E
100
AcDbEntity
  8
Defpoints
 62
     0
100
AcDbPoint
 10
1837.842030105022
 20
1342.723087638182
 30
0.0
  0
POINT
  5
417
330
40E
100
AcDbEntity
  8
Defpoints
 62
     0
100
AcDbPoint
 10
1812.842030105023
 20
1132.723087638182
 30
0.0
  0
POINT
  5
418
330
40E
100
AcDbEntity
  8
Defpoints
 62
     0
100
AcDbPoint
 10
1997.842030105022
 20
1132.723087638182
 30
0.0
  0
ENDBLK
  5
419
330
40E
100
AcDbEntity
  8
0
100
AcDbBlockEnd
  0
BLOCK
  5
41B
330
41A
100
AcDbEntity
  8
0
100
AcDbBlockBegin
  2
*D17
 70
     1
 10
0.0
 20
0.0
 30
0.0
  3
*D17
  1

  0
LINE
  5
41C
330
41A
100
AcDbEntity
  8
NO
 62
     0
370
    -2
100
AcDbLine
 10
690.3420301050227
 20
612.7230876381822
 30
0.0
 11
690.3420301050227
 21
312.7230876381823
 31
0.0
  0
LINE
  5
41D
330
41A
100
AcDbEntity
  8
NO
 62
     0
370
    -2
100
AcDbLine
 10
1590.342030105023
 20
612.7230876381822
 30
0.0
 11
1590.342030105023
 21
312.7230876381823
 31
0.0
  0
LINE
  5
41E
330
41A
100
AcDbEntity
  8
NO
 62
     0
370
    -2
100
AcDbLine
 10
730.3420301050228
 20
342.7230876381823
 30
0.0
 11
1550.342030105023
 21
342.7230876381823
 31
0.0
  0
SOLID
  5
41F
330
41A
100
AcDbEntity
  8
NO
 62
     0
100
AcDbTrace
 10
730.3420301050228
 20
349.389754304849
 30
0.0
 11
730.3420301050228
 21
336.0564209715156
 31
0.0
 12
690.3420301050227
 22
342.7230876381823
 32
0.0
 13
690.3420301050227
 23
342.7230876381823
 33
0.0
  0
SOLID
  5
420
330
41A
100
AcDbEntity
  8
NO
 62
     0
100
AcDbTrace
 10
1550.342030105023
 20
349.389754304849
 30
0.0
 11
1550.342030105023
 21
336.0564209715156
 31
0.0
 12
1590.342030105023
 22
342.7230876381823
 32
0.0
 13
1590.342030105023
 23
342.7230876381823
 33
0.0
  0
MTEXT
  5
421
330
41A
100
AcDbEntity
  8
NO
 62
     0
100
AcDbMText
 10
1140.342030105023
 20
377.7230876381823
 30
0.0
 40
40.0
 41
0.0
 71
     5
 72
     1
  1
900
 73
     1
 44
1.0
  0
POINT
  5
422
330
41A
100
AcDbEntity
  8
Defpoints
 62
     0
100
AcDbPoint
 10
690.3420301050227
 20
682.7230876381821
 30
0.0
  0
POINT
  5
423
330
41A
100
AcDbEntity
  8
Defpoints
 62
     0
100
AcDbPoint
 10
1590.342030105023
 20
682.7230876381821
 30
0.0
  0
POINT
  5
424
330
41A
100
AcDbEntity
  8
Defpoints
 62
     0
100
AcDbPoint
 10
1590.342030105023
 20
342.7230876381823
 30
0.0
  0
ENDBLK
  5
425
330
41A
100
AcDbEntity
  8
0
100
AcDbBlockEnd
  0
BLOCK
  5
427
330
426
100
AcDbEntity
  8
0
100
AcDbBlockBegin
  2
*D18
 70
     1
 10
0.0
 20
0.0
 30
0.0
  3
*D18
  1

  0
LINE
  5
428
330
426
100
AcDbEntity
  8
DIM
 62
     0
370
    -2
100
AcDbLine
 10
540.3420301050227
 20
572.7230876381821
 30
0.0
 11
540.3420301050227
 21
162.7230876381823
 31
0.0
  0
LINE
  5
429
330
426
100
AcDbEntity
  8
DIM
 62
     0
370
    -2
100
AcDbLine
 10
1740.342030105023
 20
572.7230876381821
 30
0.0
 11
1740.342030105023
 21
162.7230876381823
 31
0.0
  0
LINE
  5
42A
330
426
100
AcDbEntity
  8
DIM
 62
     0
370
    -2
100
AcDbLine
 10
580.3420301050228
 20
192.7230876381823
 30
0.0
 11
1700.342030105022
 21
192.7230876381823
 31
0.0
  0
SOLID
  5
42B
330
426
100
AcDbEntity
  8
DIM
 62
     0
100
AcDbTrace
 10
580.3420301050228
 20
199.3897543048489
 30
0.0
 11
580.3420301050228
 21
186.0564209715156
 31
0.0
 12
540.3420301050227
 22
192.7230876381823
 32
0.0
 13
540.3420301050227
 23
192.7230876381823
 33
0.0
  0
SOLID
  5
42C
330
426
100
AcDbEntity
  8
DIM
 62
     0
100
AcDbTrace
 10
1700.342030105022
 20
199.3897543048489
 30
0.0
 11
1700.342030105022
 21
186.0564209715156
 31
0.0
 12
1740.342030105023
 22
192.7230876381823
 32
0.0
 13
1740.342030105023
 23
192.7230876381823
 33
0.0
  0
MTEXT
  5
42D
330
426
100
AcDbEntity
  8
DIM
 62
     0
100
AcDbMText
 10
1140.342030105023
 20
227.7270246460563
 30
0.0
 40
40.0
 41
0.0
 71
     5
 72
     1
  1
1200
 73
     1
 44
1.0
  0
POINT
  5
42E
330
426
100
AcDbEntity
  8
Defpoints
 62
     0
100
AcDbPoint
 10
540.3420301050227
 20
642.7230876381822
 30
0.0
  0
POINT
  5
42F
330
426
100
AcDbEntity
  8
Defpoints
 62
     0
100
AcDbPoint
 10
1740.342030105023
 20
642.7230876381822
 30
0.0
  0
POINT
  5
430
330
426
100
AcDbEntity
  8
Defpoints
 62
     0
100
AcDbPoint
 10
1740.342030105023
 20
192.7230876381823
 30
0.0
  0
ENDBLK
  5
431
330
426
100
AcDbEntity
  8
0
100
AcDbBlockEnd
  0
BLOCK
  5
433
330
432
100
AcDbEntity
  8
0
100
AcDbBlockBegin
  2
*D19
 70
     1
 10
0.0
 20
0.0
 30
0.0
  3
*D19
  1

  0
LINE
  5
434
330
432
100
AcDbEntity
  8
DIM
 62
     0
370
    -2
100
AcDbLine
 10
432.8420301050226
 20
432.7230876381823
 30
0.0
 11
432.8420301050226
 21
12.72308763818228
 31
0.0
  0
LINE
  5
435
330
432
100
AcDbEntity
  8
DIM
 62
     0
370
    -2
100
AcDbLine
 10
1847.842030105023
 20
432.7230876381823
 30
0.0
 11
1847.842030105023
 21
12.72308763818228
 31
0.0
  0
LINE
  5
436
330
432
100
AcDbEntity
  8
DIM
 62
     0
370
    -2
100
AcDbLine
 10
472.8420301050228
 20
42.72308763818227
 30
0.0
 11
1807.842030105023
 21
42.72308763818227
 31
0.0
  0
SOLID
  5
437
330
432
100
AcDbEntity
  8
DIM
 62
     0
100
AcDbTrace
 10
472.8420301050228
 20
49.38975430484894
 30
0.0
 11
472.8420301050228
 21
36.05642097151561
 31
0.0
 12
432.8420301050226
 22
42.72308763818227
 32
0.0
 13
432.8420301050226
 23
42.72308763818227
 33
0.0
  0
SOLID
  5
438
330
432
100
AcDbEntity
  8
DIM
 62
     0
100
AcDbTrace
 10
1807.842030105023
 20
49.38975430484894
 30
0.0
 11
1807.842030105023
 21
36.05642097151561
 31
0.0
 12
1847.842030105023
 22
42.72308763818227
 32
0.0
 13
1847.842030105023
 23
42.72308763818227
 33
0.0
  0
MTEXT
  5
439
330
432
100
AcDbEntity
  8
DIM
 62
     0
100
AcDbMText
 10
1140.342030105023
 20
77.72308763818227
 30
0.0
 40
40.0
 41
0.0
 71
     5
 72
     1
  1
1415
 73
     1
 44
1.0
  0
POINT
  5
43A
330
432
100
AcDbEntity
  8
Defpoints
 62
     0
100
AcDbPoint
 10
432.8420301050226
 20
502.7230876381822
 30
0.0
  0
POINT
  5
43B
330
432
100
AcDbEntity
  8
Defpoints
 62
     0
100
AcDbPoint
 10
1847.842030105023
 20
502.7230876381822
 30
0.0
  0
POINT
  5
43C
330
432
100
AcDbEntity
  8
Defpoints
 62
     0
100
AcDbPoint
 10
1847.842030105023
 20
42.72308763818227
 30
0.0
  0
ENDBLK
  5
43D
330
432
100
AcDbEntity
  8
0
100
AcDbBlockEnd
  0
BLOCK
  5
43F
330
43E
100
AcDbEntity
  8
0
100
AcDbBlockBegin
  2
*D20
 70
     1
 10
0.0
 20
0.0
 30
0.0
  3
*D20
  1

  0
LINE
  5
440
330
43E
100
AcDbEntity
  8
NO
 62
     0
370
    -2
100
AcDbLine
 10
1882.842030105023
 20
1132.723087638182
 30
0.0
 11
2027.842030105023
 21
1132.723087638182
 31
0.0
  0
LINE
  5
441
330
43E
100
AcDbEntity
  8
NO
 62
     0
370
    -2
100
AcDbLine
 10
1882.842030105023
 20
682.7230876381821
 30
0.0
 11
2027.842030105023
 21
682.7230876381821
 31
0.0
  0
LINE
  5
442
330
43E
100
AcDbEntity
  8
NO
 62
     0
370
    -2
100
AcDbLine
 10
1997.842030105022
 20
1092.723087638182
 30
0.0
 11
1997.842030105022
 21
722.7230876381821
 31
0.0
  0
SOLID
  5
443
330
43E
100
AcDbEntity
  8
NO
 62
     0
100
AcDbTrace
 10
1991.175363438356
 20
1092.723087638182
 30
0.0
 11
2004.50869677169
 21
1092.723087638182
 31
0.0
 12
1997.842030105022
 22
1132.723087638182
 32
0.0
 13
1997.842030105022
 23
1132.723087638182
 33
0.0
  0
SOLID
  5
444
330
43E
100
AcDbEntity
  8
NO
 62
     0
100
AcDbTrace
 10
1991.175363438356
 20
722.7230876381821
 30
0.0
 11
2004.50869677169
 21
722.7230876381821
 31
0.0
 12
1997.842030105022
 22
682.7230876381821
 32
0.0
 13
1997.842030105022
 23
682.7230876381821
 33
0.0
  0
MTEXT
  5
445
330
43E
100
AcDbEntity
  8
NO
 62
     0
100
AcDbMText
 10
1962.842030105022
 20
907.7230876381824
 30
0.0
 40
40.0
 41
0.0
 71
     5
 72
     1
  1
450
 11
0.0000000000000001
 21
1.0
 31
0.0
 73
     1
 44
1.0
  0
POINT
  5
446
330
43E
100
AcDbEntity
  8
Defpoints
 62
     0
100
AcDbPoint
 10
1812.842030105023
 20
1132.723087638182
 30
0.0
  0
POINT
  5
447
330
43E
100
AcDbEntity
  8
Defpoints
 62
     0
100
AcDbPoint
 10
1812.842030105023
 20
682.7230876381821
 30
0.0
  0
POINT
  5
448
330
43E
100
AcDbEntity
  8
Defpoints
 62
     0
100
AcDbPoint
 10
1997.842030105022
 20
682.7230876381821
 30
0.0
  0
ENDBLK
  5
449
330
43E
100
AcDbEntity
  8
0
100
AcDbBlockEnd
  0
BLOCK
  5
44B
330
44A
100
AcDbEntity
  8
0
100
AcDbBlockBegin
  2
*D21
 70
     1
 10
0.0
 20
0.0
 30
0.0
  3
*D21
  1

  0
LINE
  5
44C
330
44A
100
AcDbEntity
  8
DIM
 62
     0
370
    -2
100
AcDbLine
 10
1907.842030105023
 20
1342.723087638182
 30
0.0
 11
2177.842030105023
 21
1342.723087638182
 31
0.0
  0
LINE
  5
44D
330
44A
100
AcDbEntity
  8
DIM
 62
     0
370
    -2
100
AcDbLine
 10
1760.342030105023
 20
592.7230876381822
 30
0.0
 11
2177.842030105023
 21
592.7230876381822
 31
0.0
  0
LINE
  5
44E
330
44A
100
AcDbEntity
  8
DIM
 62
     0
370
    -2
100
AcDbLine
 10
2147.842030105023
 20
1302.723087638182
 30
0.0
 11
2147.842030105023
 21
632.7230876381821
 31
0.0
  0
SOLID
  5
44F
330
44A
100
AcDbEntity
  8
DIM
 62
     0
100
AcDbTrace
 10
2141.175363438357
 20
1302.723087638182
 30
0.0
 11
2154.50869677169
 21
1302.723087638182
 31
0.0
 12
2147.842030105023
 22
1342.723087638182
 32
0.0
 13
2147.842030105023
 23
1342.723087638182
 33
0.0
  0
SOLID
  5
450
330
44A
100
AcDbEntity
  8
DIM
 62
     0
100
AcDbTrace
 10
2141.175363438356
 20
632.7230876381821
 30
0.0
 11
2154.508696771689
 21
632.7230876381821
 31
0.0
 12
2147.842030105023
 22
592.7230876381822
 32
0.0
 13
2147.842030105023
 23
592.7230876381822
 33
0.0
  0
MTEXT
  5
451
330
44A
100
AcDbEntity
  8
DIM
 62
     0
100
AcDbMText
 10
2112.842030105023
 20
967.7230876381823
 30
0.0
 40
40.0
 41
0.0
 71
     5
 72
     1
  1
750
 11
0.0000000000000001
 21
1.0
 31
0.0
 73
     1
 44
1.0
  0
POINT
  5
452
330
44A
100
AcDbEntity
  8
Defpoints
 62
     0
100
AcDbPoint
 10
1837.842030105022
 20
1342.723087638182
 30
0.0
  0
POINT
  5
453
330
44A
100
AcDbEntity
  8
Defpoints
 62
     0
100
AcDbPoint
 10
1690.342030105023
 20
592.7230876381822
 30
0.0
  0
POINT
  5
454
330
44A
100
AcDbEntity
  8
Defpoints
 62
     0
100
AcDbPoint
 10
2147.842030105023
 20
592.7230876381822
 30
0.0
  0
ENDBLK
  5
455
330
44A
100
AcDbEntity
  8
0
100
AcDbBlockEnd
  0
BLOCK
  5
457
330
456
100
AcDbEntity
  8
0
100
AcDbBlockBegin
  2
*D22
 70
     1
 10
0.0
 20
0.0
 30
0.0
  3
*D22
  1

  0
LINE
  5
458
330
456
100
AcDbEntity
  8
DIM
 62
     0
370
    -2
100
AcDbLine
 10
1907.842030105023
 20
492.7230876381822
 30
0.0
 11
2327.842030105022
 21
492.7230876381822
 31
0.0
  0
LINE
  5
459
330
456
100
AcDbEntity
  8
DIM
 62
     0
370
    -2
100
AcDbLine
 10
1907.842030105023
 20
1342.723087638182
 30
0.0
 11
2327.842030105023
 21
1342.723087638182
 31
0.0
  0
LINE
  5
45A
330
456
100
AcDbEntity
  8
DIM
 62
     0
370
    -2
100
AcDbLine
 10
2297.842030105023
 20
532.7230876381823
 30
0.0
 11
2297.842030105023
 21
1302.723087638182
 31
0.0
  0
SOLID
  5
45B
330
456
100
AcDbEntity
  8
DIM
 62
     0
100
AcDbTrace
 10
2291.175363438356
 20
532.7230876381823
 30
0.0
 11
2304.508696771689
 21
532.7230876381821
 31
0.0
 12
2297.842030105023
 22
492.7230876381822
 32
0.0
 13
2297.842030105023
 23
492.7230876381822
 33
0.0
  0
SOLID
  5
45C
330
456
100
AcDbEntity
  8
DIM
 62
     0
100
AcDbTrace
 10
2291.175363438356
 20
1302.723087638182
 30
0.0
 11
2304.508696771689
 21
1302.723087638182
 31
0.0
 12
2297.842030105023
 22
1342.723087638182
 32
0.0
 13
2297.842030105023
 23
1342.723087638182
 33
0.0
  0
MTEXT
  5
45D
330
456
100
AcDbEntity
  8
DIM
 62
     0
100
AcDbMText
 10
2262.842030105022
 20
917.7230876381823
 30
0.0
 40
40.0
 41
0.0
 71
     5
 72
     1
  1
850
 11
0.0000000000000001
 21
1.0
 31
0.0
 73
     1
 44
1.0
  0
POINT
  5
45E
330
456
100
AcDbEntity
  8
Defpoints
 62
     0
100
AcDbPoint
 10
1837.842030105022
 20
492.7230876381822
 30
0.0
  0
POINT
  5
45F
330
456
100
AcDbEntity
  8
Defpoints
 62
     0
100
AcDbPoint
 10
1837.842030105022
 20
1342.723087638182
 30
0.0
  0
POINT
  5
460
330
456
100
AcDbEntity
  8
Defpoints
 62
     0
100
AcDbPoint
 10
2297.842030105023
 20
1342.723087638182
 30
0.0
  0
ENDBLK
  5
461
330
456
100
AcDbEntity
  8
0
100
AcDbBlockEnd
  0
BLOCK
  5
463
330
462
100
AcDbEntity
  8
0
100
AcDbBlockBegin
  2
*D23
 70
     1
 10
0.0
 20
0.0
 30
0.0
  3
*D23
  1

  0
LINE
  5
464
330
462
100
AcDbEntity
  8
NO
 62
     0
370
    -2
100
AcDbLine
 10
397.8420301050228
 20
1032.723087638182
 30
0.0
 11
252.8420301050227
 21
1032.723087638182
 31
0.0
  0
LINE
  5
465
330
462
100
AcDbEntity
  8
NO
 62
     0
370
    -2
100
AcDbLine
 10
397.8420301050227
 20
682.7230876381821
 30
0.0
 11
252.8420301050226
 21
682.7230876381824
 31
0.0
  0
LINE
  5
466
330
462
100
AcDbEntity
  8
NO
 62
     0
370
    -2
100
AcDbLine
 10
282.8420301050227
 20
992.7230876381822
 30
0.0
 11
282.8420301050226
 21
722.7230876381821
 31
0.0
  0
SOLID
  5
467
330
462
100
AcDbEntity
  8
NO
 62
     0
100
AcDbTrace
 10
276.175363438356
 20
992.7230876381822
 30
0.0
 11
289.5086967716894
 21
992.7230876381822
 31
0.0
 12
282.8420301050227
 22
1032.723087638182
 32
0.0
 13
282.8420301050227
 23
1032.723087638182
 33
0.0
  0
SOLID
  5
468
330
462
100
AcDbEntity
  8
NO
 62
     0
100
AcDbTrace
 10
276.1753634383559
 20
722.7230876381821
 30
0.0
 11
289.5086967716893
 21
722.7230876381821
 31
0.0
 12
282.8420301050226
 22
682.7230876381821
 32
0.0
 13
282.8420301050226
 23
682.7230876381821
 33
0.0
  0
MTEXT
  5
469
330
462
100
AcDbEntity
  8
NO
 62
     0
100
AcDbMText
 10
247.8420301050225
 20
857.7230876381822
 30
0.0
 40
40.0
 41
0.0
 71
     5
 72
     1
  1
350
 11
0.0000000000000001
 21
1.0
 31
0.0
 73
     1
 44
1.0
  0
POINT
  5
46A
330
462
100
AcDbEntity
  8
Defpoints
 62
     0
100
AcDbPoint
 10
467.8420301050228
 20
1032.723087638182
 30
0.0
  0
POINT
  5
46B
330
462
100
AcDbEntity
  8
Defpoints
 62
     0
100
AcDbPoint
 10
467.8420301050224
 20
682.7230876381821
 30
0.0
  0
POINT
  5
46C
330
462
100
AcDbEntity
  8
Defpoints
 62
     0
100
AcDbPoint
 10
282.8420301050226
 20
682.7230876381821
 30
0.0
  0
ENDBLK
  5
46D
330
462
100
AcDbEntity
  8
0
100
AcDbBlockEnd
  0
BLOCK
  5
46F
330
46E
100
AcDbEntity
  8
0
100
AcDbBlockBegin
  2
*D24
 70
     1
 10
0.0
 20
0.0
 30
0.0
  3
*D24
  1

  0
LINE
  5
470
330
46E
100
AcDbEntity
  8
DIM
 62
     0
370
    -2
100
AcDbLine
 10
1760.342030105023
 20
592.7230876381822
 30
0.0
 11
2177.842030105022
 21
592.7230876381822
 31
0.0
  0
LINE
  5
471
330
46E
100
AcDbEntity
  8
DIM
 62
     0
370
    -2
100
AcDbLine
 10
1907.842030105023
 20
492.7230876381822
 30
0.0
 11
2177.842030105022
 21
492.7230876381822
 31
0.0
  0
LINE
  5
472
330
46E
100
AcDbEntity
  8
DIM
 62
     0
370
    -2
100
AcDbLine
 10
2147.842030105023
 20
632.7230876381821
 30
0.0
 11
2147.842030105023
 21
672.7230876381821
 31
0.0
  0
LINE
  5
473
330
46E
100
AcDbEntity
  8
DIM
 62
     0
370
    -2
100
AcDbLine
 10
2147.842030105023
 20
452.7230876381822
 30
0.0
 11
2147.842030105023
 21
412.7230876381822
 31
0.0
  0
SOLID
  5
474
330
46E
100
AcDbEntity
  8
DIM
 62
     0
100
AcDbTrace
 10
2141.175363438356
 20
632.7230876381821
 30
0.0
 11
2154.508696771689
 21
632.7230876381821
 31
0.0
 12
2147.842030105023
 22
592.7230876381822
 32
0.0
 13
2147.842030105023
 23
592.7230876381822
 33
0.0
  0
SOLID
  5
475
330
46E
100
AcDbEntity
  8
DIM
 62
     0
100
AcDbTrace
 10
2141.175363438356
 20
452.7230876381822
 30
0.0
 11
2154.508696771689
 21
452.7230876381822
 31
0.0
 12
2147.842030105023
 22
492.7230876381822
 32
0.0
 13
2147.842030105023
 23
492.7230876381822
 33
0.0
  0
MTEXT
  5
476
330
46E
100
AcDbEntity
  8
DIM
 62
     0
100
AcDbMText
 10
2112.842030105023
 20
542.7230876381825
 30
0.0
 40
40.0
 41
0.0
 71
     5
 72
     1
  1
100
 11
0.0000000000000001
 21
1.0
 31
0.0
 73
     1
 44
1.0
  0
POINT
  5
477
330
46E
100
AcDbEntity
  8
Defpoints
 62
     0
100
AcDbPoint
 10
1690.342030105023
 20
592.7230876381822
 30
0.0
  0
POINT
  5
478
330
46E
100
AcDbEntity
  8
Defpoints
 62
     0
100
AcDbPoint
 10
1837.842030105022
 20
492.7230876381822
 30
0.0
  0
POINT
  5
479
330
46E
100
AcDbEntity
  8
Defpoints
 62
     0
100
AcDbPoint
 10
2147.842030105023
 20
492.7230876381822
 30
0.0
  0
ENDBLK
  5
47A
330
46E
100
AcDbEntity
  8
0
100
AcDbBlockEnd
  0
BLOCK
  5
47C
330
47B
100
AcDbEntity
  8
0
100
AcDbBlockBegin
  2
*D25
 70
     1
 10
0.0
 20
0.0
 30
0.0
  3
*D25
  1

  0
LINE
  5
47D
330
47B
100
AcDbEntity
  8
DIM
 62
     0
370
    -2
100
AcDbLine
 10
1841.670585780226
 20
1367.723087638182
 30
0.0
 11
1828.446062227092
 21
1442.723087638182
 31
0.0
  0
LINE
  5
47E
330
47B
100
AcDbEntity
  8
DIM
 62
     0
370
    -2
100
AcDbLine
 10
1741.670585780227
 20
1377.723087638182
 30
0.0
 11
1730.209332034176
 21
1442.723087638182
 31
0.0
  0
LINE
  5
47F
330
47B
100
AcDbEntity
  8
DIM
 62
     0
370
    -2
100
AcDbLine
 10
1873.735871648345
 20
1412.723087638182
 30
0.0
 11
1913.735871648346
 21
1412.723087638182
 31
0.0
  0
LINE
  5
480
330
47B
100
AcDbEntity
  8
DIM
 62
     0
370
    -2
100
AcDbLine
 10
1695.49914145543
 20
1412.723087638182
 30
0.0
 11
1655.49914145543
 21
1412.723087638182
 31
0.0
  0
SOLID
  5
481
330
47B
100
AcDbEntity
  8
DIM
 62
     0
100
AcDbTrace
 10
1873.735871648345
 20
1419.389754304849
 30
0.0
 11
1873.735871648345
 21
1406.056420971515
 31
0.0
 12
1833.735871648346
 22
1412.723087638182
 32
0.0
 13
1833.735871648346
 23
1412.723087638182
 33
0.0
  0
SOLID
  5
482
330
47B
100
AcDbEntity
  8
DIM
 62
     0
100
AcDbTrace
 10
1695.49914145543
 20
1419.389754304849
 30
0.0
 11
1695.49914145543
 21
1406.056420971515
 31
0.0
 12
1735.49914145543
 22
1412.723087638182
 32
0.0
 13
1735.49914145543
 23
1412.723087638182
 33
0.0
  0
MTEXT
  5
483
330
47B
100
AcDbEntity
  8
DIM
 62
     0
100
AcDbMText
 10
1784.617506551888
 20
1447.723087638182
 30
0.0
 40
40.0
 41
0.0
 71
     5
 72
     1
  1
100
 73
     1
 44
1.0
  0
POINT
  5
484
330
47B
100
AcDbEntity
  8
Defpoints
 62
     0
100
AcDbPoint
 10
1847.842030105023
 20
1332.723087638182
 30
0.0
  0
POINT
  5
485
330
47B
100
AcDbEntity
  8
Defpoints
 62
     0
100
AcDbPoint
 10
1747.842030105022
 20
1342.723087638182
 30
0.0
  0
POINT
  5
486
330
47B
100
AcDbEntity
  8
Defpoints
 62
     0
100
AcDbPoint
 10
1735.49914145543
 20
1412.723087638182
 30
0.0
  0
ENDBLK
  5
487
330
47B
100
AcDbEntity
  8
0
100
AcDbBlockEnd
  0
BLOCK
  5
489
330
488
100
AcDbEntity
  8
0
100
AcDbBlockBegin
  2
*D26
 70
     1
 10
0.0
 20
0.0
 30
0.0
  3
*D26
  1

  0
LINE
  5
48A
330
488
100
AcDbEntity
  8
DIM
 62
     0
370
    -2
100
AcDbLine
 10
1741.670585780227
 20
1377.723087638182
 30
0.0
 11
1730.209332034176
 21
1442.723087638182
 31
0.0
  0
LINE
  5
48B
330
488
100
AcDbEntity
  8
DIM
 62
     0
370
    -2
100
AcDbLine
 10
526.6705857802263
 20
1377.723087638182
 30
0.0
 11
515.2093320341763
 21
1442.723087638182
 31
0.0
  0
LINE
  5
48C
330
488
100
AcDbEntity
  8
DIM
 62
     0
370
    -2
100
AcDbLine
 10
1695.49914145543
 20
1412.723087638182
 30
0.0
 11
560.4991414554302
 21
1412.723087638182
 31
0.0
  0
SOLID
  5
48D
330
488
100
AcDbEntity
  8
DIM
 62
     0
100
AcDbTrace
 10
1695.49914145543
 20
1419.389754304849
 30
0.0
 11
1695.49914145543
 21
1406.056420971515
 31
0.0
 12
1735.49914145543
 22
1412.723087638182
 32
0.0
 13
1735.49914145543
 23
1412.723087638182
 33
0.0
  0
SOLID
  5
48E
330
488
100
AcDbEntity
  8
DIM
 62
     0
100
AcDbTrace
 10
560.4991414554302
 20
1419.389754304849
 30
0.0
 11
560.4991414554302
 21
1406.056420971515
 31
0.0
 12
520.4991414554302
 22
1412.723087638182
 32
0.0
 13
520.4991414554302
 23
1412.723087638182
 33
0.0
  0
MTEXT
  5
48F
330
488
100
AcDbEntity
  8
DIM
 62
     0
100
AcDbMText
 10
1127.99914145543
 20
1447.727024646056
 30
0.0
 40
40.0
 41
0.0
 71
     5
 72
     1
  1
1215
 73
     1
 44
1.0
  0
POINT
  5
490
330
488
100
AcDbEntity
  8
Defpoints
 62
     0
100
AcDbPoint
 10
1747.842030105022
 20
1342.723087638182
 30
0.0
  0
POINT
  5
491
330
488
100
AcDbEntity
  8
Defpoints
 62
     0
100
AcDbPoint
 10
532.8420301050226
 20
1342.723087638182
 30
0.0
  0
POINT
  5
492
330
488
100
AcDbEntity
  8
Defpoints
 62
     0
100
AcDbPoint
 10
520.4991414554302
 20
1412.723087638182
 30
0.0
  0
ENDBLK
  5
493
330
488
100
AcDbEntity
  8
0
100
AcDbBlockEnd
  0
BLOCK
  5
495
330
494
100
AcDbEntity
  8
0
100
AcDbBlockBegin
  2
*D27
 70
     1
 10
0.0
 20
0.0
 30
0.0
  3
*D27
  1

  0
LINE
  5
496
330
494
100
AcDbEntity
  8
DIM
 62
     0
370
    -2
100
AcDbLine
 10
526.6705857802263
 20
1377.723087638182
 30
0.0
 11
515.2093320341763
 21
1442.723087638182
 31
0.0
  0
LINE
  5
497
330
494
100
AcDbEntity
  8
DIM
 62
     0
370
    -2
100
AcDbLine
 10
426.6705857802265
 20
1367.723087638182
 30
0.0
 11
413.4460622270916
 21
1442.723087638182
 31
0.0
  0
LINE
  5
498
330
494
100
AcDbEntity
  8
DIM
 62
     0
370
    -2
100
AcDbLine
 10
560.4991414554302
 20
1412.723087638182
 30
0.0
 11
600.4991414554303
 21
1412.723087638182
 31
0.0
  0
LINE
  5
499
330
494
100
AcDbEntity
  8
DIM
 62
     0
370
    -2
100
AcDbLine
 10
378.7358716483457
 20
1412.723087638182
 30
0.0
 11
338.7358716483457
 21
1412.723087638182
 31
0.0
  0
SOLID
  5
49A
330
494
100
AcDbEntity
  8
DIM
 62
     0
100
AcDbTrace
 10
560.4991414554302
 20
1419.389754304849
 30
0.0
 11
560.4991414554302
 21
1406.056420971515
 31
0.0
 12
520.4991414554302
 22
1412.723087638182
 32
0.0
 13
520.4991414554302
 23
1412.723087638182
 33
0.0
  0
SOLID
  5
49B
330
494
100
AcDbEntity
  8
DIM
 62
     0
100
AcDbTrace
 10
378.7358716483457
 20
1419.389754304849
 30
0.0
 11
378.7358716483457
 21
1406.056420971515
 31
0.0
 12
418.7358716483457
 22
1412.723087638182
 32
0.0
 13
418.7358716483457
 23
1412.723087638182
 33
0.0
  0
MTEXT
  5
49C
330
494
100
AcDbEntity
  8
DIM
 62
     0
100
AcDbMText
 10
469.6175065518879
 20
1447.723087638182
 30
0.0
 40
40.0
 41
0.0
 71
     5
 72
     1
  1
100
 73
     1
 44
1.0
  0
POINT
  5
49D
330
494
100
AcDbEntity
  8
Defpoints
 62
     0
100
AcDbPoint
 10
532.8420301050226
 20
1342.723087638182
 30
0.0
  0
POINT
  5
49E
330
494
100
AcDbEntity
  8
Defpoints
 62
     0
100
AcDbPoint
 10
432.8420301050226
 20
1332.723087638182
 30
0.0
  0
POINT
  5
49F
330
494
100
AcDbEntity
  8
Defpoints
 62
     0
100
AcDbPoint
 10
418.7358716483457
 20
1412.723087638182
 30
0.0
  0
ENDBLK
  5
4A0
330
494
100
AcDbEntity
  8
0
100
AcDbBlockEnd
  0
BLOCK
  5
4A2
330
4A1
100
AcDbEntity
  8
0
100
AcDbBlockBegin
  2
*D28
 70
     1
 10
0.0
 20
0.0
 30
0.0
  3
*D28
  1

  0
LINE
  5
4A3
330
4A1
100
AcDbEntity
  8
DIM
 62
     0
370
    -2
100
AcDbLine
 10
940.3420301050228
 20
1242.723087638182
 30
0.0
 11
940.3420301050228
 21
1300.577769325613
 31
0.0
  0
LINE
  5
4A4
330
4A1
100
AcDbEntity
  8
DIM
 62
     0
370
    -2
100
AcDbLine
 10
1340.342030105023
 20
1242.723087638182
 30
0.0
 11
1340.342030105023
 21
1300.577769325613
 31
0.0
  0
LINE
  5
4A5
330
4A1
100
AcDbEntity
  8
DIM
 62
     0
370
    -2
100
AcDbLine
 10
980.3420301050227
 20
1270.577769325613
 30
0.0
 11
1300.342030105023
 21
1270.577769325613
 31
0.0
  0
SOLID
  5
4A6
330
4A1
100
AcDbEntity
  8
DIM
 62
     0
100
AcDbTrace
 10
980.3420301050227
 20
1277.24443599228
 30
0.0
 11
980.3420301050227
 21
1263.911102658947
 31
0.0
 12
940.3420301050228
 22
1270.577769325613
 32
0.0
 13
940.3420301050228
 23
1270.577769325613
 33
0.0
  0
SOLID
  5
4A7
330
4A1
100
AcDbEntity
  8
DIM
 62
     0
100
AcDbTrace
 10
1300.342030105023
 20
1277.24443599228
 30
0.0
 11
1300.342030105023
 21
1263.911102658947
 31
0.0
 12
1340.342030105023
 22
1270.577769325613
 32
0.0
 13
1340.342030105023
 23
1270.577769325613
 33
0.0
  0
MTEXT
  5
4A8
330
4A1
100
AcDbEntity
  8
DIM
 62
     0
100
AcDbMText
 10
1140.342030105023
 20
1305.577769325613
 30
0.0
 40
40.0
 41
0.0
 71
     5
 72
     1
  1
400
 73
     1
 44
1.0
  0
POINT
  5
4A9
330
4A1
100
AcDbEntity
  8
Defpoints
 62
     0
100
AcDbPoint
 10
940.3420301050228
 20
1172.723087638182
 30
0.0
  0
POINT
  5
4AA
330
4A1
100
AcDbEntity
  8
Defpoints
 62
     0
100
AcDbPoint
 10
1340.342030105023
 20
1172.723087638182
 30
0.0
  0
POINT
  5
4AB
330
4A1
100
AcDbEntity
  8
Defpoints
 62
     0
100
AcDbPoint
 10
1340.342030105023
 20
1270.577769325613
 30
0.0
  0
ENDBLK
  5
4AC
330
4A1
100
AcDbEntity
  8
0
100
AcDbBlockEnd
  0
BLOCK
  5
4AE
330
4AD
100
AcDbEntity
  8
0
100
AcDbBlockBegin
  2
*D29
 70
     1
 10
0.0
 20
0.0
 30
0.0
  3
*D29
  1

  0
LINE
  5
4AF
330
4AD
100
AcDbEntity
  8
DIM
 62
     0
370
    -2
100
AcDbLine
 10
574.4491729621655
 20
1192.723087638182
 30
0.0
 11
652.8420301050227
 21
1192.723087638182
 31
0.0
  0
LINE
  5
4B0
330
4AD
100
AcDbEntity
  8
DIM
 62
     0
370
    -2
100
AcDbLine
 10
602.8420301050227
 20
1342.723087638182
 30
0.0
 11
652.8420301050227
 21
1342.723087638182
 31
0.0
  0
LINE
  5
4B1
330
4AD
100
AcDbEntity
  8
DIM
 62
     0
370
    -2
100
AcDbLine
 10
622.8420301050228
 20
1232.723087638182
 30
0.0
 11
622.8420301050228
 21
1302.723087638182
 31
0.0
  0
SOLID
  5
4B2
330
4AD
100
AcDbEntity
  8
DIM
 62
     0
100
AcDbTrace
 10
616.175363438356
 20
1232.723087638182
 30
0.0
 11
629.5086967716891
 21
1232.723087638182
 31
0.0
 12
622.8420301050228
 22
1192.723087638182
 32
0.0
 13
622.8420301050228
 23
1192.723087638182
 33
0.0
  0
SOLID
  5
4B3
330
4AD
100
AcDbEntity
  8
DIM
 62
     0
100
AcDbTrace
 10
616.175363438356
 20
1302.723087638182
 30
0.0
 11
629.5086967716894
 21
1302.723087638182
 31
0.0
 12
622.8420301050228
 22
1342.723087638182
 32
0.0
 13
622.8420301050228
 23
1342.723087638182
 33
0.0
  0
MTEXT
  5
4B4
330
4AD
100
AcDbEntity
  8
DIM
 62
     0
100
AcDbMText
 10
587.8420301050225
 20
1267.723087638182
 30
0.0
 40
40.0
 41
0.0
 71
     5
 72
     1
  1
150
 11
0.0000000000000001
 21
1.0
 31
0.0
 73
     1
 44
1.0
  0
POINT
  5
4B5
330
4AD
100
AcDbEntity
  8
Defpoints
 62
     0
100
AcDbPoint
 10
504.4491729621657
 20
1192.723087638182
 30
0.0
  0
POINT
  5
4B6
330
4AD
100
AcDbEntity
  8
Defpoints
 62
     0
100
AcDbPoint
 10
532.8420301050226
 20
1342.723087638182
 30
0.0
  0
POINT
  5
4B7
330
4AD
100
AcDbEntity
  8
Defpoints
 62
     0
100
AcDbPoint
 10
622.8420301050228
 20
1342.723087638182
 30
0.0
  0
ENDBLK
  5
4B8
330
4AD
100
AcDbEntity
  8
0
100
AcDbBlockEnd
  0
BLOCK
  5
4F2
330
4BC
100
AcDbEntity
  8
0
100
AcDbBlockBegin
  2
B1-750
 70
     0
 10
0.0
 20
0.0
 30
0.0
  3
B1-750
  1

  0
LWPOLYLINE
  5
4BD
330
4BC
100
AcDbEntity
  8
LATER
100
AcDbPolyline
 90
        8
 70
     1
 43
0.0
 10
442.8420301050228
 20
492.7230876381822
 10
1837.842030105022
 20
492.7230876381822
 10
1847.842030105023
 20
502.7230876381822
 10
1847.842030105023
 20
1332.723087638182
 10
1837.842030105022
 20
1342.723087638182
 10
442.8420301050228
 20
1342.723087638182
 10
432.8420301050226
 20
1332.723087638182
 10
432.8420301050226
 20
502.7230876381822
  0
LINE
  5
4BE
330
4BC
100
AcDbEntity
  8
DASHED
 48
0.15
100
AcDbLine
 10
532.8420301050226
 20
1342.723087638182
 30
0.0
 11
540.3420301050227
 21
642.7230876381822
 31
0.0
  0
LINE
  5
4BF
330
4BC
100
AcDbEntity
  8
DASHED
 48
0.15
100
AcDbLine
 10
540.3420301050227
 20
642.7230876381822
 30
0.0
 11
590.3420301050227
 21
592.7230876381822
 31
0.0
  0
LINE
  5
4C0
330
4BC
100
AcDbEntity
  8
DASHED
 48
0.15
100
AcDbLine
 10
590.3420301050227
 20
592.7230876381822
 30
0.0
 11
1030.342030105023
 21
592.7230876381822
 31
0.0
  0
LINE
  5
4C1
330
4BC
100
AcDbEntity
  8
DASHED
 48
0.15
100
AcDbLine
 10
1040.342030105023
 20
572.7230876381821
 30
0.0
 11
1240.342030105023
 21
572.7230876381821
 31
0.0
  0
LINE
  5
4C2
330
4BC
100
AcDbEntity
  8
DASHED
 48
0.15
100
AcDbLine
 10
1030.342030105023
 20
592.7230876381822
 30
0.0
 11
1040.342030105023
 21
572.7230876381821
 31
0.0
  0
LINE
  5
4C3
330
4BC
100
AcDbEntity
  8
DASHED
 48
0.15
100
AcDbLine
 10
1747.842030105022
 20
1342.723087638182
 30
0.0
 11
1740.342030105023
 21
642.7230876381822
 31
0.0
  0
LINE
  5
4C4
330
4BC
100
AcDbEntity
  8
DASHED
 48
0.15
100
AcDbLine
 10
1740.342030105023
 20
642.7230876381822
 30
0.0
 11
1690.342030105023
 21
592.7230876381822
 31
0.0
  0
LINE
  5
4C5
330
4BC
100
AcDbEntity
  8
DASHED
 48
0.15
100
AcDbLine
 10
1690.342030105023
 20
592.7230876381822
 30
0.0
 11
1250.342030105023
 21
592.7230876381822
 31
0.0
  0
LINE
  5
4C6
330
4BC
100
AcDbEntity
  8
DASHED
 48
0.15
100
AcDbLine
 10
1250.342030105023
 20
592.7230876381822
 30
0.0
 11
1240.342030105023
 21
572.7230876381821
 31
0.0
  0
LWPOLYLINE
  5
4C7
330
4BC
100
AcDbEntity
  8
NO
100
AcDbPolyline
 90
        4
 70
     1
 43
0.0
 10
690.3420301050227
 20
1132.723087638182
 10
1590.342030105023
 20
1132.723087638182
 10
1590.342030105023
 20
682.7230876381821
 10
690.3420301050227
 20
682.7230876381821
  0
LWPOLYLINE
  5
4C8
330
4BC
100
AcDbEntity
  8
NO
100
AcDbPolyline
 90
        4
 70
     1
 43
0.0
 10
670.3420301050227
 20
1152.723087638182
 10
1610.342030105023
 20
1152.723087638182
 10
1610.342030105023
 20
662.7230876381822
 10
670.3420301050229
 20
662.7230876381822
  0
LINE
  5
4C9
330
4BC
100
AcDbEntity
  8
NO
100
AcDbLine
 10
670.3420301050227
 20
1152.723087638182
 30
0.0
 11
690.3420301050227
 21
1132.723087638182
 31
0.0
  0
LINE
  5
4CA
330
4BC
100
AcDbEntity
  8
NO
100
AcDbLine
 10
670.3420301050227
 20
662.7230876381822
 30
0.0
 11
690.3420301050227
 21
682.7230876381821
 31
0.0
  0
LINE
  5
4CB
330
4BC
100
AcDbEntity
  8
NO
100
AcDbLine
 10
1590.342030105023
 20
682.7230876381821
 30
0.0
 11
1610.342030105023
 21
662.7230876381822
 31
0.0
  0
LINE
  5
4CC
330
4BC
100
AcDbEntity
  8
NO
100
AcDbLine
 10
1590.342030105023
 20
1132.723087638182
 30
0.0
 11
1610.342030105023
 21
1152.723087638182
 31
0.0
  0
LINE
  5
4CD
330
4BC
100
AcDbEntity
  8
NO2
 48
0.15
100
AcDbLine
 10
1847.842030105023
 20
1152.723087638182
 30
0.0
 11
1812.842030105023
 21
1132.723087638182
 31
0.0
  0
LINE
  5
4CE
330
4BC
100
AcDbEntity
  8
NO2
 48
0.15
100
AcDbLine
 10
1812.842030105023
 20
1132.723087638182
 30
0.0
 11
1812.842030105023
 21
682.7230876381821
 31
0.0
  0
LINE
  5
4CF
330
4BC
100
AcDbEntity
  8
NO2
 48
0.15
100
AcDbLine
 10
1812.842030105023
 20
682.7230876381821
 30
0.0
 11
1847.842030105023
 21
662.7230876381822
 31
0.0
  0
LINE
  5
4D0
330
4BC
100
AcDbEntity
  8
NO2
 48
0.15
100
AcDbLine
 10
467.8420301050228
 20
1032.723087638182
 30
0.0
 11
467.8420301050224
 21
682.7230876381821
 31
0.0
  0
LINE
  5
4D1
330
4BC
100
AcDbEntity
  8
NO2
 48
0.15
100
AcDbLine
 10
467.8420301050224
 20
682.7230876381821
 30
0.0
 11
432.8420301050226
 21
662.7230876381822
 31
0.0
  0
LINE
  5
4D2
330
4BC
100
AcDbEntity
  8
NO2
 48
0.15
100
AcDbLine
 10
432.8420301050226
 20
1052.723087638182
 30
0.0
 11
467.8420301050228
 21
1032.723087638182
 31
0.0
  0
LWPOLYLINE
  5
4D3
330
4BC
100
AcDbEntity
  8
DASHED
 48
0.15
100
AcDbPolyline
 90
        4
 70
     1
 43
0.0
 10
1535.342030105023
 20
642.7230876381822
 10
1545.342030105023
 20
642.7230876381822
 10
1545.342030105023
 20
592.7230876381822
 10
1535.342030105023
 20
592.7230876381822
  0
LWPOLYLINE
  5
4D4
330
4BC
100
AcDbEntity
  8
DASHED
 48
0.15
100
AcDbPolyline
 90
        4
 70
     1
 43
0.0
 10
745.3420301050227
 20
642.7230876381822
 10
735.3420301050228
 20
642.7230876381822
 10
735.3420301050228
 20
592.7230876381822
 10
745.3420301050227
 20
592.7230876381822
  0
CIRCLE
  5
4D5
330
4BC
100
AcDbEntity
  8
DASHED
 48
0.15
100
AcDbCircle
 10
940.3420301050228
 20
1192.723087638182
 30
0.0
 40
8.0
  0
LINE
  5
4D6
330
4BC
100
AcDbEntity
  8
DASHED
 48
0.15
100
AcDbLine
 10
920.3420301050227
 20
1192.723087638182
 30
0.0
 11
960.3420301050228
 21
1192.723087638182
 31
0.0
  0
LINE
  5
4D7
330
4BC
100
AcDbEntity
  8
DASHED
 48
0.15
100
AcDbLine
 10
940.3420301050228
 20
1172.723087638182
 30
0.0
 11
940.3420301050228
 21
1212.723087638182
 31
0.0
  0
LINE
  5
4D8
330
4BC
100
AcDbEntity
  8
DASHED
 48
0.15
100
AcDbLine
 10
1340.342030105023
 20
1172.723087638182
 30
0.0
 11
1340.342030105023
 21
1212.723087638182
 31
0.0
  0
CIRCLE
  5
4D9
330
4BC
100
AcDbEntity
  8
DASHED
 48
0.15
100
AcDbCircle
 10
1340.342030105023
 20
1192.723087638182
 30
0.0
 40
8.0
  0
LINE
  5
4DA
330
4BC
100
AcDbEntity
  8
DASHED
 48
0.15
100
AcDbLine
 10
1320.342030105023
 20
1192.723087638182
 30
0.0
 11
1360.342030105023
 21
1192.723087638182
 31
0.0
  0
LWPOLYLINE
  5
4DB
330
4BC
100
AcDbEntity
  8
DASHED
 48
0.15
100
AcDbPolyline
 90
        4
 70
     1
 43
0.0
 10
504.4491729621657
 20
1184.723087638182
 10
534.4491729621656
 20
1184.723087638182
 10
534.4491729621656
 20
1200.723087638182
 10
504.4491729621657
 20
1200.723087638182
  0
LWPOLYLINE
  5
4DC
330
4BC
100
AcDbEntity
  8
DASHED
 48
0.15
100
AcDbPolyline
 90
        4
 70
     1
 43
0.0
 10
1776.23488724788
 20
1184.723087638182
 10
1746.23488724788
 20
1184.723087638182
 10
1746.23488724788
 20
1200.723087638182
 10
1776.23488724788
 20
1200.723087638182
  0
DIMENSION
  5
4DD
330
4BC
100
AcDbEntity
  8
NO
100
AcDbDimension
  2
*D16
 10
1997.842030105022
 20
1132.723087638182
 30
0.0
 11
1962.838093097148
 21
1237.723087638182
 31
0.0
 70
    32
 71
     5
 42
210.0
  3
Standerd
100
AcDbAlignedDimension
 13
1837.842030105022
 23
1342.723087638182
 33
0.0
 14
1812.842030105023
 24
1132.723087638182
 34
0.0
 50
90.0
100
AcDbRotatedDimension
  0
DIMENSION
  5
4DE
330
4BC
100
AcDbEntity
  8
NO
100
AcDbDimension
  2
*D17
 10
1590.342030105023
 20
342.7230876381823
 30
0.0
 11
1140.342030105023
 21
377.7230876381823
 31
0.0
 70
    32
 71
     5
 42
900.0
  3
Standerd
100
AcDbAlignedDimension
 13
690.3420301050227
 23
682.7230876381821
 33
0.0
 14
1590.342030105023
 24
682.7230876381821
 34
0.0
100
AcDbRotatedDimension
  0
DIMENSION
  5
4DF
330
4BC
100
AcDbEntity
  8
DIM
100
AcDbDimension
  2
*D18
 10
1740.342030105023
 20
192.7230876381823
 30
0.0
 11
1140.342030105023
 21
227.7270246460563
 31
0.0
 70
    32
 71
     5
 42
1200.0
  3
Standerd
100
AcDbAlignedDimension
 13
540.3420301050227
 23
642.7230876381822
 33
0.0
 14
1740.342030105023
 24
642.7230876381822
 34
0.0
100
AcDbRotatedDimension
  0
DIMENSION
  5
4E0
330
4BC
100
AcDbEntity
  8
DIM
100
AcDbDimension
  2
*D19
 10
1847.842030105023
 20
42.72308763818227
 30
0.0
 11
1140.342030105023
 21
77.72308763818227
 31
0.0
 70
    32
 71
     5
 42
1415.0
  3
Standerd
100
AcDbAlignedDimension
 13
432.8420301050226
 23
502.7230876381822
 33
0.0
 14
1847.842030105023
 24
502.7230876381822
 34
0.0
100
AcDbRotatedDimension
  0
DIMENSION
  5
4E1
330
4BC
100
AcDbEntity
  8
NO
100
AcDbDimension
  2
*D20
 10
1997.842030105022
 20
682.7230876381821
 30
0.0
 11
1962.842030105022
 21
907.7230876381824
 31
0.0
 70
    32
 71
     5
 42
450.0
  3
Standerd
100
AcDbAlignedDimension
 13
1812.842030105023
 23
1132.723087638182
 33
0.0
 14
1812.842030105023
 24
682.7230876381821
 34
0.0
 50
90.0
100
AcDbRotatedDimension
  0
DIMENSION
  5
4E2
330
4BC
100
AcDbEntity
  8
DIM
100
AcDbDimension
  2
*D21
 10
2147.842030105023
 20
592.7230876381822
 30
0.0
 11
2112.842030105023
 21
967.7230876381823
 31
0.0
 70
    32
 71
     5
 42
750.0
  3
Standerd
100
AcDbAlignedDimension
 13
1837.842030105022
 23
1342.723087638182
 33
0.0
 14
1690.342030105023
 24
592.7230876381822
 34
0.0
 50
90.0
100
AcDbRotatedDimension
  0
DIMENSION
  5
4E3
330
4BC
100
AcDbEntity
  8
DIM
100
AcDbDimension
  2
*D22
 10
2297.842030105023
 20
1342.723087638182
 30
0.0
 11
2262.842030105022
 21
917.7230876381823
 31
0.0
 70
    32
 71
     5
 42
850.0
  3
Standerd
100
AcDbAlignedDimension
 13
1837.842030105022
 23
492.7230876381822
 33
0.0
 14
1837.842030105022
 24
1342.723087638182
 34
0.0
 50
90.0
100
AcDbRotatedDimension
  0
DIMENSION
  5
4E4
330
4BC
100
AcDbEntity
  8
NO
100
AcDbDimension
  2
*D23
 10
282.8420301050226
 20
682.7230876381821
 30
0.0
 11
247.8420301050225
 21
857.7230876381822
 31
0.0
 70
    32
 71
     5
 42
349.9999999999998
  3
Standerd
100
AcDbAlignedDimension
 13
467.8420301050228
 23
1032.723087638182
 33
0.0
 14
467.8420301050224
 24
682.7230876381821
 34
0.0
 50
90.0
100
AcDbRotatedDimension
  0
DIMENSION
  5
4E5
330
4BC
100
AcDbEntity
  8
DIM
100
AcDbDimension
  2
*D24
 10
2147.842030105023
 20
492.7230876381822
 30
0.0
 11
2112.842030105023
 21
542.7230876381825
 31
0.0
 70
    32
 71
     5
 42
99.99999999999994
  3
Standerd
100
AcDbAlignedDimension
 13
1690.342030105023
 23
592.7230876381822
 33
0.0
 14
1837.842030105022
 24
492.7230876381822
 34
0.0
 50
90.0
100
AcDbRotatedDimension
  0
DIMENSION
  5
4E6
330
4BC
100
AcDbEntity
  8
DIM
100
AcDbDimension
  2
*D25
 10
1735.49914145543
 20
1412.723087638182
 30
0.0
 11
1784.617506551888
 21
1447.723087638182
 31
0.0
 70
    32
 71
     5
 42
100.0
  3
Standerd2
100
AcDbAlignedDimension
 13
1847.842030105023
 23
1332.723087638182
 33
0.0
 14
1747.842030105022
 24
1342.723087638182
 34
0.0
100
AcDbRotatedDimension
  0
DIMENSION
  5
4E7
330
4BC
100
AcDbEntity
  8
DIM
100
AcDbDimension
  2
*D26
 10
520.4991414554302
 20
1412.723087638182
 30
0.0
 11
1127.99914145543
 21
1447.727024646056
 31
0.0
 70
    32
 71
     5
 42
1215.0
  3
Standerd2
100
AcDbAlignedDimension
 13
1747.842030105022
 23
1342.723087638182
 33
0.0
 14
532.8420301050226
 24
1342.723087638182
 34
0.0
100
AcDbRotatedDimension
  0
DIMENSION
  5
4E8
330
4BC
100
AcDbEntity
  8
DIM
100
AcDbDimension
  2
*D27
 10
418.7358716483457
 20
1412.723087638182
 30
0.0
 11
469.6175065518879
 21
1447.723087638182
 31
0.0
 70
    32
 71
     5
 42
100.0
  3
Standerd2
100
AcDbAlignedDimension
 13
532.8420301050226
 23
1342.723087638182
 33
0.0
 14
432.8420301050226
 24
1332.723087638182
 34
0.0
100
AcDbRotatedDimension
  0
LEADER
  5
4E9
330
4BC
100
AcDbEntity
  8
TXT
100
AcDbLeader
  3
Standerd1
 73
     0
 74
     0
 75
     1
 40
40.00787401574803
 41
190.0
 76
     3
 10
940.3420301050228
 20
1184.723087638182
 30
0.0
 10
1009.592914220828
 20
1085.957825467037
 30
0.0
 10
1009.772914220828
 20
1085.957825467037
 30
0.0
340
4EA
213
0.0
223
-20.0
233
0.0
1001
ACAD
1000
DSTYLE
1002
{
1070
   147
1040
15.0
1070
    77
1070
     0
1002
}
  0
MTEXT
  5
4EA
102
{ACAD_REACTORS
330
4E9
102
}
330
4BC
100
AcDbEntity
  8
TXT
100
AcDbMText
 10
1024.772914220828
 20
1105.957825467037
 30
0.0
 40
40.0
 41
0.0
 71
     1
 72
     1
  1
M12ｲﾝｻｰﾄ
 73
     1
 44
1.0
  0
LEADER
  5
4EB
330
4BC
100
AcDbEntity
  8
TXT
100
AcDbLeader
  3
Standerd1
 73
     0
 74
     0
 75
     1
 40
40.0
 41
456.7830808016392
 76
     3
 10
1545.342030105023
 20
617.7230876381822
 30
0.0
 10
1911.35541194788
 20
289.1838736420695
 30
0.0
 10
1911.53541194788
 20
289.1838736420695
 30
0.0
340
4EC
213
0.0
223
-20.0
233
0.0
1001
ACAD
1000
DSTYLE
1002
{
1070
   147
1040
15.0
1070
    77
1070
     0
1002
}
  0
MTEXT
  5
4EC
102
{ACAD_REACTORS
330
4EB
102
}
330
4BC
100
AcDbEntity
  8
TXT
100
AcDbMText
 10
1926.535411947879
 20
309.1838736420696
 30
0.0
 40
40.0
 41
0.0
 71
     1
 72
     1
  1
吊りﾌｯｸ引込用ﾌｯｸ兼用
 73
     1
 44
1.0
  0
LEADER
  5
4ED
330
4BC
100
AcDbEntity
  8
NO
100
AcDbLeader
  3
Standerd1
 73
     0
 75
     1
 40
40.0
 41
170.6666666666666
 76
     3
 10
432.8420301050226
 20
662.7230876381822
 30
0.0
 10
331.2996038678718
 20
553.7206213703874
 30
0.0
 10
331.1196038678718
 20
553.7206213703874
 30
0.0
340
4EE
213
0.0
223
20.0
233
0.0
1001
ACAD
1000
DSTYLE
1002
{
1070
   147
1040
15.0
1070
    77
1070
     0
1002
}
  0
MTEXT
  5
4EE
102
{ACAD_REACTORS
330
4ED
102
}
330
4BC
100
AcDbEntity
  8
NO
100
AcDbMText
 10
316.1196038678718
 20
533.7206213703876
 30
0.0
 40
40.0
 41
0.0
 71
     9
 72
     1
  1
１面のみ
 73
     1
 44
1.0
  0
TEXT
  5
4EF
330
4BC
100
AcDbEntity
  8
TXT
100
AcDbText
 10
-17.15796989497721
 20
1262.723087638182
 30
0.0
 40
60.0
  1
B1-750
 41
1.5
100
AcDbText
  0
DIMENSION
  5
4F0
330
4BC
100
AcDbEntity
  8
DIM
100
AcDbDimension
  2
*D28
 10
1340.342030105023
 20
1270.577769325613
 30
0.0
 11
1140.342030105023
 21
1305.577769325613
 31
0.0
 70
    32
 71
     5
 42
400.0
  3
Standerd1
100
AcDbAlignedDimension
 13
940.3420301050228
 23
1172.723087638182
 33
0.0
 14
1340.342030105023
 24
1172.723087638182
 34
0.0
100
AcDbRotatedDimension
  0
DIMENSION
  5
4F1
330
4BC
100
AcDbEntity
  8
DIM
100
AcDbDimension
  2
*D29
 10
622.8420301050228
 20
1342.723087638182
 30
0.0
 11
587.8420301050225
 21
1267.723087638182
 31
0.0
 70
    32
 71
     5
 42
150.0000000000002
  3
Standerd1
100
AcDbAlignedDimension
 13
504.4491729621657
 23
1192.723087638182
 33
0.0
 14
532.8420301050226
 24
1342.723087638182
 34
0.0
 50
90.0
100
AcDbRotatedDimension
  0
ENDBLK
  5
4F3
330
4BC
100
AcDbEntity
  8
0
100
AcDbBlockEnd
  0
BLOCK
  5
4F7
330
4F6
100
AcDbEntity
  8
0
100
AcDbBlockBegin
  2
*D31
 70
     1
 10
0.0
 20
0.0
 30
0.0
  3
*D31
  1

  0
LINE
  5
4F8
330
4F6
100
AcDbEntity
  8
DIM
 62
     0
370
    -2
100
AcDbLine
 10
1475.0
 20
1415.0
 30
0.0
 11
1595.0
 21
1415.0
 31
0.0
  0
LINE
  5
4F9
330
4F6
100
AcDbEntity
  8
DIM
 62
     0
370
    -2
100
AcDbLine
 10
1475.0
 20
-0.0000000000000198
 30
0.0
 11
1595.0
 21
-0.0000000000000538
 31
0.0
  0
LINE
  5
4FA
330
4F6
100
AcDbEntity
  8
DIM
 62
     0
370
    -2
100
AcDbLine
 10
1565.0
 20
1375.0
 30
0.0
 11
1565.0
 21
39.99999999999996
 31
0.0
  0
SOLID
  5
4FB
330
4F6
100
AcDbEntity
  8
DIM
 62
     0
100
AcDbTrace
 10
1558.333333333334
 20
1375.0
 30
0.0
 11
1571.666666666667
 21
1375.0
 31
0.0
 12
1565.0
 22
1415.0
 32
0.0
 13
1565.0
 23
1415.0
 33
0.0
  0
SOLID
  5
4FC
330
4F6
100
AcDbEntity
  8
DIM
 62
     0
100
AcDbTrace
 10
1558.333333333333
 20
39.99999999999996
 30
0.0
 11
1571.666666666667
 21
39.99999999999996
 31
0.0
 12
1565.0
 22
-0.0000000000000453
 32
0.0
 13
1565.0
 23
-0.0000000000000453
 33
0.0
  0
MTEXT
  5
4FD
330
4F6
100
AcDbEntity
  8
DIM
 62
     0
100
AcDbMText
 10
1530.0
 20
707.5000000000001
 30
0.0
 40
40.0
 41
0.0
 71
     5
 72
     1
  1
1415
 11
0.0000000000000001
 21
1.0
 31
0.0
 73
     1
 44
1.0
  0
POINT
  5
4FE
330
4F6
100
AcDbEntity
  8
Defpoints
 62
     0
100
AcDbPoint
 10
1405.0
 20
1415.0
 30
0.0
  0
POINT
  5
4FF
330
4F6
100
AcDbEntity
  8
Defpoints
 62
     0
100
AcDbPoint
 10
1405.0
 20
0.0
 30
0.0
  0
POINT
  5
500
330
4F6
100
AcDbEntity
  8
Defpoints
 62
     0
100
AcDbPoint
 10
1565.0
 20
-0.0000000000000453
 30
0.0
  0
ENDBLK
  5
501
330
4F6
100
AcDbEntity
  8
0
100
AcDbBlockEnd
  0
BLOCK
  5
503
330
502
100
AcDbEntity
  8
0
100
AcDbBlockBegin
  2
*D32
 70
     1
 10
0.0
 20
0.0
 30
0.0
  3
*D32
  1

  0
LINE
  5
504
330
502
100
AcDbEntity
  8
DIM
 62
     0
370
    -2
100
AcDbLine
 10
1415.0
 20
1475.0
 30
0.0
 11
1415.0
 21
1595.0
 31
0.0
  0
LINE
  5
505
330
502
100
AcDbEntity
  8
DIM
 62
     0
370
    -2
100
AcDbLine
 10
0.0000000000000043
 20
1475.0
 30
0.0
 11
0.0000000000000116
 21
1595.0
 31
0.0
  0
LINE
  5
506
330
502
100
AcDbEntity
  8
DIM
 62
     0
370
    -2
100
AcDbLine
 10
1375.0
 20
1565.0
 30
0.0
 11
40.0
 21
1565.0
 31
0.0
  0
SOLID
  5
507
330
502
100
AcDbEntity
  8
DIM
 62
     0
100
AcDbTrace
 10
1375.0
 20
1571.666666666667
 30
0.0
 11
1375.0
 21
1558.333333333333
 31
0.0
 12
1415.0
 22
1565.0
 32
0.0
 13
1415.0
 23
1565.0
 33
0.0
  0
SOLID
  5
508
330
502
100
AcDbEntity
  8
DIM
 62
     0
100
AcDbTrace
 10
40.0
 20
1571.666666666667
 30
0.0
 11
40.0
 21
1558.333333333333
 31
0.0
 12
0.0000000000000098
 22
1565.0
 32
0.0
 13
0.0000000000000098
 23
1565.0
 33
0.0
  0
MTEXT
  5
509
330
502
100
AcDbEntity
  8
DIM
 62
     0
100
AcDbMText
 10
707.5
 20
1600.0
 30
0.0
 40
40.0
 41
0.0
 71
     5
 72
     1
  1
1415
 73
     1
 44
1.0
  0
POINT
  5
50A
330
502
100
AcDbEntity
  8
Defpoints
 62
     0
100
AcDbPoint
 10
1415.0
 20
1405.0
 30
0.0
  0
POINT
  5
50B
330
502
100
AcDbEntity
  8
Defpoints
 62
     0
100
AcDbPoint
 10
0.0
 20
1405.0
 30
0.0
  0
POINT
  5
50C
330
502
100
AcDbEntity
  8
Defpoints
 62
     0
100
AcDbPoint
 10
0.0000000000000098
 20
1565.0
 30
0.0
  0
ENDBLK
  5
50D
330
502
100
AcDbEntity
  8
0
100
AcDbBlockEnd
  0
BLOCK
  5
536
330
50F
100
AcDbEntity
  8
0
100
AcDbBlockBegin
  2
B2-top
 70
     0
 10
0.0
 20
0.0
 30
0.0
  3
B2-top
  1

  0
LWPOLYLINE
  5
510
330
50F
100
AcDbEntity
  8
LATER
100
AcDbPolyline
 90
        8
 70
     1
 43
0.0
 10
10.0
 20
0.0
 10
1405.0
 20
0.0
 10
1415.0
 20
10.0
 10
1415.0
 20
1405.0
 10
1405.0
 20
1415.0
 10
10.0
 20
1415.0
 10
0.0
 20
1405.0
 10
0.0
 20
10.0
  0
LWPOLYLINE
  5
511
330
50F
100
AcDbEntity
  8
DASHED
 48
0.15
100
AcDbPolyline
 90
        8
 70
     1
 43
0.0
 10
150.0
 20
100.0
 10
1265.0
 20
100.0
 10
1315.0
 20
150.0
 10
1315.0
 20
1265.0
 10
1265.0
 20
1315.0
 10
150.0
 20
1315.0
 10
100.0
 20
1265.0
 10
100.0
 20
150.0
  0
LINE
  5
512
330
50F
100
AcDbEntity
  8
CENTER
 48
0.2
100
AcDbLine
 10
-50.0
 20
707.5
 30
0.0
 11
1465.0
 21
707.5
 31
0.0
  0
LINE
  5
513
330
50F
100
AcDbEntity
  8
CENTER
 48
0.2
100
AcDbLine
 10
707.5
 20
1465.0
 30
0.0
 11
707.5
 21
-50.0
 31
0.0
  0
LINE
  5
514
330
50F
100
AcDbEntity
  8
NO2
 48
0.15
100
AcDbLine
 10
-0.0000000000000071
 20
1192.5
 30
0.0
 11
35.0
 21
1157.5
 31
0.0
  0
LINE
  5
515
330
50F
100
AcDbEntity
  8
NO2
 48
0.15
100
AcDbLine
 10
35.0
 20
1157.5
 30
0.0
 11
35.0
 21
257.5
 31
0.0
  0
LINE
  5
516
330
50F
100
AcDbEntity
  8
NO2
 48
0.15
100
AcDbLine
 10
35.0
 20
257.5
 30
0.0
 11
-0.0000000000000071
 21
222.5
 31
0.0
  0
LINE
  5
517
330
50F
100
AcDbEntity
  8
NO2
 48
0.15
100
AcDbLine
 10
257.5
 20
35.00000000000011
 30
0.0
 11
1157.5
 21
35.0
 31
0.0
  0
LINE
  5
518
330
50F
100
AcDbEntity
  8
NO2
 48
0.15
100
AcDbLine
 10
1157.5
 20
35.0
 30
0.0
 11
1192.5
 21
0.0
 31
0.0
  0
LINE
  5
519
330
50F
100
AcDbEntity
  8
NO2
 48
0.15
100
AcDbLine
 10
222.5
 20
0.0000000000001137
 30
0.0
 11
257.5
 21
35.00000000000011
 31
0.0
  0
LINE
  5
51A
330
50F
100
AcDbEntity
  8
NO2
 48
0.15
100
AcDbLine
 10
1380.0
 20
257.5
 30
0.0
 11
1380.0
 21
1157.5
 31
0.0
  0
LINE
  5
51B
330
50F
100
AcDbEntity
  8
NO2
 48
0.15
100
AcDbLine
 10
1380.0
 20
1157.5
 30
0.0
 11
1415.0
 21
1192.5
 31
0.0
  0
LINE
  5
51C
330
50F
100
AcDbEntity
  8
NO2
 48
0.15
100
AcDbLine
 10
1415.0
 20
222.5
 30
0.0
 11
1380.0
 21
257.5
 31
0.0
  0
LINE
  5
51D
330
50F
100
AcDbEntity
  8
NO2
 48
0.15
100
AcDbLine
 10
1157.5
 20
1380.0
 30
0.0
 11
257.5000000000001
 21
1380.0
 31
0.0
  0
LINE
  5
51E
330
50F
100
AcDbEntity
  8
NO2
 48
0.15
100
AcDbLine
 10
257.5000000000001
 20
1380.0
 30
0.0
 11
222.5000000000001
 21
1415.0
 31
0.0
  0
LINE
  5
51F
330
50F
100
AcDbEntity
  8
NO2
 48
0.15
100
AcDbLine
 10
1192.5
 20
1415.0
 30
0.0
 11
1157.5
 21
1380.0
 31
0.0
  0
MTEXT
  5
520
102
{ACAD_REACTORS
330
523
102
}
330
50F
100
AcDbEntity
  8
TXT
100
AcDbMText
 10
370.8425749179428
 20
-83.05784908482792
 30
0.0
 40
40.0
 41
0.0
 71
     1
 72
     1
  1
ＣＲズレ止め
 73
     1
 44
1.0
  0
CIRCLE
  5
521
330
50F
100
AcDbEntity
  8
LATER
100
AcDbCircle
 10
510.0
 20
707.5
 30
0.0
 40
300.0
  0
CIRCLE
  5
522
330
50F
100
AcDbEntity
  8
CR
100
AcDbCircle
 10
510.0
 20
707.5
 30
0.0
 40
435.0
  0
LEADER
  5
523
330
50F
100
AcDbEntity
  8
TXT
100
AcDbLeader
  3
Standerd
 73
     0
 74
     0
 75
     1
 40
40.0
 41
261.3333333333334
 76
     3
 10
209.4796179957171
 20
371.6242789363898
 30
0.0
 10
355.6625749179428
 20
-103.0578490848279
 30
0.0
 10
355.8425749179428
 20
-103.0578490848279
 30
0.0
340
520
213
0.0
223
-20.0
233
0.0
1001
ACAD
1000
DSTYLE
1002
{
1070
   147
1040
15.0
1070
    77
1070
     0
1002
}
  0
LWPOLYLINE
  5
524
330
50F
100
AcDbEntity
  8
LATER
100
AcDbPolyline
 90
        4
 70
     1
 43
0.0
 10
181.1953467482553
 20
414.0506858075828
 10
174.1242789363898
 20
406.9796179957171
 10
209.4796179957171
 20
371.6242789363898
 10
216.5506858075826
 20
378.6953467482554
  0
LINE
  5
525
330
50F
100
AcDbEntity
  8
DIM
100
AcDbLine
 10
510.0
 20
687.5
 30
0.0
 11
510.0
 21
727.5
 31
0.0
  0
LINE
  5
526
330
50F
100
AcDbEntity
  8
DIM
100
AcDbLine
 10
490.0
 20
707.5
 30
0.0
 11
530.0
 21
707.5
 31
0.0
  0
LWPOLYLINE
  5
527
330
50F
100
AcDbEntity
  8
LATER
100
AcDbPolyline
 90
        4
 70
     1
 43
0.0
 10
216.5506858075828
 20
1036.304653251744
 10
209.4796179957173
 20
1043.37572106361
 10
174.1242789363898
 20
1008.020382004283
 10
181.1953467482553
 20
1000.949314192417
  0
LWPOLYLINE
  5
528
330
50F
100
AcDbEntity
  8
LATER
100
AcDbPolyline
 90
        4
 70
     1
 43
0.0
 10
803.4493141924171
 20
378.6953467482553
 10
810.5203820042827
 20
371.6242789363897
 10
845.8757210636099
 20
406.979617995717
 10
838.8046532517446
 20
414.0506858075824
  0
LWPOLYLINE
  5
529
330
50F
100
AcDbEntity
  8
LATER
100
AcDbPolyline
 90
        4
 70
     1
 43
0.0
 10
838.8046532517446
 20
1000.949314192417
 10
845.8757210636102
 20
1008.020382004283
 10
810.5203820042827
 20
1043.37572106361
 10
803.4493141924174
 20
1036.304653251744
  0
DIMENSION
  5
52A
330
50F
100
AcDbEntity
  8
DIM
100
AcDbDimension
  2
*D31
 10
1565.0
 20
-0.0000000000000453
 30
0.0
 11
1530.0
 21
707.5000000000001
 31
0.0
 70
    32
 71
     5
 42
1415.0
  3
Standerd
100
AcDbAlignedDimension
 13
1405.0
 23
1415.0
 33
0.0
 14
1405.0
 24
0.0
 34
0.0
 50
90.0
100
AcDbRotatedDimension
  0
DIMENSION
  5
52B
330
50F
100
AcDbEntity
  8
DIM
100
AcDbDimension
  2
*D32
 10
0.0000000000000098
 20
1565.0
 30
0.0
 11
707.5
 21
1600.0
 31
0.0
 70
    32
 71
     5
 42
1415.0
  3
Standerd
100
AcDbAlignedDimension
 13
1415.0
 23
1405.0
 33
0.0
 14
0.0
 24
1405.0
 34
0.0
100
AcDbRotatedDimension
  0
LEADER
  5
52C
330
50F
100
AcDbEntity
  8
TXT
100
AcDbLeader
  3
Standerd1
 73
     0
 74
     0
 75
     1
 40
40.00787401574803
 41
190.0
 76
     3
 10
915.4999999999986
 20
70.0
 30
0.0
 10
1023.508867102142
 20
-68.63899398743615
 30
0.0
 10
1023.688867102142
 20
-68.63899398743615
 30
0.0
340
52D
213
0.0
223
-20.0
233
0.0
1001
ACAD
1000
DSTYLE
1002
{
1070
   147
1040
15.0
1070
    77
1070
     0
1002
}
  0
MTEXT
  5
52D
102
{ACAD_REACTORS
330
52C
102
}
330
50F
100
AcDbEntity
  8
TXT
100
AcDbMText
 10
1038.688867102142
 20
-48.63899398743615
 30
0.0
 40
40.0
 41
0.0
 71
     1
 72
     1
  1
M12ｲﾝｻｰﾄ
 73
     1
 44
1.0
  0
LWPOLYLINE
  5
52E
330
50F
100
AcDbEntity
  8
DASHED
 48
0.15
100
AcDbPolyline
 90
        4
 70
     1
 43
0.0
 10
515.5
 20
70.0
 10
515.5
 20
100.0
 10
499.5
 20
100.0
 10
499.5
 20
70.0
  0
LWPOLYLINE
  5
52F
330
50F
100
AcDbEntity
  8
DASHED
 48
0.15
100
AcDbPolyline
 90
        4
 70
     1
 43
0.0
 10
915.4999999999986
 20
70.0
 10
915.4999999999986
 20
100.0
 10
899.4999999999986
 20
100.0
 10
899.4999999999986
 20
70.0
  0
LWPOLYLINE
  5
530
330
50F
100
AcDbEntity
  8
DASHED
 48
0.15
100
AcDbPolyline
 90
        4
 70
     1
 43
0.0
 10
1345.0
 20
515.5
 10
1315.0
 20
515.5
 10
1315.0
 20
499.5
 10
1345.0
 20
499.5
  0
LWPOLYLINE
  5
531
330
50F
100
AcDbEntity
  8
DASHED
 48
0.15
100
AcDbPolyline
 90
        4
 70
     1
 43
0.0
 10
1345.0
 20
915.4999999999986
 10
1315.0
 20
915.4999999999986
 10
1315.0
 20
899.4999999999986
 10
1345.0
 20
899.4999999999986
  0
LWPOLYLINE
  5
532
330
50F
100
AcDbEntity
  8
DASHED
 48
0.15
100
AcDbPolyline
 90
        4
 70
     1
 43
0.0
 10
899.5
 20
1345.0
 10
899.5
 20
1315.0
 10
915.4999999999999
 20
1315.0
 10
915.4999999999999
 20
1345.0
  0
LWPOLYLINE
  5
533
330
50F
100
AcDbEntity
  8
DASHED
 48
0.15
100
AcDbPolyline
 90
        4
 70
     1
 43
0.0
 10
499.5000000000013
 20
1345.0
 10
499.5000000000013
 20
1315.0
 10
515.5000000000012
 20
1315.0
 10
515.5000000000012
 20
1345.0
  0
LWPOLYLINE
  5
534
330
50F
100
AcDbEntity
  8
DASHED
 48
0.15
100
AcDbPolyline
 90
        4
 70
     1
 43
0.0
 10
70.0
 20
499.5000000000013
 10
100.0
 20
499.5000000000013
 10
100.0
 20
515.5000000000012
 10
70.0
 20
515.5000000000012
  0
LWPOLYLINE
  5
535
330
50F
100
AcDbEntity
  8
DASHED
 48
0.15
100
AcDbPolyline
 90
        4
 70
     1
 43
0.0
 10
70.0
 20
899.5
 10
100.0
 20
899.5
 10
100.0
 20
915.4999999999999
 10
70.0
 20
915.4999999999999
  0
ENDBLK
  5
537
330
50F
100
AcDbEntity
  8
0
100
AcDbBlockEnd
  0
BLOCK
  5
CA9
330
CA8
100
AcDbEntity
  8
0
100
AcDbBlockBegin
  2
A4
 70
     0
 10
0.0
 20
0.0
 30
0.0
  3
A4
  1

  0
LWPOLYLINE
  5
CAA
330
CA8
100
AcDbEntity
  8
FLAM
100
AcDbPolyline
 90
        4
 70
     1
 43
0.0
 10
0.0
 20
0.0
 10
0.0
 20
210.0
 10
297.0
 20
210.0
 10
297.0
 20
0.0
  0
LWPOLYLINE
  5
CAB
330
CA8
100
AcDbEntity
  8
LAYER
100
AcDbPolyline
 90
        4
 70
     1
 43
0.0
 10
15.0
 20
3.0
 10
15.0
 20
198.0
 10
295.0
 20
198.0
 10
295.0
 20
3.0
  0
LINE
  5
CAC
330
CA8
100
AcDbEntity
  8
LAYER
100
AcDbLine
 10
15.0
 20
18.0
 30
0.0
 11
295.0
 21
18.0
 31
0.0
  0
LINE
  5
CAD
330
CA8
100
AcDbEntity
  8
LAYER
100
AcDbLine
 10
50.0
 20
18.0
 30
0.0
 11
50.0
 21
3.0
 31
0.0
  0
LINE
  5
CAE
330
CA8
100
AcDbEntity
  8
LAYER
100
AcDbLine
 10
142.0
 20
18.0
 30
0.0
 11
142.0
 21
3.0
 31
0.0
  0
LINE
  5
CAF
330
CA8
100
AcDbEntity
  8
LAYER
100
AcDbLine
 10
149.0
 20
18.0
 30
0.0
 11
149.0
 21
3.0
 31
0.0
  0
LINE
  5
CB0
330
CA8
100
AcDbEntity
  8
LAYER
100
AcDbLine
 10
199.0
 20
18.0
 30
0.0
 11
199.0
 21
3.0
 31
0.0
  0
LINE
  5
CB1
330
CA8
100
AcDbEntity
  8
LAYER
100
AcDbLine
 10
211.0
 20
18.0
 30
0.0
 11
211.0
 21
3.0
 31
0.0
  0
LINE
  5
CB2
330
CA8
100
AcDbEntity
  8
LAYER
100
AcDbLine
 10
223.0
 20
18.0
 30
0.0
 11
223.0
 21
3.0
 31
0.0
  0
LINE
  5
CB3
330
CA8
100
AcDbEntity
  8
LAYER
100
AcDbLine
 10
235.0
 20
18.0
 30
0.0
 11
235.0
 21
3.0
 31
0.0
  0
LINE
  5
CB4
330
CA8
100
AcDbEntity
  8
LAYER
100
AcDbLine
 10
235.0
 20
18.0
 30
0.0
 11
235.0
 21
33.0
 31
0.0
  0
LINE
  5
CB5
330
CA8
100
AcDbEntity
  8
LAYER
100
AcDbLine
 10
235.0
 20
33.0
 30
0.0
 11
295.0
 21
33.0
 31
0.0
  0
LINE
  5
CB6
330
CA8
100
AcDbEntity
  8
LAYER
100
AcDbLine
 10
50.0
 20
10.5
 30
0.0
 11
142.0
 21
10.5
 31
0.0
  0
LINE
  5
CB7
330
CA8
100
AcDbEntity
  8
LAYER
100
AcDbLine
 10
199.0
 20
13.0
 30
0.0
 11
235.0
 21
13.0
 31
0.0
  0
LINE
  5
CB8
330
CA8
100
AcDbEntity
  8
LAYER
100
AcDbLine
 10
235.0
 20
25.5
 30
0.0
 11
295.0
 21
25.5
 31
0.0
  0
LINE
  5
CB9
330
CA8
100
AcDbEntity
  8
LAYER
100
AcDbLine
 10
235.0
 20
10.5
 30
0.0
 11
295.0
 21
10.5
 31
0.0
  0
LINE
  5
CBA
330
CA8
100
AcDbEntity
  8
LAYER
100
AcDbLine
 10
253.0
 20
33.0
 30
0.0
 11
253.0
 21
10.5
 31
0.0
  0
LINE
  5
CBB
330
CA8
100
AcDbEntity
  8
FLAM
100
AcDbLine
 10
96.0
 20
10.5
 30
0.0
 11
96.0
 21
18.0
 31
0.0
  0
LINE
  5
CBC
330
CA8
100
AcDbEntity
  8
FLAM
100
AcDbLine
 10
96.0
 20
10.5
 30
0.0
 11
96.0
 21
3.0
 31
0.0
  0
LINE
  5
CBD
330
CA8
100
AcDbEntity
  8
FLAM
100
AcDbLine
 10
50.0
 20
6.75
 30
0.0
 11
142.0
 21
6.75
 31
0.0
  0
LINE
  5
CBE
330
CA8
100
AcDbEntity
  8
FLAM
100
AcDbLine
 10
50.0
 20
14.25
 30
0.0
 11
142.0
 21
14.25
 31
0.0
  0
LINE
  5
CBF
330
CA8
100
AcDbEntity
  8
FLAM
100
AcDbLine
 10
149.0
 20
10.5
 30
0.0
 11
199.0
 21
10.5
 31
0.0
  0
LINE
  5
CC0
330
CA8
100
AcDbEntity
  8
FLAM
100
AcDbLine
 10
174.0
 20
10.5
 30
0.0
 11
174.0
 21
18.0
 31
0.0
  0
LINE
  5
CC1
330
CA8
100
AcDbEntity
  8
FLAM
100
AcDbLine
 10
174.0
 20
10.5
 30
0.0
 11
174.0
 21
3.0
 31
0.0
  0
LINE
  5
CC2
330
CA8
100
AcDbEntity
  8
FLAM
100
AcDbLine
 10
253.0
 20
21.75
 30
0.0
 11
295.0
 21
21.75
 31
0.0
  0
LINE
  5
CC3
330
CA8
100
AcDbEntity
  8
FLAM
100
AcDbLine
 10
253.0
 20
29.25
 30
0.0
 11
295.0
 21
29.25
 31
0.0
  0
LINE
  5
CC4
330
CA8
100
AcDbEntity
  8
FLAM
100
AcDbLine
 10
253.0
 20
14.25
 30
0.0
 11
295.0
 21
14.25
 31
0.0
  0
LINE
  5
CC5
330
CA8
100
AcDbEntity
  8
FLAM
100
AcDbLine
 10
149.0
 20
6.75
 30
0.0
 11
199.0
 21
6.75
 31
0.0
  0
LINE
  5
CC6
330
CA8
100
AcDbEntity
  8
FLAM
100
AcDbLine
 10
149.0
 20
14.25
 30
0.0
 11
199.0
 21
14.25
 31
0.0
  0
LINE
  5
CC7
330
CA8
100
AcDbEntity
  8
FLAM
100
AcDbLine
 10
274.0
 20
29.25
 30
0.0
 11
274.0
 21
10.5
 31
0.0
  0
LINE
  5
CC8
330
CA8
100
AcDbEntity
  8
FLAM
100
AcDbLine
 10
274.0
 20
29.25
 30
0.0
 11
274.0
 21
33.0
 31
0.0
  0
TEXT
  5
CC9
330
CA8
100
AcDbEntity
  8
LAYER
100
AcDbText
 10
17.05
 20
8.0
 30
0.0
 40
5.0
  1
種類・呼び名
 41
0.9
 72
     4
 11
32.5
 21
10.5
 31
0.0
100
AcDbText
  0
TEXT
  5
CCA
330
CA8
100
AcDbEntity
  8
LAYER
100
AcDbText
 10
143.5952380952381
 20
12.25
 30
0.0
 40
4.0
  1
摘
 72
     4
 11
145.5
 21
14.25
 31
0.0
100
AcDbText
  0
TEXT
  5
CCB
330
CA8
100
AcDbEntity
  8
LAYER
100
AcDbText
 10
143.6333333333333
 20
4.883333333333332
 30
0.0
 40
4.0
  1
要
 72
     4
 11
145.5
 21
6.75
 31
0.0
100
AcDbText
  0
TEXT
  5
CCC
330
CA8
100
AcDbEntity
  8
LAYER
100
AcDbText
 10
200.0
 20
14.0
 30
0.0
 40
3.0
  1
工場長
 72
     4
 11
205.0
 21
15.5
 31
0.0
100
AcDbText
  0
TEXT
  5
CCD
330
CA8
100
AcDbEntity
  8
LAYER
100
AcDbText
 10
212.1
 20
14.0
 30
0.0
 40
3.0
  1
検　図
 72
     4
 11
217.0
 21
15.5
 31
0.0
100
AcDbText
  0
TEXT
  5
CCE
330
CA8
100
AcDbEntity
  8
LAYER
100
AcDbText
 10
224.1
 20
14.0
 30
0.0
 40
3.0
  1
製　図
 72
     4
 11
229.0
 21
15.5
 31
0.0
100
AcDbText
  0
TEXT
  5
CCF
330
CA8
100
AcDbEntity
  8
LAYER
100
AcDbText
 10
238.1666666666667
 20
27.5
 30
0.0
 40
3.5
  1
縮　尺
 72
     4
 11
244.0
 21
29.25
 31
0.0
100
AcDbText
  0
TEXT
  5
CD0
330
CA8
100
AcDbEntity
  8
LAYER
100
AcDbText
 10
237.9333333333333
 20
20.0
 30
0.0
 40
3.5
  1
日　付
 72
     4
 11
244.0
 21
21.75
 31
0.0
100
AcDbText
  0
TEXT
  5
CD1
330
CA8
100
AcDbEntity
  8
LAYER
100
AcDbText
 10
236.0666666666666
 20
5.0
 30
0.0
 40
3.5
  1
阿賀コンクリート工業株式会社
 72
     4
 11
265.0
 21
6.75
 31
0.0
100
AcDbText
  0
TEXT
  5
CD2
330
CA8
100
AcDbEntity
  8
LAYER
100
AcDbText
 10
238.05
 20
12.5
 30
0.0
 40
3.5
  1
図　番
 72
     4
 11
244.0
 21
14.25
 31
0.0
100
AcDbText
  0
TEXT
  5
CD3
330
CA8
100
AcDbEntity
  8
LAYER
100
AcDbText
 10
256.7625
 20
20.0
 30
0.0
 40
3.5
  1
H.   年   月   日
 72
     4
 11
274.0
 21
21.75
 31
0.0
100
AcDbText
  0
ENDBLK
  5
CD4
330
CA8
100
AcDbEntity
  8
0
100
AcDbBlockEnd
  0
BLOCK
  5
CF9
330
CD7
100
AcDbEntity
  8
0
100
AcDbBlockBegin
  2
A3展開図dwg
 70
     0
 10
0.0
 20
0.0
 30
0.0
  3
A3展開図dwg
  1

  0
LINE
  5
CD8
330
CD7
100
AcDbEntity
  8
LAYER
100
AcDbLine
 10
279.9999999999999
 20
15.0
 30
0.0
 11
279.9999999999999
 21
0.0
 31
0.0
  0
LINE
  5
CD9
330
CD7
100
AcDbEntity
  8
LAYER
100
AcDbLine
 10
298.0
 20
15.0
 30
0.0
 11
298.0
 21
0.0
 31
0.0
  0
TEXT
  5
CDA
330
CD7
100
AcDbEntity
  8
LAYER
100
AcDbText
 10
300.1125
 20
5.75
 30
0.0
 40
3.5
  1
H.    年    月    日
 72
     4
 11
320.5
 21
7.5
 31
0.0
100
AcDbText
  0
TEXT
  5
CDB
330
CD7
100
AcDbEntity
  8
LAYER
100
AcDbText
 10
346.05
 20
9.5
 30
0.0
 40
3.5
  1
図　番
 72
     4
 11
352.0
 21
11.25
 31
0.0
100
AcDbText
  0
TEXT
  5
CDC
330
CD7
100
AcDbEntity
  8
LAYER
100
AcDbText
 10
347.0666666666665
 20
2.0
 30
0.0
 40
3.5
  1
阿賀コンクリート工業株式会社
 72
     4
 11
375.9999999999998
 21
3.75
 31
0.0
100
AcDbText
  0
TEXT
  5
CDD
330
CD7
100
AcDbEntity
  8
LAYER
100
AcDbText
 10
282.9333333333334
 20
5.75
 30
0.0
 40
3.5
  1
日　付
 72
     4
 11
289.0
 21
7.5
 31
0.0
100
AcDbText
  0
TEXT
  5
CDE
330
CD7
100
AcDbEntity
  8
LAYER
100
AcDbText
 10
211.6333333333332
 20
1.883333333333333
 30
0.0
 40
4.0
  1
要
 72
     4
 11
213.4999999999999
 21
3.75
 31
0.0
100
AcDbText
  0
TEXT
  5
CDF
330
CD7
100
AcDbEntity
  8
LAYER
100
AcDbText
 10
211.595238095238
 20
9.25
 30
0.0
 40
4.0
  1
摘
 72
     4
 11
213.4999999999999
 21
11.25
 31
0.0
100
AcDbText
  0
TEXT
  5
CE0
330
CD7
100
AcDbEntity
  8
LAYER
100
AcDbText
 10
2.049999999999998
 20
5.0
 30
0.0
 40
5.0
  1
種類・呼び名
 41
0.9
 72
     4
 11
17.5
 21
7.5
 31
0.0
100
AcDbText
  0
LINE
  5
CE1
330
CD7
100
AcDbEntity
  8
FLAM
100
AcDbLine
 10
383.4999999999998
 20
15.0
 30
0.0
 11
383.4999999999998
 21
7.5
 31
0.0
  0
LINE
  5
CE2
330
CD7
100
AcDbEntity
  8
FLAM
100
AcDbLine
 10
216.9999999999999
 20
11.25
 30
0.0
 11
279.9999999999999
 21
11.25
 31
0.0
  0
LINE
  5
CE3
330
CD7
100
AcDbEntity
  8
FLAM
100
AcDbLine
 10
216.9999999999999
 20
3.75
 30
0.0
 11
279.9999999999999
 21
3.75
 31
0.0
  0
LINE
  5
CE4
330
CD7
100
AcDbEntity
  8
FLAM
100
AcDbLine
 10
360.9999999999998
 20
11.25
 30
0.0
 11
405.9999999999998
 21
11.25
 31
0.0
  0
LINE
  5
CE5
330
CD7
100
AcDbEntity
  8
FLAM
100
AcDbLine
 10
298.0
 20
7.5
 30
0.0
 11
343.0
 21
7.5
 31
0.0
  0
LINE
  5
CE6
330
CD7
100
AcDbEntity
  8
FLAM
100
AcDbLine
 10
248.4999999999999
 20
7.5
 30
0.0
 11
248.4999999999999
 21
0.0
 31
0.0
  0
LINE
  5
CE7
330
CD7
100
AcDbEntity
  8
FLAM
100
AcDbLine
 10
248.4999999999999
 20
7.5
 30
0.0
 11
248.4999999999999
 21
15.0
 31
0.0
  0
LINE
  5
CE8
330
CD7
100
AcDbEntity
  8
FLAM
100
AcDbLine
 10
216.9999999999999
 20
7.5
 30
0.0
 11
279.9999999999999
 21
7.5
 31
0.0
  0
LINE
  5
CE9
330
CD7
100
AcDbEntity
  8
FLAM
100
AcDbLine
 10
35.0
 20
11.25
 30
0.0
 11
210.0
 21
11.25
 31
0.0
  0
LINE
  5
CEA
330
CD7
100
AcDbEntity
  8
FLAM
100
AcDbLine
 10
35.0
 20
3.75
 30
0.0
 11
210.0
 21
3.75
 31
0.0
  0
LINE
  5
CEB
330
CD7
100
AcDbEntity
  8
FLAM
100
AcDbLine
 10
122.4999999999999
 20
7.5
 30
0.0
 11
122.4999999999999
 21
0.0
 31
0.0
  0
LINE
  5
CEC
330
CD7
100
AcDbEntity
  8
FLAM
100
AcDbLine
 10
122.4999999999999
 20
7.5
 30
0.0
 11
122.4999999999999
 21
15.0
 31
0.0
  0
LINE
  5
CED
330
CD7
100
AcDbEntity
  8
LAYER
100
AcDbLine
 10
360.9999999999998
 20
15.0
 30
0.0
 11
360.9999999999998
 21
7.5
 31
0.0
  0
LINE
  5
CEE
330
CD7
100
AcDbEntity
  8
LAYER
100
AcDbLine
 10
343.0
 20
7.5
 30
0.0
 11
405.9999999999998
 21
7.5
 31
0.0
  0
LINE
  5
CEF
330
CD7
100
AcDbEntity
  8
LAYER
100
AcDbLine
 10
35.0
 20
7.5
 30
0.0
 11
210.0
 21
7.5
 31
0.0
  0
LINE
  5
CF0
330
CD7
100
AcDbEntity
  8
LAYER
100
AcDbLine
 10
343.0
 20
15.0
 30
0.0
 11
343.0
 21
15.0
 31
0.0
  0
LINE
  5
CF1
330
CD7
100
AcDbEntity
  8
LAYER
100
AcDbLine
 10
343.0
 20
15.0
 30
0.0
 11
343.0
 21
0.0
 31
0.0
  0
LINE
  5
CF2
330
CD7
100
AcDbEntity
  8
LAYER
100
AcDbLine
 10
216.9999999999999
 20
15.0
 30
0.0
 11
216.9999999999999
 21
0.0
 31
0.0
  0
LINE
  5
CF3
330
CD7
100
AcDbEntity
  8
LAYER
100
AcDbLine
 10
210.0
 20
15.0
 30
0.0
 11
210.0
 21
0.0
 31
0.0
  0
LINE
  5
CF4
330
CD7
100
AcDbEntity
  8
LAYER
100
AcDbLine
 10
35.0
 20
15.0
 30
0.0
 11
35.0
 21
0.0
 31
0.0
  0
LINE
  5
CF5
330
CD7
100
AcDbEntity
  8
LAYER
100
AcDbLine
 10
0.0
 20
15.0
 30
0.0
 11
405.9999999999998
 21
15.0
 31
0.0
  0
LWPOLYLINE
  5
CF6
330
CD7
100
AcDbEntity
  8
LAYER
100
AcDbPolyline
 90
        4
 70
     1
 43
0.0
 10
0.0
 20
0.0
 10
0.0
 20
282.75
 10
405.9999999999998
 20
282.75
 10
405.9999999999998
 20
0.0
  0
VIEWPORT
  5
CF7
330
CD7
100
AcDbEntity
  8
0
100
AcDbViewport
 10
203.0
 20
148.875
 30
0.0
 40
405.9999999999998
 41
267.75
 69
     0
 12
228.1209015211101
 22
160.8176196896051
 13
0.0
 23
0.0
 14
10.0
 24
10.0
 15
10.0
 25
10.0
 16
0.0
 26
0.0
 36
1.0
 17
0.0
 27
0.0
 37
0.0
 42
50.0
 43
0.0
 44
0.0
 45
267.75
 50
0.0
 51
0.0
 72
   100
 90
    32864
  1

281
     0
 71
     1
 74
     0
110
0.0
120
0.0
130
0.0
111
1.0
121
0.0
131
0.0
112
0.0
122
1.0
132
0.0
 79
     0
146
0.0
170
     0
  0
LWPOLYLINE
  5
CF8
330
CD7
100
AcDbEntity
  8
LAYER
100
AcDbPolyline
 90
        4
 70
     1
 43
0.0
 10
405.9999999999998
 20
0.0
 10
0.0000000000000284
 20
0.0
 10
0.0000000000000284
 20
282.75
 10
405.9999999999998
 20
282.75
  0
ENDBLK
  5
CFA
330
CD7
100
AcDbEntity
  8
0
100
AcDbBlockEnd
  0
BLOCK
  5
228E
330
2283
100
AcDbEntity
  8
0
100
AcDbBlockBegin
  2
*D75
 70
     1
 10
0.0
 20
0.0
 30
0.0
  3
*D75
  1

  0
LINE
  5
244A
330
2283
100
AcDbEntity
  8
DIM
 62
     0
370
    -2
100
AcDbLine
 10
6473.493805508963
 20
4133.437910955183
 30
0.0
 11
6417.909144356328
 21
4133.437910955183
 31
0.0
  0
LINE
  5
244B
330
2283
100
AcDbEntity
  8
DIM
 62
     0
370
    -2
100
AcDbLine
 10
6504.0890436042
 20
4083.437910955182
 30
0.0
 11
6417.909144356328
 21
4083.437910955182
 31
0.0
  0
LINE
  5
244C
330
2283
100
AcDbEntity
  8
DIM
 62
     0
370
    -2
100
AcDbLine
 10
6447.909144356327
 20
4173.437910955183
 30
0.0
 11
6447.909144356327
 21
4213.437910955183
 31
0.0
  0
LINE
  5
244D
330
2283
100
AcDbEntity
  8
DIM
 62
     0
370
    -2
100
AcDbLine
 10
6447.909144356327
 20
4043.437910955183
 30
0.0
 11
6447.909144356327
 21
4003.437910955183
 31
0.0
  0
SOLID
  5
244E
330
2283
100
AcDbEntity
  8
DIM
 62
     0
100
AcDbTrace
 10
6441.24247768966
 20
4173.437910955183
 30
0.0
 11
6454.575811022994
 21
4173.437910955183
 31
0.0
 12
6447.909144356327
 22
4133.437910955183
 32
0.0
 13
6447.909144356327
 23
4133.437910955183
 33
0.0
  0
SOLID
  5
244F
330
2283
100
AcDbEntity
  8
DIM
 62
     0
100
AcDbTrace
 10
6441.24247768966
 20
4043.437910955183
 30
0.0
 11
6454.575811022994
 21
4043.437910955183
 31
0.0
 12
6447.909144356327
 22
4083.437910955182
 32
0.0
 13
6447.909144356327
 23
4083.437910955182
 33
0.0
  0
MTEXT
  5
2450
330
2283
100
AcDbEntity
  8
DIM
 62
     0
100
AcDbMText
 10
6412.909144356326
 20
4108.437910955184
 30
0.0
 40
40.0
 41
0.0
 71
     5
 72
     1
  1
50
 11
0.0000000000000001
 21
1.0
 31
0.0
 73
     1
 44
1.0
  0
POINT
  5
2451
330
2283
100
AcDbEntity
  8
Defpoints
 62
     0
100
AcDbPoint
 10
6543.493805508963
 20
4133.437910955183
 30
0.0
  0
POINT
  5
2452
330
2283
100
AcDbEntity
  8
Defpoints
 62
     0
100
AcDbPoint
 10
6574.0890436042
 20
4083.437910955182
 30
0.0
  0
POINT
  5
2453
330
2283
100
AcDbEntity
  8
Defpoints
 62
     0
100
AcDbPoint
 10
6447.909144356327
 20
4083.437910955182
 30
0.0
  0
ENDBLK
  5
228F
330
2283
100
AcDbEntity
  8
0
100
AcDbBlockEnd
  0
BLOCK
  5
229A
330
2290
100
AcDbEntity
  8
0
100
AcDbBlockBegin
  2
*D76
 70
     1
 10
0.0
 20
0.0
 30
0.0
  3
*D76
  1

  0
LINE
  5
2441
330
2290
100
AcDbEntity
  8
DIM
 62
     0
370
    -2
100
AcDbLine
 10
6708.493805508962
 20
4033.437910955182
 30
0.0
 11
6708.493805508962
 21
4037.87801821491
 31
0.0
  0
LINE
  5
2442
330
2290
100
AcDbEntity
  8
DIM
 62
     0
370
    -2
100
AcDbLine
 10
7108.493805508962
 20
4033.437910955182
 30
0.0
 11
7108.493805508962
 21
4037.87801821491
 31
0.0
  0
LINE
  5
2443
330
2290
100
AcDbEntity
  8
DIM
 62
     0
370
    -2
100
AcDbLine
 10
6748.493805508963
 20
4067.87801821491
 30
0.0
 11
7068.493805508963
 21
4067.87801821491
 31
0.0
  0
SOLID
  5
2444
330
2290
100
AcDbEntity
  8
DIM
 62
     0
100
AcDbTrace
 10
6748.493805508963
 20
4074.544684881576
 30
0.0
 11
6748.493805508963
 21
4061.211351548243
 31
0.0
 12
6708.493805508962
 22
4067.87801821491
 32
0.0
 13
6708.493805508962
 23
4067.87801821491
 33
0.0
  0
SOLID
  5
2445
330
2290
100
AcDbEntity
  8
DIM
 62
     0
100
AcDbTrace
 10
7068.493805508963
 20
4074.544684881576
 30
0.0
 11
7068.493805508963
 21
4061.211351548243
 31
0.0
 12
7108.493805508962
 22
4067.87801821491
 32
0.0
 13
7108.493805508962
 23
4067.87801821491
 33
0.0
  0
MTEXT
  5
2446
330
2290
100
AcDbEntity
  8
DIM
 62
     0
100
AcDbMText
 10
6908.493805508962
 20
4102.87801821491
 30
0.0
 40
40.0
 41
0.0
 71
     5
 72
     1
  1
400
 73
     1
 44
1.0
  0
POINT
  5
2447
330
2290
100
AcDbEntity
  8
Defpoints
 62
     0
100
AcDbPoint
 10
6708.493805508962
 20
4103.437910955182
 30
0.0
  0
POINT
  5
2448
330
2290
100
AcDbEntity
  8
Defpoints
 62
     0
100
AcDbPoint
 10
7108.493805508962
 20
4103.437910955182
 30
0.0
  0
POINT
  5
2449
330
2290
100
AcDbEntity
  8
Defpoints
 62
     0
100
AcDbPoint
 10
7108.493805508962
 20
4067.87801821491
 30
0.0
  0
ENDBLK
  5
229B
330
2290
100
AcDbEntity
  8
0
100
AcDbBlockEnd
  0
BLOCK
  5
22A7
330
229C
100
AcDbEntity
  8
0
100
AcDbBlockBegin
  2
*D77
 70
     1
 10
0.0
 20
0.0
 30
0.0
  3
*D77
  1

  0
LINE
  5
2437
330
229C
100
AcDbEntity
  8
DIM
 62
     0
370
    -2
100
AcDbLine
 10
6590.754847309646
 20
4168.437910955183
 30
0.0
 11
6575.019534020433
 21
4211.67032890534
 31
0.0
  0
LINE
  5
2438
330
229C
100
AcDbEntity
  8
DIM
 62
     0
370
    -2
100
AcDbLine
 10
6530.754847309644
 20
4168.437910955183
 30
0.0
 11
6515.019534020433
 21
4211.67032890534
 31
0.0
  0
LINE
  5
2439
330
229C
100
AcDbEntity
  8
DIM
 62
     0
370
    -2
100
AcDbLine
 10
6625.938641048418
 20
4181.670328905339
 30
0.0
 11
6665.938641048419
 21
4181.670328905339
 31
0.0
  0
LINE
  5
243A
330
229C
100
AcDbEntity
  8
DIM
 62
     0
370
    -2
100
AcDbLine
 10
6485.938641048419
 20
4181.670328905339
 30
0.0
 11
6369.513444198024
 21
4181.670328905339
 31
0.0
  0
SOLID
  5
243B
330
229C
100
AcDbEntity
  8
DIM
 62
     0
100
AcDbTrace
 10
6625.938641048418
 20
4188.336995572006
 30
0.0
 11
6625.938641048418
 21
4175.003662238672
 31
0.0
 12
6585.938641048419
 22
4181.670328905339
 32
0.0
 13
6585.938641048419
 23
4181.670328905339
 33
0.0
  0
SOLID
  5
243C
330
229C
100
AcDbEntity
  8
DIM
 62
     0
100
AcDbTrace
 10
6485.938641048419
 20
4188.336995572006
 30
0.0
 11
6485.938641048419
 21
4175.003662238672
 31
0.0
 12
6525.938641048418
 22
4181.670328905339
 32
0.0
 13
6525.938641048418
 23
4181.670328905339
 33
0.0
  0
MTEXT
  5
243D
330
229C
100
AcDbEntity
  8
DIM
 62
     0
100
AcDbMText
 10
6407.726042623221
 20
4216.670328905339
 30
0.0
 40
40.0
 41
0.0
 71
     5
 72
     1
  1
60
 73
     1
 44
1.0
  0
POINT
  5
243E
330
229C
100
AcDbEntity
  8
Defpoints
 62
     0
100
AcDbPoint
 10
6603.493805508962
 20
4133.437910955183
 30
0.0
  0
POINT
  5
243F
330
229C
100
AcDbEntity
  8
Defpoints
 62
     0
100
AcDbPoint
 10
6543.493805508963
 20
4133.437910955183
 30
0.0
  0
POINT
  5
2440
330
229C
100
AcDbEntity
  8
Defpoints
 62
     0
100
AcDbPoint
 10
6525.938641048418
 20
4181.670328905339
 30
0.0
  0
ENDBLK
  5
22A8
330
229C
100
AcDbEntity
  8
0
100
AcDbBlockEnd
  0
BLOCK
  5
22B4
330
22A9
100
AcDbEntity
  8
0
100
AcDbBlockBegin
  2
*D78
 70
     1
 10
0.0
 20
0.0
 30
0.0
  3
*D78
  1

  0
LINE
  5
242D
330
22A9
100
AcDbEntity
  8
DIM
 62
     0
370
    -2
100
AcDbLine
 10
7200.754847309645
 20
4168.437910955183
 30
0.0
 11
7185.019534020432
 21
4211.67032890534
 31
0.0
  0
LINE
  5
242E
330
22A9
100
AcDbEntity
  8
DIM
 62
     0
370
    -2
100
AcDbLine
 10
7260.754847309645
 20
4168.437910955183
 30
0.0
 11
7245.019534020433
 21
4211.67032890534
 31
0.0
  0
LINE
  5
242F
330
22A9
100
AcDbEntity
  8
DIM
 62
     0
370
    -2
100
AcDbLine
 10
7155.938641048418
 20
4181.670328905339
 30
0.0
 11
7115.938641048419
 21
4181.670328905339
 31
0.0
  0
LINE
  5
2430
330
22A9
100
AcDbEntity
  8
DIM
 62
     0
370
    -2
100
AcDbLine
 10
7295.938641048419
 20
4181.670328905339
 30
0.0
 11
7412.363837898813
 21
4181.670328905339
 31
0.0
  0
SOLID
  5
2431
330
22A9
100
AcDbEntity
  8
DIM
 62
     0
100
AcDbTrace
 10
7155.938641048418
 20
4188.336995572006
 30
0.0
 11
7155.938641048418
 21
4175.003662238672
 31
0.0
 12
7195.938641048418
 22
4181.670328905339
 32
0.0
 13
7195.938641048418
 23
4181.670328905339
 33
0.0
  0
SOLID
  5
2432
330
22A9
100
AcDbEntity
  8
DIM
 62
     0
100
AcDbTrace
 10
7295.938641048419
 20
4188.336995572006
 30
0.0
 11
7295.938641048419
 21
4175.003662238672
 31
0.0
 12
7255.938641048418
 22
4181.670328905339
 32
0.0
 13
7255.938641048418
 23
4181.670328905339
 33
0.0
  0
MTEXT
  5
2433
330
22A9
100
AcDbEntity
  8
DIM
 62
     0
100
AcDbMText
 10
7374.151239473616
 20
4216.670328905339
 30
0.0
 40
40.0
 41
0.0
 71
     5
 72
     1
  1
60
 73
     1
 44
1.0
  0
POINT
  5
2434
330
22A9
100
AcDbEntity
  8
Defpoints
 62
     0
100
AcDbPoint
 10
7213.493805508962
 20
4133.437910955183
 30
0.0
  0
POINT
  5
2435
330
22A9
100
AcDbEntity
  8
Defpoints
 62
     0
100
AcDbPoint
 10
7273.493805508962
 20
4133.437910955183
 30
0.0
  0
POINT
  5
2436
330
22A9
100
AcDbEntity
  8
Defpoints
 62
     0
100
AcDbPoint
 10
7255.938641048418
 20
4181.670328905339
 30
0.0
  0
ENDBLK
  5
22B5
330
22A9
100
AcDbEntity
  8
0
100
AcDbBlockEnd
  0
BLOCK
  5
22C0
330
22B6
100
AcDbEntity
  8
0
100
AcDbBlockBegin
  2
*D79
 70
     1
 10
0.0
 20
0.0
 30
0.0
  3
*D79
  1

  0
LINE
  5
2424
330
22B6
100
AcDbEntity
  8
DIM
 62
     0
370
    -2
100
AcDbLine
 10
7200.754847309645
 20
4168.437910955183
 30
0.0
 11
7185.019534020432
 21
4211.67032890534
 31
0.0
  0
LINE
  5
2425
330
22B6
100
AcDbEntity
  8
DIM
 62
     0
370
    -2
100
AcDbLine
 10
6590.754847309646
 20
4168.437910955183
 30
0.0
 11
6575.019534020433
 21
4211.67032890534
 31
0.0
  0
LINE
  5
2426
330
22B6
100
AcDbEntity
  8
DIM
 62
     0
370
    -2
100
AcDbLine
 10
7155.938641048418
 20
4181.670328905339
 30
0.0
 11
6625.938641048418
 21
4181.670328905339
 31
0.0
  0
SOLID
  5
2427
330
22B6
100
AcDbEntity
  8
DIM
 62
     0
100
AcDbTrace
 10
7155.938641048418
 20
4188.336995572006
 30
0.0
 11
7155.938641048418
 21
4175.003662238672
 31
0.0
 12
7195.938641048418
 22
4181.670328905339
 32
0.0
 13
7195.938641048418
 23
4181.670328905339
 33
0.0
  0
SOLID
  5
2428
330
22B6
100
AcDbEntity
  8
DIM
 62
     0
100
AcDbTrace
 10
6625.938641048418
 20
4188.336995572006
 30
0.0
 11
6625.938641048418
 21
4175.003662238672
 31
0.0
 12
6585.938641048419
 22
4181.670328905339
 32
0.0
 13
6585.938641048419
 23
4181.670328905339
 33
0.0
  0
MTEXT
  5
2429
330
22B6
100
AcDbEntity
  8
DIM
 62
     0
100
AcDbMText
 10
6890.938641048419
 20
4216.670328905339
 30
0.0
 40
40.0
 41
0.0
 71
     5
 72
     1
  1
610
 73
     1
 44
1.0
  0
POINT
  5
242A
330
22B6
100
AcDbEntity
  8
Defpoints
 62
     0
100
AcDbPoint
 10
7213.493805508962
 20
4133.437910955183
 30
0.0
  0
POINT
  5
242B
330
22B6
100
AcDbEntity
  8
Defpoints
 62
     0
100
AcDbPoint
 10
6603.493805508962
 20
4133.437910955183
 30
0.0
  0
POINT
  5
242C
330
22B6
100
AcDbEntity
  8
Defpoints
 62
     0
100
AcDbPoint
 10
6585.938641048419
 20
4181.670328905339
 30
0.0
  0
ENDBLK
  5
22C1
330
22B6
100
AcDbEntity
  8
0
100
AcDbBlockEnd
  0
BLOCK
  5
22D8
330
22CE
100
AcDbEntity
  8
0
100
AcDbBlockBegin
  2
*D81
 70
     1
 10
0.0
 20
0.0
 30
0.0
  3
*D81
  1

  0
LINE
  5
2412
330
22CE
100
AcDbEntity
  8
DIM
 62
     0
370
    -2
100
AcDbLine
 10
7273.493805508962
 20
3543.437910955183
 30
0.0
 11
7273.493805508962
 21
3123.437910955183
 31
0.0
  0
LINE
  5
2413
330
22CE
100
AcDbEntity
  8
DIM
 62
     0
370
    -2
100
AcDbLine
 10
6543.493805508963
 20
3543.437910955183
 30
0.0
 11
6543.493805508963
 21
3123.437910955183
 31
0.0
  0
LINE
  5
2414
330
22CE
100
AcDbEntity
  8
DIM
 62
     0
370
    -2
100
AcDbLine
 10
7233.493805508962
 20
3153.437910955183
 30
0.0
 11
6583.493805508962
 21
3153.437910955183
 31
0.0
  0
SOLID
  5
2415
330
22CE
100
AcDbEntity
  8
DIM
 62
     0
100
AcDbTrace
 10
7233.493805508962
 20
3160.104577621849
 30
0.0
 11
7233.493805508962
 21
3146.771244288516
 31
0.0
 12
7273.493805508962
 22
3153.437910955183
 32
0.0
 13
7273.493805508962
 23
3153.437910955183
 33
0.0
  0
SOLID
  5
2416
330
22CE
100
AcDbEntity
  8
DIM
 62
     0
100
AcDbTrace
 10
6583.493805508962
 20
3160.104577621849
 30
0.0
 11
6583.493805508962
 21
3146.771244288516
 31
0.0
 12
6543.493805508963
 22
3153.437910955183
 32
0.0
 13
6543.493805508963
 23
3153.437910955183
 33
0.0
  0
MTEXT
  5
2417
330
22CE
100
AcDbEntity
  8
DIM
 62
     0
100
AcDbMText
 10
6908.493805508962
 20
3188.437910955183
 30
0.0
 40
40.0
 41
0.0
 71
     5
 72
     1
  1
730
 73
     1
 44
1.0
  0
POINT
  5
2418
330
22CE
100
AcDbEntity
  8
Defpoints
 62
     0
100
AcDbPoint
 10
7273.493805508962
 20
3613.437910955183
 30
0.0
  0
POINT
  5
2419
330
22CE
100
AcDbEntity
  8
Defpoints
 62
     0
100
AcDbPoint
 10
6543.493805508963
 20
3613.437910955183
 30
0.0
  0
POINT
  5
241A
330
22CE
100
AcDbEntity
  8
Defpoints
 62
     0
100
AcDbPoint
 10
6543.493805508963
 20
3153.437910955183
 30
0.0
  0
ENDBLK
  5
22D9
330
22CE
100
AcDbEntity
  8
0
100
AcDbBlockEnd
  0
BLOCK
  5
22E4
330
22DA
100
AcDbEntity
  8
0
100
AcDbBlockBegin
  2
*D82
 70
     1
 10
0.0
 20
0.0
 30
0.0
  3
*D82
  1

  0
LINE
  5
2409
330
22DA
100
AcDbEntity
  8
DIM
 62
     0
370
    -2
100
AcDbLine
 10
7208.493805508962
 20
3643.437910955183
 30
0.0
 11
7208.493805508962
 21
3273.437910955183
 31
0.0
  0
LINE
  5
240A
330
22DA
100
AcDbEntity
  8
DIM
 62
     0
370
    -2
100
AcDbLine
 10
6608.493805508962
 20
3643.437910955183
 30
0.0
 11
6608.493805508962
 21
3273.437910955183
 31
0.0
  0
LINE
  5
240B
330
22DA
100
AcDbEntity
  8
DIM
 62
     0
370
    -2
100
AcDbLine
 10
7168.493805508963
 20
3303.437910955183
 30
0.0
 11
6648.493805508962
 21
3303.437910955183
 31
0.0
  0
SOLID
  5
240C
330
22DA
100
AcDbEntity
  8
DIM
 62
     0
100
AcDbTrace
 10
7168.493805508963
 20
3310.104577621849
 30
0.0
 11
7168.493805508963
 21
3296.771244288517
 31
0.0
 12
7208.493805508962
 22
3303.437910955183
 32
0.0
 13
7208.493805508962
 23
3303.437910955183
 33
0.0
  0
SOLID
  5
240D
330
22DA
100
AcDbEntity
  8
DIM
 62
     0
100
AcDbTrace
 10
6648.493805508962
 20
3310.104577621849
 30
0.0
 11
6648.493805508962
 21
3296.771244288517
 31
0.0
 12
6608.493805508962
 22
3303.437910955183
 32
0.0
 13
6608.493805508962
 23
3303.437910955183
 33
0.0
  0
MTEXT
  5
240E
330
22DA
100
AcDbEntity
  8
DIM
 62
     0
100
AcDbMText
 10
6908.493805508962
 20
3338.437910955183
 30
0.0
 40
40.0
 41
0.0
 71
     5
 72
     1
  1
600
 73
     1
 44
1.0
  0
POINT
  5
240F
330
22DA
100
AcDbEntity
  8
Defpoints
 62
     0
100
AcDbPoint
 10
7208.493805508962
 20
3713.437910955183
 30
0.0
  0
POINT
  5
2410
330
22DA
100
AcDbEntity
  8
Defpoints
 62
     0
100
AcDbPoint
 10
6608.493805508962
 20
3713.437910955183
 30
0.0
  0
POINT
  5
2411
330
22DA
100
AcDbEntity
  8
Defpoints
 62
     0
100
AcDbPoint
 10
6608.493805508962
 20
3303.437910955183
 30
0.0
  0
ENDBLK
  5
22E5
330
22DA
100
AcDbEntity
  8
0
100
AcDbBlockEnd
  0
BLOCK
  5
22F0
330
22E6
100
AcDbEntity
  8
0
100
AcDbBlockBegin
  2
*D83
 70
     1
 10
0.0
 20
0.0
 30
0.0
  3
*D83
  1

  0
LINE
  5
2400
330
22E6
100
AcDbEntity
  8
NO
 62
     0
370
    -2
100
AcDbLine
 10
7108.493805508962
 20
3663.437910955183
 30
0.0
 11
7108.493805508962
 21
3423.437910955183
 31
0.0
  0
LINE
  5
2401
330
22E6
100
AcDbEntity
  8
NO
 62
     0
370
    -2
100
AcDbLine
 10
6708.493805508962
 20
3663.437910955183
 30
0.0
 11
6708.493805508962
 21
3423.437910955183
 31
0.0
  0
LINE
  5
2402
330
22E6
100
AcDbEntity
  8
NO
 62
     0
370
    -2
100
AcDbLine
 10
7068.493805508963
 20
3453.437910955183
 30
0.0
 11
6748.493805508963
 21
3453.437910955183
 31
0.0
  0
SOLID
  5
2403
330
22E6
100
AcDbEntity
  8
NO
 62
     0
100
AcDbTrace
 10
7068.493805508963
 20
3460.104577621849
 30
0.0
 11
7068.493805508963
 21
3446.771244288516
 31
0.0
 12
7108.493805508962
 22
3453.437910955183
 32
0.0
 13
7108.493805508962
 23
3453.437910955183
 33
0.0
  0
SOLID
  5
2404
330
22E6
100
AcDbEntity
  8
NO
 62
     0
100
AcDbTrace
 10
6748.493805508963
 20
3460.104577621849
 30
0.0
 11
6748.493805508963
 21
3446.771244288516
 31
0.0
 12
6708.493805508962
 22
3453.437910955183
 32
0.0
 13
6708.493805508962
 23
3453.437910955183
 33
0.0
  0
MTEXT
  5
2405
330
22E6
100
AcDbEntity
  8
NO
 62
     0
100
AcDbMText
 10
6908.493805508962
 20
3488.437910955183
 30
0.0
 40
40.0
 41
0.0
 71
     5
 72
     1
  1
400
 73
     1
 44
1.0
  0
POINT
  5
2406
330
22E6
100
AcDbEntity
  8
Defpoints
 62
     0
100
AcDbPoint
 10
7108.493805508962
 20
3733.437910955183
 30
0.0
  0
POINT
  5
2407
330
22E6
100
AcDbEntity
  8
Defpoints
 62
     0
100
AcDbPoint
 10
6708.493805508962
 20
3733.437910955183
 30
0.0
  0
POINT
  5
2408
330
22E6
100
AcDbEntity
  8
Defpoints
 62
     0
100
AcDbPoint
 10
6708.493805508962
 20
3453.437910955183
 30
0.0
  0
ENDBLK
  5
22F1
330
22E6
100
AcDbEntity
  8
0
100
AcDbBlockEnd
  0
BLOCK
  5
22FC
330
22F2
100
AcDbEntity
  8
0
100
AcDbBlockBegin
  2
*D84
 70
     1
 10
0.0
 20
0.0
 30
0.0
  3
*D84
  1

  0
LINE
  5
23F7
330
22F2
100
AcDbEntity
  8
DIM
 62
     0
370
    -2
100
AcDbLine
 10
7333.493805508962
 20
3603.437910955183
 30
0.0
 11
7753.493805508963
 21
3603.437910955183
 31
0.0
  0
LINE
  5
23F8
330
22F2
100
AcDbEntity
  8
DIM
 62
     0
370
    -2
100
AcDbLine
 10
7343.493805508963
 20
4133.437910955183
 30
0.0
 11
7753.493805508963
 21
4133.437910955183
 31
0.0
  0
LINE
  5
23F9
330
22F2
100
AcDbEntity
  8
DIM
 62
     0
370
    -2
100
AcDbLine
 10
7723.493805508963
 20
3643.437910955183
 30
0.0
 11
7723.493805508963
 21
4093.437910955183
 31
0.0
  0
SOLID
  5
23FA
330
22F2
100
AcDbEntity
  8
DIM
 62
     0
100
AcDbTrace
 10
7716.827138842295
 20
3643.437910955183
 30
0.0
 11
7730.160472175629
 21
3643.437910955183
 31
0.0
 12
7723.493805508963
 22
3603.437910955183
 32
0.0
 13
7723.493805508963
 23
3603.437910955183
 33
0.0
  0
SOLID
  5
23FB
330
22F2
100
AcDbEntity
  8
DIM
 62
     0
100
AcDbTrace
 10
7716.827138842295
 20
4093.437910955183
 30
0.0
 11
7730.160472175629
 21
4093.437910955183
 31
0.0
 12
7723.493805508963
 22
4133.437910955183
 32
0.0
 13
7723.493805508963
 23
4133.437910955183
 33
0.0
  0
MTEXT
  5
23FC
330
22F2
100
AcDbEntity
  8
DIM
 62
     0
100
AcDbMText
 10
7688.493805508961
 20
3868.437910955184
 30
0.0
 40
40.0
 41
0.0
 71
     5
 72
     1
  1
530
 11
0.0000000000000001
 21
1.0
 31
0.0
 73
     1
 44
1.0
  0
POINT
  5
23FD
330
22F2
100
AcDbEntity
  8
Defpoints
 62
     0
100
AcDbPoint
 10
7263.493805508962
 20
3603.437910955183
 30
0.0
  0
POINT
  5
23FE
330
22F2
100
AcDbEntity
  8
Defpoints
 62
     0
100
AcDbPoint
 10
7273.493805508962
 20
4133.437910955183
 30
0.0
  0
POINT
  5
23FF
330
22F2
100
AcDbEntity
  8
Defpoints
 62
     0
100
AcDbPoint
 10
7723.493805508963
 20
4133.437910955183
 30
0.0
  0
ENDBLK
  5
22FD
330
22F2
100
AcDbEntity
  8
0
100
AcDbBlockEnd
  0
BLOCK
  5
2309
330
22FE
100
AcDbEntity
  8
0
100
AcDbBlockBegin
  2
*D85
 70
     1
 10
0.0
 20
0.0
 30
0.0
  3
*D85
  1

  0
LINE
  5
23ED
330
22FE
100
AcDbEntity
  8
DIM
 62
     0
370
    -2
100
AcDbLine
 10
7218.493805508963
 20
3683.437910955183
 30
0.0
 11
7603.493805508962
 21
3683.437910955183
 31
0.0
  0
LINE
  5
23EE
330
22FE
100
AcDbEntity
  8
DIM
 62
     0
370
    -2
100
AcDbLine
 10
7333.493805508962
 20
3603.437910955183
 30
0.0
 11
7603.493805508962
 21
3603.437910955183
 31
0.0
  0
LINE
  5
23EF
330
22FE
100
AcDbEntity
  8
DIM
 62
     0
370
    -2
100
AcDbLine
 10
7573.493805508963
 20
3723.437910955182
 30
0.0
 11
7573.493805508963
 21
3763.437910955182
 31
0.0
  0
LINE
  5
23F0
330
22FE
100
AcDbEntity
  8
DIM
 62
     0
370
    -2
100
AcDbLine
 10
7573.493805508963
 20
3563.437910955183
 30
0.0
 11
7573.493805508963
 21
3523.437910955183
 31
0.0
  0
SOLID
  5
23F1
330
22FE
100
AcDbEntity
  8
DIM
 62
     0
100
AcDbTrace
 10
7566.827138842295
 20
3723.437910955182
 30
0.0
 11
7580.160472175629
 21
3723.437910955182
 31
0.0
 12
7573.493805508963
 22
3683.437910955183
 32
0.0
 13
7573.493805508963
 23
3683.437910955183
 33
0.0
  0
SOLID
  5
23F2
330
22FE
100
AcDbEntity
  8
DIM
 62
     0
100
AcDbTrace
 10
7566.827138842295
 20
3563.437910955183
 30
0.0
 11
7580.160472175629
 21
3563.437910955183
 31
0.0
 12
7573.493805508963
 22
3603.437910955183
 32
0.0
 13
7573.493805508963
 23
3603.437910955183
 33
0.0
  0
MTEXT
  5
23F3
330
22FE
100
AcDbEntity
  8
DIM
 62
     0
100
AcDbMText
 10
7538.493805508962
 20
3643.437910955184
 30
0.0
 40
40.0
 41
0.0
 71
     5
 72
     1
  1
80
 11
0.0000000000000001
 21
1.0
 31
0.0
 73
     1
 44
1.0
  0
POINT
  5
23F4
330
22FE
100
AcDbEntity
  8
Defpoints
 62
     0
100
AcDbPoint
 10
7148.493805508962
 20
3683.437910955183
 30
0.0
  0
POINT
  5
23F5
330
22FE
100
AcDbEntity
  8
Defpoints
 62
     0
100
AcDbPoint
 10
7263.493805508962
 20
3603.437910955183
 30
0.0
  0
POINT
  5
23F6
330
22FE
100
AcDbEntity
  8
Defpoints
 62
     0
100
AcDbPoint
 10
7573.493805508963
 20
3603.437910955183
 30
0.0
  0
ENDBLK
  5
230A
330
22FE
100
AcDbEntity
  8
0
100
AcDbBlockEnd
  0
BLOCK
  5
2315
330
230B
100
AcDbEntity
  8
0
100
AcDbBlockBegin
  2
*D86
 70
     1
 10
0.0
 20
0.0
 30
0.0
  3
*D86
  1

  0
LINE
  5
23E4
330
230B
100
AcDbEntity
  8
DIM
 62
     0
370
    -2
100
AcDbLine
 10
7218.493805508963
 20
3683.437910955183
 30
0.0
 11
7603.493805508962
 21
3683.437910955183
 31
0.0
  0
LINE
  5
23E5
330
230B
100
AcDbEntity
  8
DIM
 62
     0
370
    -2
100
AcDbLine
 10
7343.493805508963
 20
4133.437910955183
 30
0.0
 11
7603.493805508962
 21
4133.437910955183
 31
0.0
  0
LINE
  5
23E6
330
230B
100
AcDbEntity
  8
DIM
 62
     0
370
    -2
100
AcDbLine
 10
7573.493805508963
 20
3723.437910955182
 30
0.0
 11
7573.493805508963
 21
4093.437910955183
 31
0.0
  0
SOLID
  5
23E7
330
230B
100
AcDbEntity
  8
DIM
 62
     0
100
AcDbTrace
 10
7566.827138842295
 20
3723.437910955182
 30
0.0
 11
7580.160472175629
 21
3723.437910955182
 31
0.0
 12
7573.493805508963
 22
3683.437910955183
 32
0.0
 13
7573.493805508963
 23
3683.437910955183
 33
0.0
  0
SOLID
  5
23E8
330
230B
100
AcDbEntity
  8
DIM
 62
     0
100
AcDbTrace
 10
7566.827138842295
 20
4093.437910955183
 30
0.0
 11
7580.160472175629
 21
4093.437910955183
 31
0.0
 12
7573.493805508963
 22
4133.437910955183
 32
0.0
 13
7573.493805508963
 23
4133.437910955183
 33
0.0
  0
MTEXT
  5
23E9
330
230B
100
AcDbEntity
  8
DIM
 62
     0
100
AcDbMText
 10
7538.493805508962
 20
3908.437910955184
 30
0.0
 40
40.0
 41
0.0
 71
     5
 72
     1
  1
450
 11
0.0000000000000001
 21
1.0
 31
0.0
 73
     1
 44
1.0
  0
POINT
  5
23EA
330
230B
100
AcDbEntity
  8
Defpoints
 62
     0
100
AcDbPoint
 10
7148.493805508962
 20
3683.437910955183
 30
0.0
  0
POINT
  5
23EB
330
230B
100
AcDbEntity
  8
Defpoints
 62
     0
100
AcDbPoint
 10
7273.493805508962
 20
4133.437910955183
 30
0.0
  0
POINT
  5
23EC
330
230B
100
AcDbEntity
  8
Defpoints
 62
     0
100
AcDbPoint
 10
7573.493805508963
 20
4133.437910955183
 30
0.0
  0
ENDBLK
  5
2316
330
230B
100
AcDbEntity
  8
0
100
AcDbBlockEnd
  0
BLOCK
  5
2321
330
2317
100
AcDbEntity
  8
0
100
AcDbBlockBegin
  2
*D87
 70
     1
 10
0.0
 20
0.0
 30
0.0
  3
*D87
  1

  0
LINE
  5
23DB
330
2317
100
AcDbEntity
  8
NO
 62
     0
370
    -2
100
AcDbLine
 10
7323.493805508963
 20
3733.437910955183
 30
0.0
 11
7453.493805508964
 21
3733.437910955183
 31
0.0
  0
LINE
  5
23DC
330
2317
100
AcDbEntity
  8
NO
 62
     0
370
    -2
100
AcDbLine
 10
7333.493805508962
 20
3603.437910955183
 30
0.0
 11
7453.493805508964
 21
3603.437910955183
 31
0.0
  0
LINE
  5
23DD
330
2317
100
AcDbEntity
  8
NO
 62
     0
370
    -2
100
AcDbLine
 10
7423.493805508963
 20
3693.437910955183
 30
0.0
 11
7423.493805508963
 21
3643.437910955183
 31
0.0
  0
SOLID
  5
23DE
330
2317
100
AcDbEntity
  8
NO
 62
     0
100
AcDbTrace
 10
7416.827138842297
 20
3693.437910955183
 30
0.0
 11
7430.16047217563
 21
3693.437910955183
 31
0.0
 12
7423.493805508963
 22
3733.437910955183
 32
0.0
 13
7423.493805508963
 23
3733.437910955183
 33
0.0
  0
SOLID
  5
23DF
330
2317
100
AcDbEntity
  8
NO
 62
     0
100
AcDbTrace
 10
7416.827138842297
 20
3643.437910955183
 30
0.0
 11
7430.16047217563
 21
3643.437910955183
 31
0.0
 12
7423.493805508963
 22
3603.437910955183
 32
0.0
 13
7423.493805508963
 23
3603.437910955183
 33
0.0
  0
MTEXT
  5
23E0
330
2317
100
AcDbEntity
  8
NO
 62
     0
100
AcDbMText
 10
7388.493805508962
 20
3674.006160761076
 30
0.0
 40
40.0
 41
0.0
 71
     5
 72
     1
  1
130
 11
0.0000000000000001
 21
1.0
 31
0.0
 73
     1
 44
1.0
  0
POINT
  5
23E1
330
2317
100
AcDbEntity
  8
Defpoints
 62
     0
100
AcDbPoint
 10
7253.493805508963
 20
3733.437910955183
 30
0.0
  0
POINT
  5
23E2
330
2317
100
AcDbEntity
  8
Defpoints
 62
     0
100
AcDbPoint
 10
7263.493805508962
 20
3603.437910955183
 30
0.0
  0
POINT
  5
23E3
330
2317
100
AcDbEntity
  8
Defpoints
 62
     0
100
AcDbPoint
 10
7423.493805508963
 20
3603.437910955183
 30
0.0
  0
ENDBLK
  5
2322
330
2317
100
AcDbEntity
  8
0
100
AcDbBlockEnd
  0
BLOCK
  5
232D
330
2323
100
AcDbEntity
  8
0
100
AcDbBlockBegin
  2
*D88
 70
     1
 10
0.0
 20
0.0
 30
0.0
  3
*D88
  1

  0
LINE
  5
23D2
330
2323
100
AcDbEntity
  8
NO
 62
     0
370
    -2
100
AcDbLine
 10
7323.493805508963
 20
4033.437910955182
 30
0.0
 11
7453.493805508962
 21
4033.437910955182
 31
0.0
  0
LINE
  5
23D3
330
2323
100
AcDbEntity
  8
NO
 62
     0
370
    -2
100
AcDbLine
 10
7323.493805508963
 20
3733.437910955183
 30
0.0
 11
7453.493805508962
 21
3733.437910955183
 31
0.0
  0
LINE
  5
23D4
330
2323
100
AcDbEntity
  8
NO
 62
     0
370
    -2
100
AcDbLine
 10
7423.493805508963
 20
3993.437910955183
 30
0.0
 11
7423.493805508963
 21
3773.437910955183
 31
0.0
  0
SOLID
  5
23D5
330
2323
100
AcDbEntity
  8
NO
 62
     0
100
AcDbTrace
 10
7416.827138842295
 20
3993.437910955183
 30
0.0
 11
7430.160472175629
 21
3993.437910955183
 31
0.0
 12
7423.493805508963
 22
4033.437910955182
 32
0.0
 13
7423.493805508963
 23
4033.437910955182
 33
0.0
  0
SOLID
  5
23D6
330
2323
100
AcDbEntity
  8
NO
 62
     0
100
AcDbTrace
 10
7416.827138842295
 20
3773.437910955183
 30
0.0
 11
7430.160472175629
 21
3773.437910955183
 31
0.0
 12
7423.493805508963
 22
3733.437910955183
 32
0.0
 13
7423.493805508963
 23
3733.437910955183
 33
0.0
  0
MTEXT
  5
23D7
330
2323
100
AcDbEntity
  8
NO
 62
     0
100
AcDbMText
 10
7388.493805508962
 20
3883.437910955184
 30
0.0
 40
40.0
 41
0.0
 71
     5
 72
     1
  1
300
 11
0.0000000000000001
 21
1.0
 31
0.0
 73
     1
 44
1.0
  0
POINT
  5
23D8
330
2323
100
AcDbEntity
  8
Defpoints
 62
     0
100
AcDbPoint
 10
7253.493805508963
 20
4033.437910955182
 30
0.0
  0
POINT
  5
23D9
330
2323
100
AcDbEntity
  8
Defpoints
 62
     0
100
AcDbPoint
 10
7253.493805508963
 20
3733.437910955183
 30
0.0
  0
POINT
  5
23DA
330
2323
100
AcDbEntity
  8
Defpoints
 62
     0
100
AcDbPoint
 10
7423.493805508963
 20
3733.437910955183
 30
0.0
  0
ENDBLK
  5
232E
330
2323
100
AcDbEntity
  8
0
100
AcDbBlockEnd
  0
BLOCK
  5
233A
330
232F
100
AcDbEntity
  8
0
100
AcDbBlockBegin
  2
*D89
 70
     1
 10
0.0
 20
0.0
 30
0.0
  3
*D89
  1

  0
LINE
  5
23C8
330
232F
100
AcDbEntity
  8
NO
 62
     0
370
    -2
100
AcDbLine
 10
7323.493805508963
 20
4033.437910955182
 30
0.0
 11
7453.493805508962
 21
4033.437910955182
 31
0.0
  0
LINE
  5
23C9
330
232F
100
AcDbEntity
  8
NO
 62
     0
370
    -2
100
AcDbLine
 10
7343.493805508963
 20
4133.437910955183
 30
0.0
 11
7453.493805508962
 21
4133.437910955183
 31
0.0
  0
LINE
  5
23CA
330
232F
100
AcDbEntity
  8
NO
 62
     0
370
    -2
100
AcDbLine
 10
7423.493805508963
 20
3993.437910955183
 30
0.0
 11
7423.493805508963
 21
3953.437910955183
 31
0.0
  0
LINE
  5
23CB
330
232F
100
AcDbEntity
  8
NO
 62
     0
370
    -2
100
AcDbLine
 10
7423.493805508963
 20
4173.437910955183
 30
0.0
 11
7423.493805508963
 21
4213.437910955183
 31
0.0
  0
SOLID
  5
23CC
330
232F
100
AcDbEntity
  8
NO
 62
     0
100
AcDbTrace
 10
7416.827138842295
 20
3993.437910955183
 30
0.0
 11
7430.160472175629
 21
3993.437910955183
 31
0.0
 12
7423.493805508963
 22
4033.437910955182
 32
0.0
 13
7423.493805508963
 23
4033.437910955182
 33
0.0
  0
SOLID
  5
23CD
330
232F
100
AcDbEntity
  8
NO
 62
     0
100
AcDbTrace
 10
7416.827138842295
 20
4173.437910955183
 30
0.0
 11
7430.160472175629
 21
4173.437910955183
 31
0.0
 12
7423.493805508963
 22
4133.437910955183
 32
0.0
 13
7423.493805508963
 23
4133.437910955183
 33
0.0
  0
MTEXT
  5
23CE
330
232F
100
AcDbEntity
  8
NO
 62
     0
100
AcDbMText
 10
7388.493805508962
 20
4083.437910955184
 30
0.0
 40
40.0
 41
0.0
 71
     5
 72
     1
  1
100
 11
0.0000000000000001
 21
1.0
 31
0.0
 73
     1
 44
1.0
  0
POINT
  5
23CF
330
232F
100
AcDbEntity
  8
Defpoints
 62
     0
100
AcDbPoint
 10
7253.493805508963
 20
4033.437910955182
 30
0.0
  0
POINT
  5
23D0
330
232F
100
AcDbEntity
  8
Defpoints
 62
     0
100
AcDbPoint
 10
7273.493805508962
 20
4133.437910955183
 30
0.0
  0
POINT
  5
23D1
330
232F
100
AcDbEntity
  8
Defpoints
 62
     0
100
AcDbPoint
 10
7423.493805508963
 20
4133.437910955183
 30
0.0
  0
ENDBLK
  5
233B
330
232F
100
AcDbEntity
  8
0
100
AcDbBlockEnd
  0
BLOCK
  5
2514
330
250A
100
AcDbEntity
  8
0
100
AcDbBlockBegin
  2
*D99
 70
     1
 10
0.0
 20
0.0
 30
0.0
  3
*D99
  1

  0
LINE
  5
2602
330
250A
100
AcDbEntity
  8
DIM
 62
     0
370
    -2
100
AcDbLine
 10
7403.493805508962
 20
4663.437910955183
 30
0.0
 11
7753.493805508963
 21
4663.437910955183
 31
0.0
  0
LINE
  5
2603
330
250A
100
AcDbEntity
  8
DIM
 62
     0
370
    -2
100
AcDbLine
 10
7343.493805508963
 20
4133.437910955183
 30
0.0
 11
7753.493805508963
 21
4133.437910955183
 31
0.0
  0
LINE
  5
2604
330
250A
100
AcDbEntity
  8
DIM
 62
     0
370
    -2
100
AcDbLine
 10
7723.493805508963
 20
4623.437910955183
 30
0.0
 11
7723.493805508963
 21
4173.437910955183
 31
0.0
  0
SOLID
  5
2605
330
250A
100
AcDbEntity
  8
DIM
 62
     0
100
AcDbTrace
 10
7716.827138842295
 20
4623.437910955183
 30
0.0
 11
7730.160472175629
 21
4623.437910955183
 31
0.0
 12
7723.493805508963
 22
4663.437910955183
 32
0.0
 13
7723.493805508963
 23
4663.437910955183
 33
0.0
  0
SOLID
  5
2606
330
250A
100
AcDbEntity
  8
DIM
 62
     0
100
AcDbTrace
 10
7716.827138842295
 20
4173.437910955183
 30
0.0
 11
7730.160472175629
 21
4173.437910955183
 31
0.0
 12
7723.493805508963
 22
4133.437910955183
 32
0.0
 13
7723.493805508963
 23
4133.437910955183
 33
0.0
  0
MTEXT
  5
2607
330
250A
100
AcDbEntity
  8
DIM
 62
     0
100
AcDbMText
 10
7688.493805508961
 20
4398.437910955183
 30
0.0
 40
40.0
 41
0.0
 71
     5
 72
     1
  1
530
 11
0.0000000000000001
 21
1.0
 31
0.0
 73
     1
 44
1.0
  0
POINT
  5
2608
330
250A
100
AcDbEntity
  8
Defpoints
 62
     0
100
AcDbPoint
 10
7333.493805508962
 20
4663.437910955183
 30
0.0
  0
POINT
  5
2609
330
250A
100
AcDbEntity
  8
Defpoints
 62
     0
100
AcDbPoint
 10
7273.493805508962
 20
4133.437910955183
 30
0.0
  0
POINT
  5
260A
330
250A
100
AcDbEntity
  8
Defpoints
 62
     0
100
AcDbPoint
 10
7723.493805508963
 20
4133.437910955183
 30
0.0
  0
ENDBLK
  5
2515
330
250A
100
AcDbEntity
  8
0
100
AcDbBlockEnd
  0
BLOCK
  5
2521
330
2516
100
AcDbEntity
  8
0
100
AcDbBlockBegin
  2
*D100
 70
     1
 10
0.0
 20
0.0
 30
0.0
  3
*D100
  1

  0
LINE
  5
25F8
330
2516
100
AcDbEntity
  8
DIM
 62
     0
370
    -2
100
AcDbLine
 10
7403.493805508962
 20
4663.437910955183
 30
0.0
 11
7603.493805508962
 21
4663.437910955183
 31
0.0
  0
LINE
  5
25F9
330
2516
100
AcDbEntity
  8
DIM
 62
     0
370
    -2
100
AcDbLine
 10
7278.138355271996
 20
4583.437910955182
 30
0.0
 11
7603.493805508962
 21
4583.437910955182
 31
0.0
  0
LINE
  5
25FA
330
2516
100
AcDbEntity
  8
DIM
 62
     0
370
    -2
100
AcDbLine
 10
7573.493805508963
 20
4703.437910955183
 30
0.0
 11
7573.493805508963
 21
4743.437910955182
 31
0.0
  0
LINE
  5
25FB
330
2516
100
AcDbEntity
  8
DIM
 62
     0
370
    -2
100
AcDbLine
 10
7573.493805508963
 20
4543.437910955183
 30
0.0
 11
7573.493805508963
 21
4503.437910955183
 31
0.0
  0
SOLID
  5
25FC
330
2516
100
AcDbEntity
  8
DIM
 62
     0
100
AcDbTrace
 10
7566.827138842295
 20
4703.437910955183
 30
0.0
 11
7580.160472175629
 21
4703.437910955183
 31
0.0
 12
7573.493805508963
 22
4663.437910955183
 32
0.0
 13
7573.493805508963
 23
4663.437910955183
 33
0.0
  0
SOLID
  5
25FD
330
2516
100
AcDbEntity
  8
DIM
 62
     0
100
AcDbTrace
 10
7566.827138842295
 20
4543.437910955183
 30
0.0
 11
7580.160472175629
 21
4543.437910955183
 31
0.0
 12
7573.493805508963
 22
4583.437910955182
 32
0.0
 13
7573.493805508963
 23
4583.437910955182
 33
0.0
  0
MTEXT
  5
25FE
330
2516
100
AcDbEntity
  8
DIM
 62
     0
100
AcDbMText
 10
7538.493805508962
 20
4623.437910955184
 30
0.0
 40
40.0
 41
0.0
 71
     5
 72
     1
  1
80
 11
0.0000000000000001
 21
1.0
 31
0.0
 73
     1
 44
1.0
  0
POINT
  5
25FF
330
2516
100
AcDbEntity
  8
Defpoints
 62
     0
100
AcDbPoint
 10
7333.493805508962
 20
4663.437910955183
 30
0.0
  0
POINT
  5
2600
330
2516
100
AcDbEntity
  8
Defpoints
 62
     0
100
AcDbPoint
 10
7208.138355271997
 20
4583.437910955182
 30
0.0
  0
POINT
  5
2601
330
2516
100
AcDbEntity
  8
Defpoints
 62
     0
100
AcDbPoint
 10
7573.493805508963
 20
4583.437910955182
 30
0.0
  0
ENDBLK
  5
2522
330
2516
100
AcDbEntity
  8
0
100
AcDbBlockEnd
  0
BLOCK
  5
252D
330
2523
100
AcDbEntity
  8
0
100
AcDbBlockBegin
  2
*D101
 70
     1
 10
0.0
 20
0.0
 30
0.0
  3
*D101
  1

  0
LINE
  5
25EF
330
2523
100
AcDbEntity
  8
DIM
 62
     0
370
    -2
100
AcDbLine
 10
7278.138355271996
 20
4583.437910955182
 30
0.0
 11
7603.493805508962
 21
4583.437910955182
 31
0.0
  0
LINE
  5
25F0
330
2523
100
AcDbEntity
  8
DIM
 62
     0
370
    -2
100
AcDbLine
 10
7343.493805508963
 20
4133.437910955183
 30
0.0
 11
7603.493805508962
 21
4133.437910955183
 31
0.0
  0
LINE
  5
25F1
330
2523
100
AcDbEntity
  8
DIM
 62
     0
370
    -2
100
AcDbLine
 10
7573.493805508963
 20
4543.437910955183
 30
0.0
 11
7573.493805508963
 21
4173.437910955183
 31
0.0
  0
SOLID
  5
25F2
330
2523
100
AcDbEntity
  8
DIM
 62
     0
100
AcDbTrace
 10
7566.827138842295
 20
4543.437910955183
 30
0.0
 11
7580.160472175629
 21
4543.437910955183
 31
0.0
 12
7573.493805508963
 22
4583.437910955182
 32
0.0
 13
7573.493805508963
 23
4583.437910955182
 33
0.0
  0
SOLID
  5
25F3
330
2523
100
AcDbEntity
  8
DIM
 62
     0
100
AcDbTrace
 10
7566.827138842295
 20
4173.437910955183
 30
0.0
 11
7580.160472175629
 21
4173.437910955183
 31
0.0
 12
7573.493805508963
 22
4133.437910955183
 32
0.0
 13
7573.493805508963
 23
4133.437910955183
 33
0.0
  0
MTEXT
  5
25F4
330
2523
100
AcDbEntity
  8
DIM
 62
     0
100
AcDbMText
 10
7538.493805508962
 20
4358.437910955184
 30
0.0
 40
40.0
 41
0.0
 71
     5
 72
     1
  1
450
 11
0.0000000000000001
 21
1.0
 31
0.0
 73
     1
 44
1.0
  0
POINT
  5
25F5
330
2523
100
AcDbEntity
  8
Defpoints
 62
     0
100
AcDbPoint
 10
7208.138355271997
 20
4583.437910955182
 30
0.0
  0
POINT
  5
25F6
330
2523
100
AcDbEntity
  8
Defpoints
 62
     0
100
AcDbPoint
 10
7273.493805508962
 20
4133.437910955183
 30
0.0
  0
POINT
  5
25F7
330
2523
100
AcDbEntity
  8
Defpoints
 62
     0
100
AcDbPoint
 10
7573.493805508963
 20
4133.437910955183
 30
0.0
  0
ENDBLK
  5
252E
330
2523
100
AcDbEntity
  8
0
100
AcDbBlockEnd
  0
BLOCK
  5
2539
330
252F
100
AcDbEntity
  8
0
100
AcDbBlockBegin
  2
*D102
 70
     1
 10
0.0
 20
0.0
 30
0.0
  3
*D102
  1

  0
LINE
  5
25E6
330
252F
100
AcDbEntity
  8
DIM
 62
     0
370
    -2
100
AcDbLine
 10
6473.493805508963
 20
4818.437910955182
 30
0.0
 11
6473.493805508963
 21
5093.437910955183
 31
0.0
  0
LINE
  5
25E7
330
252F
100
AcDbEntity
  8
DIM
 62
     0
370
    -2
100
AcDbLine
 10
7343.493805508963
 20
4818.437910955182
 30
0.0
 11
7343.493805508963
 21
5093.437910955183
 31
0.0
  0
LINE
  5
25E8
330
252F
100
AcDbEntity
  8
DIM
 62
     0
370
    -2
100
AcDbLine
 10
6513.493805508962
 20
5063.437910955183
 30
0.0
 11
7303.493805508963
 21
5063.437910955183
 31
0.0
  0
SOLID
  5
25E9
330
252F
100
AcDbEntity
  8
DIM
 62
     0
100
AcDbTrace
 10
6513.493805508962
 20
5070.10457762185
 30
0.0
 11
6513.493805508962
 21
5056.771244288515
 31
0.0
 12
6473.493805508963
 22
5063.437910955183
 32
0.0
 13
6473.493805508963
 23
5063.437910955183
 33
0.0
  0
SOLID
  5
25EA
330
252F
100
AcDbEntity
  8
DIM
 62
     0
100
AcDbTrace
 10
7303.493805508963
 20
5070.10457762185
 30
0.0
 11
7303.493805508963
 21
5056.771244288515
 31
0.0
 12
7343.493805508963
 22
5063.437910955183
 32
0.0
 13
7343.493805508963
 23
5063.437910955183
 33
0.0
  0
MTEXT
  5
25EB
330
252F
100
AcDbEntity
  8
DIM
 62
     0
100
AcDbMText
 10
6908.493805508962
 20
5098.437910955183
 30
0.0
 40
40.0
 41
0.0
 71
     5
 72
     1
  1
870
 73
     1
 44
1.0
  0
POINT
  5
25EC
330
252F
100
AcDbEntity
  8
Defpoints
 62
     0
100
AcDbPoint
 10
6473.493805508963
 20
4748.437910955183
 30
0.0
  0
POINT
  5
25ED
330
252F
100
AcDbEntity
  8
Defpoints
 62
     0
100
AcDbPoint
 10
7343.493805508963
 20
4748.437910955183
 30
0.0
  0
POINT
  5
25EE
330
252F
100
AcDbEntity
  8
Defpoints
 62
     0
100
AcDbPoint
 10
7343.493805508963
 20
5063.437910955183
 30
0.0
  0
ENDBLK
  5
253A
330
252F
100
AcDbEntity
  8
0
100
AcDbBlockEnd
  0
BLOCK
  5
2545
330
253B
100
AcDbEntity
  8
0
100
AcDbBlockBegin
  2
*D103
 70
     1
 10
0.0
 20
0.0
 30
0.0
  3
*D103
  1

  0
LINE
  5
25DD
330
253B
100
AcDbEntity
  8
DIM
 62
     0
370
    -2
100
AcDbLine
 10
6608.493805508962
 20
4833.437910955183
 30
0.0
 11
6608.493805508962
 21
4943.437910955182
 31
0.0
  0
LINE
  5
25DE
330
253B
100
AcDbEntity
  8
DIM
 62
     0
370
    -2
100
AcDbLine
 10
6473.493805508963
 20
4818.437910955182
 30
0.0
 11
6473.493805508963
 21
4943.437910955182
 31
0.0
  0
LINE
  5
25DF
330
253B
100
AcDbEntity
  8
DIM
 62
     0
370
    -2
100
AcDbLine
 10
6568.493805508963
 20
4913.437910955183
 30
0.0
 11
6513.493805508962
 21
4913.437910955183
 31
0.0
  0
SOLID
  5
25E0
330
253B
100
AcDbEntity
  8
DIM
 62
     0
100
AcDbTrace
 10
6568.493805508963
 20
4920.10457762185
 30
0.0
 11
6568.493805508963
 21
4906.771244288516
 31
0.0
 12
6608.493805508962
 22
4913.437910955183
 32
0.0
 13
6608.493805508962
 23
4913.437910955183
 33
0.0
  0
SOLID
  5
25E1
330
253B
100
AcDbEntity
  8
DIM
 62
     0
100
AcDbTrace
 10
6513.493805508962
 20
4920.10457762185
 30
0.0
 11
6513.493805508962
 21
4906.771244288516
 31
0.0
 12
6473.493805508963
 22
4913.437910955183
 32
0.0
 13
6473.493805508963
 23
4913.437910955183
 33
0.0
  0
MTEXT
  5
25E2
330
253B
100
AcDbEntity
  8
DIM
 62
     0
100
AcDbMText
 10
6540.993805508962
 20
4948.437910955183
 30
0.0
 40
40.0
 41
0.0
 71
     5
 72
     1
  1
135
 73
     1
 44
1.0
  0
POINT
  5
25E3
330
253B
100
AcDbEntity
  8
Defpoints
 62
     0
100
AcDbPoint
 10
6608.493805508962
 20
4763.437910955182
 30
0.0
  0
POINT
  5
25E4
330
253B
100
AcDbEntity
  8
Defpoints
 62
     0
100
AcDbPoint
 10
6473.493805508963
 20
4748.437910955183
 30
0.0
  0
POINT
  5
25E5
330
253B
100
AcDbEntity
  8
Defpoints
 62
     0
100
AcDbPoint
 10
6473.493805508963
 20
4913.437910955183
 30
0.0
  0
ENDBLK
  5
2546
330
253B
100
AcDbEntity
  8
0
100
AcDbBlockEnd
  0
BLOCK
  5
2551
330
2547
100
AcDbEntity
  8
0
100
AcDbBlockBegin
  2
*D104
 70
     1
 10
0.0
 20
0.0
 30
0.0
  3
*D104
  1

  0
LINE
  5
25D4
330
2547
100
AcDbEntity
  8
DIM
 62
     0
370
    -2
100
AcDbLine
 10
6608.493805508962
 20
4833.437910955183
 30
0.0
 11
6608.493805508962
 21
4943.437910955182
 31
0.0
  0
LINE
  5
25D5
330
2547
100
AcDbEntity
  8
DIM
 62
     0
370
    -2
100
AcDbLine
 10
7208.493805508962
 20
4833.437910955183
 30
0.0
 11
7208.493805508962
 21
4943.437910955182
 31
0.0
  0
LINE
  5
25D6
330
2547
100
AcDbEntity
  8
DIM
 62
     0
370
    -2
100
AcDbLine
 10
6648.493805508962
 20
4913.437910955183
 30
0.0
 11
7168.493805508963
 21
4913.437910955183
 31
0.0
  0
SOLID
  5
25D7
330
2547
100
AcDbEntity
  8
DIM
 62
     0
100
AcDbTrace
 10
6648.493805508962
 20
4920.10457762185
 30
0.0
 11
6648.493805508962
 21
4906.771244288516
 31
0.0
 12
6608.493805508962
 22
4913.437910955183
 32
0.0
 13
6608.493805508962
 23
4913.437910955183
 33
0.0
  0
SOLID
  5
25D8
330
2547
100
AcDbEntity
  8
DIM
 62
     0
100
AcDbTrace
 10
7168.493805508963
 20
4920.10457762185
 30
0.0
 11
7168.493805508963
 21
4906.771244288516
 31
0.0
 12
7208.493805508962
 22
4913.437910955183
 32
0.0
 13
7208.493805508962
 23
4913.437910955183
 33
0.0
  0
MTEXT
  5
25D9
330
2547
100
AcDbEntity
  8
DIM
 62
     0
100
AcDbMText
 10
6920.248934990917
 20
4948.437910955183
 30
0.0
 40
40.0
 41
0.0
 71
     5
 72
     1
  1
600
 73
     1
 44
1.0
  0
POINT
  5
25DA
330
2547
100
AcDbEntity
  8
Defpoints
 62
     0
100
AcDbPoint
 10
6608.493805508962
 20
4763.437910955182
 30
0.0
  0
POINT
  5
25DB
330
2547
100
AcDbEntity
  8
Defpoints
 62
     0
100
AcDbPoint
 10
7208.493805508962
 20
4763.437910955182
 30
0.0
  0
POINT
  5
25DC
330
2547
100
AcDbEntity
  8
Defpoints
 62
     0
100
AcDbPoint
 10
7208.493805508962
 20
4913.437910955183
 30
0.0
  0
ENDBLK
  5
2552
330
2547
100
AcDbEntity
  8
0
100
AcDbBlockEnd
  0
BLOCK
  5
255D
330
2553
100
AcDbEntity
  8
0
100
AcDbBlockBegin
  2
*D105
 70
     1
 10
0.0
 20
0.0
 30
0.0
  3
*D105
  1

  0
LINE
  5
25CB
330
2553
100
AcDbEntity
  8
DIM
 62
     0
370
    -2
100
AcDbLine
 10
7208.493805508962
 20
4833.437910955183
 30
0.0
 11
7208.493805508962
 21
4943.437910955182
 31
0.0
  0
LINE
  5
25CC
330
2553
100
AcDbEntity
  8
DIM
 62
     0
370
    -2
100
AcDbLine
 10
7343.493805508963
 20
4818.437910955182
 30
0.0
 11
7343.493805508963
 21
4943.437910955182
 31
0.0
  0
LINE
  5
25CD
330
2553
100
AcDbEntity
  8
DIM
 62
     0
370
    -2
100
AcDbLine
 10
7248.493805508963
 20
4913.437910955183
 30
0.0
 11
7303.493805508963
 21
4913.437910955183
 31
0.0
  0
SOLID
  5
25CE
330
2553
100
AcDbEntity
  8
DIM
 62
     0
100
AcDbTrace
 10
7248.493805508963
 20
4920.10457762185
 30
0.0
 11
7248.493805508963
 21
4906.771244288516
 31
0.0
 12
7208.493805508962
 22
4913.437910955183
 32
0.0
 13
7208.493805508962
 23
4913.437910955183
 33
0.0
  0
SOLID
  5
25CF
330
2553
100
AcDbEntity
  8
DIM
 62
     0
100
AcDbTrace
 10
7303.493805508963
 20
4920.10457762185
 30
0.0
 11
7303.493805508963
 21
4906.771244288516
 31
0.0
 12
7343.493805508963
 22
4913.437910955183
 32
0.0
 13
7343.493805508963
 23
4913.437910955183
 33
0.0
  0
MTEXT
  5
25D0
330
2553
100
AcDbEntity
  8
DIM
 62
     0
100
AcDbMText
 10
7275.993805508962
 20
4948.437910955183
 30
0.0
 40
40.0
 41
0.0
 71
     5
 72
     1
  1
135
 73
     1
 44
1.0
  0
POINT
  5
25D1
330
2553
100
AcDbEntity
  8
Defpoints
 62
     0
100
AcDbPoint
 10
7208.493805508962
 20
4763.437910955182
 30
0.0
  0
POINT
  5
25D2
330
2553
100
AcDbEntity
  8
Defpoints
 62
     0
100
AcDbPoint
 10
7343.493805508963
 20
4748.437910955183
 30
0.0
  0
POINT
  5
25D3
330
2553
100
AcDbEntity
  8
Defpoints
 62
     0
100
AcDbPoint
 10
7343.493805508963
 20
4913.437910955183
 30
0.0
  0
ENDBLK
  5
255E
330
2553
100
AcDbEntity
  8
0
100
AcDbBlockEnd
  0
BLOCK
  5
2569
330
255F
100
AcDbEntity
  8
0
100
AcDbBlockBegin
  2
*D106
 70
     1
 10
0.0
 20
0.0
 30
0.0
  3
*D106
  1

  0
LINE
  5
2615
330
255F
100
AcDbEntity
  8
DIM
 62
     0
370
    -2
100
AcDbLine
 10
6675.874005614281
 20
4333.437910955182
 30
0.0
 11
6786.976718893601
 21
4333.437910955182
 31
0.0
  0
LINE
  5
2616
330
255F
100
AcDbEntity
  8
DIM
 62
     0
370
    -2
100
AcDbLine
 10
6675.874005614281
 20
4133.437910955183
 30
0.0
 11
6786.976718893601
 21
4133.437910955183
 31
0.0
  0
LINE
  5
2617
330
255F
100
AcDbEntity
  8
DIM
 62
     0
370
    -2
100
AcDbLine
 10
6756.9767188936
 20
4293.437910955183
 30
0.0
 11
6756.9767188936
 21
4173.437910955183
 31
0.0
  0
SOLID
  5
2618
330
255F
100
AcDbEntity
  8
DIM
 62
     0
100
AcDbTrace
 10
6750.310052226933
 20
4293.437910955183
 30
0.0
 11
6763.643385560268
 21
4293.437910955183
 31
0.0
 12
6756.9767188936
 22
4333.437910955182
 32
0.0
 13
6756.9767188936
 23
4333.437910955182
 33
0.0
  0
SOLID
  5
2619
330
255F
100
AcDbEntity
  8
DIM
 62
     0
100
AcDbTrace
 10
6750.310052226933
 20
4173.437910955183
 30
0.0
 11
6763.643385560268
 21
4173.437910955183
 31
0.0
 12
6756.9767188936
 22
4133.437910955183
 32
0.0
 13
6756.9767188936
 23
4133.437910955183
 33
0.0
  0
MTEXT
  5
261A
330
255F
100
AcDbEntity
  8
DIM
 62
     0
100
AcDbMText
 10
6721.972781885725
 20
4233.437910955184
 30
0.0
 40
40.0
 41
0.0
 71
     5
 72
     1
  1
200
 11
0.0000000000000001
 21
1.0
 31
0.0
 73
     1
 44
1.0
  0
POINT
  5
261B
330
255F
100
AcDbEntity
  8
Defpoints
 62
     0
100
AcDbPoint
 10
6605.874005614281
 20
4333.437910955182
 30
0.0
  0
POINT
  5
261C
330
255F
100
AcDbEntity
  8
Defpoints
 62
     0
100
AcDbPoint
 10
6605.874005614281
 20
4133.437910955183
 30
0.0
  0
POINT
  5
261D
330
255F
100
AcDbEntity
  8
Defpoints
 62
     0
100
AcDbPoint
 10
6756.9767188936
 20
4133.437910955183
 30
0.0
  0
ENDBLK
  5
256A
330
255F
100
AcDbEntity
  8
0
100
AcDbBlockEnd
  0
BLOCK
  5
2576
330
256B
100
AcDbEntity
  8
0
100
AcDbBlockBegin
  2
*D107
 70
     1
 10
0.0
 20
0.0
 30
0.0
  3
*D107
  1

  0
LINE
  5
260B
330
256B
100
AcDbEntity
  8
DIM
 62
     0
370
    -2
100
AcDbLine
 10
7403.493805508962
 20
4663.437910955183
 30
0.0
 11
7753.493805508963
 21
4663.437910955183
 31
0.0
  0
LINE
  5
260C
330
256B
100
AcDbEntity
  8
DIM
 62
     0
370
    -2
100
AcDbLine
 10
7398.493805508962
 20
4763.437910955182
 30
0.0
 11
7753.493805508963
 21
4763.437910955182
 31
0.0
  0
LINE
  5
260D
330
256B
100
AcDbEntity
  8
DIM
 62
     0
370
    -2
100
AcDbLine
 10
7723.493805508963
 20
4623.437910955183
 30
0.0
 11
7723.493805508963
 21
4583.437910955182
 31
0.0
  0
LINE
  5
260E
330
256B
100
AcDbEntity
  8
DIM
 62
     0
370
    -2
100
AcDbLine
 10
7723.493805508963
 20
4803.437910955183
 30
0.0
 11
7723.493805508963
 21
4843.437910955183
 31
0.0
  0
SOLID
  5
260F
330
256B
100
AcDbEntity
  8
DIM
 62
     0
100
AcDbTrace
 10
7716.827138842295
 20
4623.437910955183
 30
0.0
 11
7730.160472175629
 21
4623.437910955183
 31
0.0
 12
7723.493805508963
 22
4663.437910955183
 32
0.0
 13
7723.493805508963
 23
4663.437910955183
 33
0.0
  0
SOLID
  5
2610
330
256B
100
AcDbEntity
  8
DIM
 62
     0
100
AcDbTrace
 10
7716.827138842295
 20
4803.437910955183
 30
0.0
 11
7730.160472175629
 21
4803.437910955183
 31
0.0
 12
7723.493805508963
 22
4763.437910955182
 32
0.0
 13
7723.493805508963
 23
4763.437910955182
 33
0.0
  0
MTEXT
  5
2611
330
256B
100
AcDbEntity
  8
DIM
 62
     0
100
AcDbMText
 10
7688.493805508961
 20
4713.437910955184
 30
0.0
 40
40.0
 41
0.0
 71
     5
 72
     1
  1
100
 11
0.0000000000000001
 21
1.0
 31
0.0
 73
     1
 44
1.0
  0
POINT
  5
2612
330
256B
100
AcDbEntity
  8
Defpoints
 62
     0
100
AcDbPoint
 10
7333.493805508962
 20
4663.437910955183
 30
0.0
  0
POINT
  5
2613
330
256B
100
AcDbEntity
  8
Defpoints
 62
     0
100
AcDbPoint
 10
7328.493805508962
 20
4763.437910955182
 30
0.0
  0
POINT
  5
2614
330
256B
100
AcDbEntity
  8
Defpoints
 62
     0
100
AcDbPoint
 10
7723.493805508963
 20
4763.437910955182
 30
0.0
  0
ENDBLK
  5
2577
330
256B
100
AcDbEntity
  8
0
100
AcDbBlockEnd
  0
BLOCK
  5
2629
330
261F
100
AcDbEntity
  8
0
100
AcDbBlockBegin
  2
*D108
 70
     1
 10
0.0
 20
0.0
 30
0.0
  3
*D108
  1

  0
LINE
  5
2620
330
261F
100
AcDbEntity
  8
TXT
 62
     0
370
    -2
100
AcDbLine
 10
7398.493805508962
 20
4763.437910955182
 30
0.0
 11
7903.493805508962
 21
4763.437910955182
 31
0.0
  0
LINE
  5
2621
330
261F
100
AcDbEntity
  8
TXT
 62
     0
370
    -2
100
AcDbLine
 10
7333.493805508962
 20
3603.437910955183
 30
0.0
 11
7903.493805508962
 21
3603.437910955183
 31
0.0
  0
LINE
  5
2622
330
261F
100
AcDbEntity
  8
TXT
 62
     0
370
    -2
100
AcDbLine
 10
7873.493805508963
 20
4723.437910955182
 30
0.0
 11
7873.493805508963
 21
3643.437910955183
 31
0.0
  0
SOLID
  5
2623
330
261F
100
AcDbEntity
  8
TXT
 62
     0
100
AcDbTrace
 10
7866.827138842295
 20
4723.437910955182
 30
0.0
 11
7880.160472175629
 21
4723.437910955182
 31
0.0
 12
7873.493805508963
 22
4763.437910955182
 32
0.0
 13
7873.493805508963
 23
4763.437910955182
 33
0.0
  0
SOLID
  5
2624
330
261F
100
AcDbEntity
  8
TXT
 62
     0
100
AcDbTrace
 10
7866.827138842295
 20
3643.437910955183
 30
0.0
 11
7880.160472175629
 21
3643.437910955183
 31
0.0
 12
7873.493805508963
 22
3603.437910955183
 32
0.0
 13
7873.493805508963
 23
3603.437910955183
 33
0.0
  0
MTEXT
  5
2625
330
261F
100
AcDbEntity
  8
TXT
 62
     0
100
AcDbMText
 10
7838.493805508962
 20
4183.437910955183
 30
0.0
 40
40.0
 41
0.0
 71
     5
 72
     1
  1
1160
 11
0.0000000000000001
 21
1.0
 31
0.0
 73
     1
 44
1.0
  0
POINT
  5
2626
330
261F
100
AcDbEntity
  8
Defpoints
 62
     0
100
AcDbPoint
 10
7328.493805508962
 20
4763.437910955182
 30
0.0
  0
POINT
  5
2627
330
261F
100
AcDbEntity
  8
Defpoints
 62
     0
100
AcDbPoint
 10
7263.493805508962
 20
3603.437910955183
 30
0.0
  0
POINT
  5
2628
330
261F
100
AcDbEntity
  8
Defpoints
 62
     0
100
AcDbPoint
 10
7873.493805508963
 20
3603.437910955183
 30
0.0
  0
ENDBLK
  5
262A
330
261F
100
AcDbEntity
  8
0
100
AcDbBlockEnd
  0
ENDSEC
  0
SECTION
  2
ENTITIES
  0
TEXT
  5
658
330
1F
100
AcDbEntity
  8
TXT
 48
5.0
100
AcDbText
 10
5973.333333333333
 20
1270.0
 30
0.0
 40
100.0
  1
削孔数
 72
     4
 11
6140.0
 21
1320.0
 31
0.0
100
AcDbText
  0
TEXT
  5
659
330
1F
100
AcDbEntity
  8
TXT
 48
5.0
100
AcDbText
 10
5952.5
 20
1830.0
 30
0.0
 40
100.0
  1
製品No
 72
     4
 11
6140.0
 21
1880.0
 31
0.0
100
AcDbText
  0
TEXT
  5
65A
330
1F
100
AcDbEntity
  8
TXT
 48
5.0
100
AcDbText
 10
5976.666666666667
 20
1970.0
 30
0.0
 40
100.0
  1
工事名
 72
     4
 11
6140.0
 21
2020.0
 31
0.0
100
AcDbText
  0
TEXT
  5
65B
330
1F
100
AcDbEntity
  8
TXT
 48
5.0
100
AcDbText
 10
5976.666666666667
 20
2110.0
 30
0.0
 40
100.0
  1
業者名
 72
     4
 11
6140.0
 21
2160.0
 31
0.0
100
AcDbText
  0
TEXT
  5
65F
330
1F
100
AcDbEntity
  8
TXT
 48
5.0
100
AcDbText
 10
5973.333333333333
 20
1690.0
 30
0.0
 40
100.0
  1
蓋荷重
 72
     4
 11
6140.0
 21
1740.0
 31
0.0
100
AcDbText
  0
LWPOLYLINE
  5
660
330
1F
100
AcDbEntity
  8
TXT
100
AcDbPolyline
 90
        2
 70
     0
 43
0.0
 10
5890.0
 20
830.0
 10
5890.0
 20
690.0
  0
LWPOLYLINE
  5
661
330
1F
100
AcDbEntity
  8
TXT
100
AcDbPolyline
 90
        3
 70
     0
 43
0.0
 10
5890.0
 20
970.0
 10
5890.0
 20
970.0
 10
5890.0
 20
830.0
  0
TEXT
  5
662
330
1F
100
AcDbEntity
  8
TXT
 48
5.0
100
AcDbText
 10
7159.688653826009
 20
1129.975832049015
 30
0.0
 40
100.0
  1
φ 90　　　　個
 72
     4
 11
7616.53003701739
 21
1180.0
 31
0.0
100
AcDbText
  0
TEXT
  5
663
330
1F
100
AcDbEntity
  8
TXT
 48
5.0
100
AcDbText
 10
7164.863370350722
 20
990.0
 30
0.0
 40
100.0
  1
φ100　　　　個
 72
     4
 11
7616.53003701739
 21
1040.0
 31
0.0
100
AcDbText
  0
TEXT
  5
664
330
1F
100
AcDbEntity
  8
TXT
 48
5.0
100
AcDbText
 10
7164.863370350722
 20
849.990157480315
 30
0.0
 40
100.0
  1
φ120　　　　個
 72
     4
 11
7616.53003701739
 21
900.0
 31
0.0
100
AcDbText
  0
TEXT
  5
665
330
1F
100
AcDbEntity
  8
TXT
 48
5.0
100
AcDbText
 10
7164.863370350722
 20
710.0
 30
0.0
 40
100.0
  1
φ150　　　　個
 72
     4
 11
7616.53003701739
 21
760.0
 31
0.0
100
AcDbText
  0
TEXT
  5
666
330
1F
100
AcDbEntity
  8
TXT
 48
5.0
100
AcDbText
 10
7154.863370350724
 20
569.990157480315
 30
0.0
 40
100.0
  1
φ206　　　　個
 72
     4
 11
7616.53003701739
 21
620.0
 31
0.0
100
AcDbText
  0
LINE
  5
667
330
1F
100
AcDbEntity
  8
TXT
100
AcDbLine
 10
6650.0
 20
1390.0
 30
0.0
 11
7650.0
 21
1390.0
 31
0.0
  0
LINE
  5
669
330
1F
100
AcDbEntity
  8
TXT
100
AcDbLine
 10
7650.0
 20
1810.0
 30
0.0
 11
5890.0
 21
1810.0
 31
0.0
  0
LINE
  5
66A
330
1F
100
AcDbEntity
  8
TXT
100
AcDbLine
 10
5890.0
 20
1810.0
 30
0.0
 11
5890.0
 21
1390.0
 31
0.0
  0
LINE
  5
66B
330
1F
100
AcDbEntity
  8
TXT
100
AcDbLine
 10
6650.0
 20
1250.0
 30
0.0
 11
7650.0
 21
1250.0
 31
0.0
  0
LINE
  5
66D
330
1F
100
AcDbEntity
  8
TXT
100
AcDbLine
 10
8150.0
 20
1390.0
 30
0.0
 11
6390.0
 21
1390.0
 31
0.0
  0
LINE
  5
66E
330
1F
100
AcDbEntity
  8
TXT
100
AcDbLine
 10
5890.0
 20
1390.0
 30
0.0
 11
5890.0
 21
1250.0
 31
0.0
  0
LINE
  5
66F
330
1F
100
AcDbEntity
  8
TXT
100
AcDbLine
 10
6650.0
 20
1110.0
 30
0.0
 11
7650.0
 21
1110.0
 31
0.0
  0
LINE
  5
671
330
1F
100
AcDbEntity
  8
TXT
100
AcDbLine
 10
8150.0
 20
1250.0
 30
0.0
 11
6390.0
 21
1250.0
 31
0.0
  0
LINE
  5
672
330
1F
100
AcDbEntity
  8
TXT
100
AcDbLine
 10
5890.0
 20
1250.0
 30
0.0
 11
5890.0
 21
1110.0
 31
0.0
  0
LINE
  5
673
330
1F
100
AcDbEntity
  8
TXT
100
AcDbLine
 10
6390.0
 20
970.0
 30
0.0
 11
7650.0
 21
970.0
 31
0.0
  0
LINE
  5
675
330
1F
100
AcDbEntity
  8
TXT
100
AcDbLine
 10
8150.0
 20
1110.0
 30
0.0
 11
6390.0
 21
1110.0
 31
0.0
  0
LINE
  5
676
330
1F
100
AcDbEntity
  8
TXT
100
AcDbLine
 10
5890.0
 20
1110.0
 30
0.0
 11
5890.0
 21
970.0
 31
0.0
  0
LINE
  5
677
330
1F
100
AcDbEntity
  8
TXT
100
AcDbLine
 10
5890.0
 20
690.0
 30
0.0
 11
5890.0
 21
550.0
 31
0.0
  0
LINE
  5
678
330
1F
100
AcDbEntity
  8
TXT
100
AcDbLine
 10
5890.0
 20
550.0
 30
0.0
 11
7650.0
 21
550.0
 31
0.0
  0
LINE
  5
67A
330
1F
100
AcDbEntity
  8
TXT
100
AcDbLine
 10
7650.0
 20
690.0
 30
0.0
 11
6390.0
 21
690.0
 31
0.0
  0
LINE
  5
67B
330
1F
100
AcDbEntity
  8
TXT
100
AcDbLine
 10
6390.0
 20
690.0
 30
0.0
 11
8150.0
 21
690.0
 31
0.0
  0
LINE
  5
67D
330
1F
100
AcDbEntity
  8
TXT
100
AcDbLine
 10
7650.0
 20
830.0
 30
0.0
 11
6390.0
 21
830.0
 31
0.0
  0
CIRCLE
  5
67F
330
1F
100
AcDbEntity
  8
TXT
 48
5.0
100
AcDbCircle
 10
7820.0
 20
440.0
 30
0.0
 40
75.0
  0
TEXT
  5
680
330
1F
100
AcDbEntity
  8
TXT
 48
5.0
100
AcDbText
 10
7756.984251968503
 20
416.2401574803149
 30
0.0
 40
50.0
  1
φ150
 41
0.8
 72
     4
 11
7820.0
 21
440.0
 31
0.0
100
AcDbText
  0
CIRCLE
  5
687
330
1F
100
AcDbEntity
  8
TXT
 48
5.0
100
AcDbCircle
 10
7600.0
 20
440.0
 30
0.0
 40
60.0
  0
TEXT
  5
688
330
1F
100
AcDbEntity
  8
TXT
 48
5.0
100
AcDbText
 10
7536.984251968504
 20
419.9960629921259
 30
0.0
 40
40.0
  1
φ120
 72
     4
 11
7600.0
 21
440.0
 31
0.0
100
AcDbText
  0
CIRCLE
  5
689
330
1F
100
AcDbEntity
  8
TXT
 48
5.0
100
AcDbCircle
 10
7380.0
 20
440.0
 30
0.0
 40
50.0
  0
TEXT
  5
68A
330
1F
100
AcDbEntity
  8
TXT
 48
5.0
100
AcDbText
 10
7330.375098425196
 20
418.6161417322834
 30
0.0
 40
45.0
  1
φ100
 41
0.7
 72
     4
 11
7380.0
 21
440.0
 31
0.0
100
AcDbText
  0
TEXT
  5
68B
330
1F
100
AcDbEntity
  8
TXT
 48
5.0
100
AcDbText
 10
7118.195062719912
 20
418.6052661543404
 30
0.0
 40
45.0
  1
φ90
 41
0.7
 72
     4
 11
7160.0
 21
440.0
 31
0.0
100
AcDbText
  0
CIRCLE
  5
68C
330
1F
100
AcDbEntity
  8
TXT
 48
5.0
100
AcDbCircle
 10
7160.0
 20
440.0
 30
0.0
 40
45.0
  0
TEXT
  5
68D
330
1F
100
AcDbEntity
  8
TXT
 48
5.0
100
AcDbText
 10
6917.937598425196
 20
417.4999999999999
 30
0.0
 40
45.0
  1
80
 41
0.7
 72
     4
 11
6940.0
 21
440.0
 31
0.0
100
AcDbText
  0
CIRCLE
  5
68E
330
1F
100
AcDbEntity
  8
TXT
 48
5.0
100
AcDbCircle
 10
6940.0
 20
440.0
 30
0.0
 40
40.0
  0
CIRCLE
  5
68F
330
1F
100
AcDbEntity
  8
TXT
 48
5.0
100
AcDbCircle
 10
6720.0
 20
440.0
 30
0.0
 40
35.0
  0
TEXT
  5
690
330
1F
100
AcDbEntity
  8
TXT
 48
5.0
100
AcDbText
 10
6697.937598425196
 20
417.4999999999999
 30
0.0
 40
45.0
  1
70
 41
0.7
 72
     4
 11
6720.0
 21
440.0
 31
0.0
100
AcDbText
  0
CIRCLE
  5
691
330
1F
100
AcDbEntity
  8
TXT
 48
5.0
100
AcDbCircle
 10
6500.0
 20
440.0
 30
0.0
 40
26.0
  0
TEXT
  5
692
330
1F
100
AcDbEntity
  8
TXT
 48
5.0
100
AcDbText
 10
6480.581214566929
 20
420.8332656110285
 30
0.0
 40
38.0
  1
52
 41
0.7
 72
     4
 11
6500.0
 21
440.0
 31
0.0
100
AcDbText
  0
LINE
  5
693
330
1F
100
AcDbEntity
  8
TXT
 48
5.0
100
AcDbLine
 10
6120.0
 20
550.0
 30
0.0
 11
5940.0
 21
550.0
 31
0.0
  0
LINE
  5
694
330
1F
100
AcDbEntity
  8
TXT
 48
5.0
100
AcDbLine
 10
5890.0
 20
550.0
 30
0.0
 11
5890.0
 21
330.0
 31
0.0
  0
LINE
  5
695
330
1F
100
AcDbEntity
  8
TXT
 48
5.0
100
AcDbLine
 10
6390.0
 20
370.0
 30
0.0
 11
6390.0
 21
550.0
 31
0.0
  0
LINE
  5
696
330
1F
100
AcDbEntity
  8
TXT
 48
5.0
100
AcDbLine
 10
6390.0
 20
550.0
 30
0.0
 11
6210.0
 21
550.0
 31
0.0
  0
LINE
  5
697
330
1F
100
AcDbEntity
  8
TXT
 48
5.0
100
AcDbLine
 10
6300.0
 20
550.0
 30
0.0
 11
6120.0
 21
550.0
 31
0.0
  0
TEXT
  5
698
330
1F
100
AcDbEntity
  8
TXT
 48
5.0
100
AcDbText
 10
5961.333333333333
 20
390.0
 30
0.0
 40
100.0
  1
削孔径図
 41
0.8
 72
     4
 11
6140.0
 21
440.0
 31
0.0
100
AcDbText
  0
LINE
  5
699
330
1F
100
AcDbEntity
  8
TXT
 48
5.0
100
AcDbLine
 10
5890.0
 20
330.0
 30
0.0
 11
6390.0
 21
330.0
 31
0.0
  0
LINE
  5
69A
330
1F
100
AcDbEntity
  8
TXT
 48
5.0
100
AcDbLine
 10
6390.0
 20
550.0
 30
0.0
 11
6390.0
 21
2230.0
 31
0.0
  0
MTEXT
  5
6A0
330
1F
100
AcDbEntity
  8
TXT
 48
5.0
100
AcDbMText
 10
77.50268399606375
 20
550.4111166203415
 30
0.0
 40
65.0
 41
2142.0
 71
     1
 72
     5
  1
\U+203B削孔位置は製品の外側から見た場合です。\P\U+203B削孔位置はなるべくノックアウト内で指定して下さい。
 73
     1
 44
1.0
  0
TEXT
  5
CFF
330
1F
100
AcDbEntity
  8
LAYER
100
AcDbText
 10
6921.0
 20
67.66666666666665
 30
0.0
 40
70.0
  1
ＦＡＸ：
 72
     4
 11
7070.0
 21
105.0
 31
0.0
100
AcDbText
  0
TEXT
  5
D00
330
1F
100
AcDbEntity
  8
LAYER
100
AcDbText
 10
6971.333333333331
 20
220.0
 30
0.0
 40
70.0
  1
阿賀コンクリート工業株式会社
 72
     4
 11
7549.999999999997
 21
255.0
 31
0.0
100
AcDbText
  0
TEXT
  5
D02
330
1F
100
AcDbEntity
  8
LAYER
100
AcDbText
 10
4262.666666666666
 20
67.66666666666667
 30
0.0
 40
80.0
  1
要
 72
     4
 11
4299.999999999999
 21
105.0
 31
0.0
100
AcDbText
  0
TEXT
  5
D03
330
1F
100
AcDbEntity
  8
LAYER
100
AcDbText
 10
4261.90476190476
 20
215.0
 30
0.0
 40
80.0
  1
摘
 72
     4
 11
4299.999999999999
 21
255.0
 31
0.0
100
AcDbText
  0
TEXT
  5
D04
330
1F
100
AcDbEntity
  8
LAYER
100
AcDbText
 10
71.00000000000028
 20
130.0
 30
0.0
 40
100.0
  1
種類・呼び名
 41
0.9
 72
     4
 11
380.0000000000003
 21
180.0
 31
0.0
100
AcDbText
  0
LINE
  5
D13
330
1F
100
AcDbEntity
  8
LAYER
100
AcDbLine
 10
730.0000000000003
 20
180.0
 30
0.0
 11
4229.999999999999
 21
180.0
 31
0.0
  0
LINE
  5
D14
330
1F
100
AcDbEntity
  8
LAYER
100
AcDbLine
 10
6390.000000000003
 20
370.0
 30
0.0
 11
6390.000000000003
 21
370.0
 31
0.0
  0
LINE
  5
D15
330
1F
100
AcDbEntity
  8
LAYER
100
AcDbLine
 10
6889.999999999999
 20
330.0
 30
0.0
 11
6889.999999999999
 21
30.0
 31
0.0
  0
LINE
  5
D16
330
1F
100
AcDbEntity
  8
LAYER
100
AcDbLine
 10
4369.999999999999
 20
330.0
 30
0.0
 11
4369.999999999999
 21
30.0
 31
0.0
  0
LINE
  5
D17
330
1F
100
AcDbEntity
  8
LAYER
100
AcDbLine
 10
4229.999999999999
 20
330.0
 30
0.0
 11
4229.999999999999
 21
30.0
 31
0.0
  0
LINE
  5
D18
330
1F
100
AcDbEntity
  8
LAYER
100
AcDbLine
 10
730.0000000000003
 20
330.0
 30
0.0
 11
730.0000000000003
 21
30.0
 31
0.0
  0
LINE
  5
D19
330
1F
100
AcDbEntity
  8
LAYER
100
AcDbLine
 10
30.00000000000037
 20
330.0
 30
0.0
 11
8149.999999999996
 21
330.0
 31
0.0
  0
LWPOLYLINE
  5
D1A
330
1F
100
AcDbEntity
  8
LAYER
100
AcDbPolyline
 90
        4
 70
     1
 43
0.0
 10
30.00000000000037
 20
30.0
 10
30.00000000000037
 20
5685.0
 10
8149.999999999996
 20
5685.0
 10
8149.999999999996
 20
30.0
  0
VIEWPORT
  5
D1B
330
1F
100
AcDbEntity
  8
0
100
AcDbViewport
 10
4090.0
 20
3007.5
 30
0.0
 40
8119.999999999999
 41
5355.0
 69
     0
 12
228.1209015211101
 22
160.8176196896051
 13
0.0
 23
0.0
 14
10.0
 24
10.0
 15
10.0
 25
10.0
 16
0.0
 26
0.0
 36
1.0
 17
0.0
 27
0.0
 37
0.0
 42
50.0
 43
0.0
 44
0.0
 45
267.75
 50
0.0
 51
0.0
 72
   100
 90
    32864
  1

281
     0
 71
     1
 74
     0
110
0.0
120
0.0
130
0.0
111
1.0
121
0.0
131
0.0
112
0.0
122
1.0
132
0.0
 79
     0
146
0.0
170
     0
  0
LWPOLYLINE
  5
D1C
330
1F
100
AcDbEntity
  8
LAYER
100
AcDbPolyline
 90
        4
 70
     1
 43
0.0
 10
8149.999999999996
 20
30.0
 10
30.00000000000094
 20
30.0
 10
30.00000000000094
 20
5685.0
 10
8149.999999999996
 20
5685.0
  0
TEXT
  5
FB1
330
1F
100
AcDbEntity
  8
TXT
  6
Continuous
 48
5.0
100
AcDbText
 10
1426.666666666666
 20
205.0
 30
0.0
 40
100.0
  1
ＦＫ式ハンドホール
 41
2.0
 72
     4
 11
2480.0
 21
255.0
 31
0.0
100
AcDbText
  0
TEXT
  5
FB3
330
1F
100
AcDbEntity
  8
TXT
 48
5.0
100
AcDbText
 10
7958.409448818898
 20
409.994094488189
 30
0.0
 40
60.0
  1
φ206
 41
0.8
 72
     4
 11
8040.0
 21
440.0
 31
0.0
100
AcDbText
  0
CIRCLE
  5
FB4
330
1F
100
AcDbEntity
  8
TXT
 48
5.0
100
AcDbCircle
 10
8040.0
 20
440.0
 30
0.0
 40
103.0
  0
LINE
  5
FB9
330
1F
100
AcDbEntity
  8
TXT
 48
5.0
100
AcDbLine
 10
6390.0
 20
550.0
 30
0.0
 11
6390.0
 21
370.0
 31
0.0
  0
LWPOLYLINE
  5
FD6
330
1F
100
AcDbEntity
  8
TXT
100
AcDbPolyline
 90
        4
 70
     1
 43
0.0
 10
6390.0
 20
330.0
 10
6610.0
 20
330.0
 10
6610.0
 20
550.0
 10
6390.0
 20
550.0
  0
LWPOLYLINE
  5
FD7
330
1F
100
AcDbEntity
  8
TXT
100
AcDbPolyline
 90
        4
 70
     1
 43
0.0
 10
6610.0
 20
330.0
 10
6830.0
 20
330.0
 10
6830.0
 20
550.0
 10
6610.0
 20
550.0
  0
LWPOLYLINE
  5
FD8
330
1F
100
AcDbEntity
  8
TXT
100
AcDbPolyline
 90
        4
 70
     1
 43
0.0
 10
6830.0
 20
330.0
 10
7050.0
 20
330.0
 10
7050.0
 20
550.0
 10
6830.0
 20
550.0
  0
LWPOLYLINE
  5
FD9
330
1F
100
AcDbEntity
  8
TXT
100
AcDbPolyline
 90
        4
 70
     1
 43
0.0
 10
7050.0
 20
330.0
 10
7270.0
 20
330.0
 10
7270.0
 20
550.0
 10
7050.0
 20
550.0
  0
LWPOLYLINE
  5
FDA
330
1F
100
AcDbEntity
  8
TXT
100
AcDbPolyline
 90
        4
 70
     1
 43
0.0
 10
7270.0
 20
330.0
 10
7490.0
 20
330.0
 10
7490.0
 20
550.0
 10
7270.0
 20
550.0
  0
LWPOLYLINE
  5
FDB
330
1F
100
AcDbEntity
  8
TXT
100
AcDbPolyline
 90
        4
 70
     1
 43
0.0
 10
7490.0
 20
330.0
 10
7710.0
 20
330.0
 10
7710.0
 20
550.0
 10
7490.0
 20
550.0
  0
LWPOLYLINE
  5
FDC
330
1F
100
AcDbEntity
  8
TXT
100
AcDbPolyline
 90
        4
 70
     1
 43
0.0
 10
7710.0
 20
330.0
 10
7930.0
 20
330.0
 10
7930.0
 20
550.0
 10
7710.0
 20
550.0
  0
LWPOLYLINE
  5
FDD
330
1F
100
AcDbEntity
  8
TXT
100
AcDbPolyline
 90
        4
 70
     1
 43
0.0
 10
7930.0
 20
330.0
 10
8150.0
 20
330.0
 10
8150.0
 20
550.0
 10
7930.0
 20
550.0
  0
LINE
  5
FE6
330
1F
100
AcDbEntity
  8
TXT
100
AcDbLine
 10
6650.0
 20
830.0
 30
0.0
 11
8150.0
 21
830.0
 31
0.0
  0
LINE
  5
FE8
330
1F
100
AcDbEntity
  8
TXT
100
AcDbLine
 10
8150.0
 20
970.0
 30
0.0
 11
6650.0
 21
970.0
 31
0.0
  0
LINE
  5
FE9
330
1F
100
AcDbEntity
  8
TXT
100
AcDbLine
 10
5890.0
 20
1810.0
 30
0.0
 11
8150.0
 21
1810.0
 31
0.0
  0
LINE
  5
FEB
330
1F
100
AcDbEntity
  8
TXT
100
AcDbLine
 10
7650.0
 20
1950.0
 30
0.0
 11
5890.0
 21
1950.0
 31
0.0
  0
LINE
  5
FEC
330
1F
100
AcDbEntity
  8
TXT
100
AcDbLine
 10
5890.0
 20
1950.0
 30
0.0
 11
5890.0
 21
1810.0
 31
0.0
  0
LINE
  5
FED
330
1F
100
AcDbEntity
  8
TXT
100
AcDbLine
 10
5890.0
 20
1950.0
 30
0.0
 11
8150.0
 21
1950.0
 31
0.0
  0
LINE
  5
FEF
330
1F
100
AcDbEntity
  8
TXT
100
AcDbLine
 10
7650.0
 20
2090.0
 30
0.0
 11
5890.0
 21
2090.0
 31
0.0
  0
LINE
  5
FF0
330
1F
100
AcDbEntity
  8
TXT
100
AcDbLine
 10
5890.0
 20
2090.0
 30
0.0
 11
5890.0
 21
1950.0
 31
0.0
  0
LINE
  5
FF1
330
1F
100
AcDbEntity
  8
TXT
100
AcDbLine
 10
5890.0
 20
2090.0
 30
0.0
 11
8150.0
 21
2090.0
 31
0.0
  0
LINE
  5
FF3
330
1F
100
AcDbEntity
  8
TXT
100
AcDbLine
 10
8150.0
 20
2230.0
 30
0.0
 11
5890.0
 21
2230.0
 31
0.0
  0
LINE
  5
FF4
330
1F
100
AcDbEntity
  8
TXT
100
AcDbLine
 10
5890.0
 20
2230.0
 30
0.0
 11
5890.0
 21
2090.0
 31
0.0
  0
LINE
  5
FF7
330
1F
100
AcDbEntity
  8
TXT
100
AcDbLine
 10
8150.0
 20
1950.0
 30
0.0
 11
8150.0
 21
330.0
 31
0.0
  0
TEXT
  5
FF9
330
1F
100
AcDbEntity
  8
LAYER
100
AcDbText
 10
7327.249999999999
 20
70.00000000000003
 30
0.0
 40
70.0
  1
０２５０（６２）５３９４
 41
0.75
 72
     4
 11
7699.999999999999
 21
105.0
 31
0.0
100
AcDbText
  0
TEXT
  5
FFA
330
1F
100
AcDbEntity
  8
TXT
 48
5.0
100
AcDbText
 10
7290.049671180106
 20
2258.252550022636
 30
0.0
 40
80.0
  1
年　　　月　　　日
 72
     4
 11
7706.049671180107
 21
2298.252550022636
 31
0.0
100
AcDbText
  0
TEXT
  5
1000
330
1F
100
AcDbEntity
  8
TXT
  6
Continuous
 48
5.0
100
AcDbText
 10
1762.496218131761
 20
4471.591343934092
 30
0.0
 40
100.0
  1
Ａ面
 41
2.0
 72
     4
 11
1989.162884798428
 21
4518.258010600759
 31
0.0
100
AcDbText
  0
TEXT
  5
1002
330
1F
100
AcDbEntity
  8
TXT
  6
Continuous
 48
5.0
100
AcDbText
 10
3972.564278314649
 20
3581.551167480793
 30
0.0
 40
100.0
  1
Ｂ面
 41
2.0
 72
     4
 11
4205.897611647983
 21
3628.217834147459
 31
0.0
100
AcDbText
  0
LINE
  5
1005
330
1F
100
AcDbEntity
  8
TXT
100
AcDbLine
 10
8150.0
 20
1390.0
 30
0.0
 11
6390.0
 21
1390.0
 31
0.0
  0
LINE
  5
1006
330
1F
100
AcDbEntity
  8
TXT
100
AcDbLine
 10
8150.0
 20
1530.0
 30
0.0
 11
6390.0
 21
1530.0
 31
0.0
  0
LINE
  5
1007
330
1F
100
AcDbEntity
  8
TXT
100
AcDbLine
 10
6650.0
 20
1390.0
 30
0.0
 11
7650.0
 21
1390.0
 31
0.0
  0
LINE
  5
1008
330
1F
100
AcDbEntity
  8
TXT
100
AcDbLine
 10
8150.0
 20
1670.0
 30
0.0
 11
5890.0
 21
1670.0
 31
0.0
  0
LINE
  5
1009
330
1F
100
AcDbEntity
  8
TXT
100
AcDbLine
 10
6650.0
 20
1530.0
 30
0.0
 11
7650.0
 21
1530.0
 31
0.0
  0
LINE
  5
100A
330
1F
100
AcDbEntity
  8
TXT
100
AcDbLine
 10
6650.0
 20
1670.0
 30
0.0
 11
7650.0
 21
1670.0
 31
0.0
  0
TEXT
  5
100B
330
1F
100
AcDbEntity
  8
TXT
 48
5.0
100
AcDbText
 10
7159.863370350723
 20
1270.0
 30
0.0
 40
100.0
  1
φ 80　　　　個
 72
     4
 11
7616.53003701739
 21
1320.0
 31
0.0
100
AcDbText
  0
TEXT
  5
100C
330
1F
100
AcDbEntity
  8
TXT
 48
5.0
100
AcDbText
 10
7159.863370350723
 20
1410.0
 30
0.0
 40
100.0
  1
φ 70　　　　個
 72
     4
 11
7616.53003701739
 21
1460.0
 31
0.0
100
AcDbText
  0
TEXT
  5
100D
330
1F
100
AcDbEntity
  8
TXT
 48
5.0
100
AcDbText
 10
7159.863370350723
 20
1549.990157480315
 30
0.0
 40
100.0
  1
φ 52　　　　個
 72
     4
 11
7616.53003701739
 21
1600.0
 31
0.0
100
AcDbText
  0
TEXT
  5
1AA3
330
1F
100
AcDbEntity
  8
TXT
  6
Continuous
 48
5.0
100
AcDbText
 10
1150.257125011023
 20
2275.178981838584
 30
0.0
 40
100.0
  1
Ｄ面
 41
2.0
 72
     4
 11
1383.590458344356
 21
2321.84564850525
 31
0.0
100
AcDbText
  0
TEXT
  5
1AA4
330
1F
100
AcDbEntity
  8
TXT
  6
Continuous
 48
5.0
100
AcDbText
 10
3373.658518527245
 20
1385.138805385284
 30
0.0
 40
100.0
  1
Ｃ面
 41
2.0
 72
     4
 11
3600.325185193911
 21
1431.805472051951
 31
0.0
100
AcDbText
  0
TEXT
  5
1E7D
330
1F
100
AcDbEntity
  8
TXT
  6
Continuous
 48
5.0
100
AcDbText
 10
1227.005377984912
 20
54.92749614704636
 30
0.0
 40
100.0
  1
H0609(国土交通省仕様H1-9型)
 41
1.5
 72
     4
 11
2480.0
 21
105.0
 31
0.0
100
AcDbText
  0
DIMENSION
  5
224C
330
1F
100
AcDbEntity
  8
DIM
100
AcDbDimension
  2
*D75
 10
6447.909144356327
 20
4083.437910955182
 30
0.0
 11
6447.909144356327
 21
4108.437910955184
 31
0.0
 70
   160
 71
     5
 42
50.00000000000046
  3
Standerd
100
AcDbAlignedDimension
 13
6543.493805508963
 23
4133.437910955183
 33
0.0
 14
6574.0890436042
 24
4083.437910955182
 34
0.0
 50
90.0
100
AcDbRotatedDimension
  0
LEADER
  5
224D
330
1F
100
AcDbEntity
  8
TXT
100
AcDbLeader
  3
Standerd1
 40
40.00787401574803
 41
190.0
 76
     2
 10
6604.089043604201
 20
4083.437910955182
 30
0.0
 10
6737.924689624768
 20
3976.672648784038
 30
0.0
213
0.0
223
-20.0
233
0.0
1001
ACAD
1000
DSTYLE
1002
{
1070
   147
1040
15.0
1070
    77
1070
     0
1002
}
  0
MTEXT
  5
224E
102
{ACAD_REACTORS
330
227C
102
}
330
1F
100
AcDbEntity
  8
TXT
100
AcDbMText
 10
6792.924689624768
 20
3996.672648784038
 30
0.0
 40
40.0
 41
0.0
 71
     1
 72
     1
  1
M12ｲﾝｻｰﾄ
 73
     1
 44
1.0
  0
DIMENSION
  5
224F
330
1F
100
AcDbEntity
  8
DIM
100
AcDbDimension
  2
*D76
 10
7108.493805508962
 20
4067.87801821491
 30
0.0
 11
6908.493805508962
 21
4102.87801821491
 31
0.0
 70
    32
 71
     5
 42
400.0
  3
Standerd
100
AcDbAlignedDimension
 13
6708.493805508962
 23
4103.437910955182
 33
0.0
 14
7108.493805508962
 24
4103.437910955182
 34
0.0
100
AcDbRotatedDimension
  0
LINE
  5
2250
330
1F
100
AcDbEntity
  8
DASHED
 48
2.0
100
AcDbLine
 10
7208.493805508962
 20
3713.437910955183
 30
0.0
 11
7178.493805508963
 21
3683.437910955183
 31
0.0
  0
LINE
  5
2251
330
1F
100
AcDbEntity
  8
DASHED
 48
2.0
100
AcDbLine
 10
7213.493805508962
 20
4133.437910955183
 30
0.0
 11
7208.493805508962
 21
3713.437910955183
 31
0.0
  0
LINE
  5
2252
330
1F
100
AcDbEntity
  8
DASHED
 48
2.0
100
AcDbLine
 10
6608.493805508962
 20
3713.437910955183
 30
0.0
 11
6638.493805508962
 21
3683.437910955183
 31
0.0
  0
LINE
  5
2253
330
1F
100
AcDbEntity
  8
DASHED
 48
2.0
100
AcDbLine
 10
6603.493805508962
 20
4133.437910955183
 30
0.0
 11
6608.493805508962
 21
3713.437910955183
 31
0.0
  0
TEXT
  5
2254
330
1F
100
AcDbEntity
  8
TXT
100
AcDbText
 10
5943.493805508962
 20
4053.437910955183
 30
0.0
 40
60.0
  1
B1-450
 41
1.5
100
AcDbText
  0
DIMENSION
  5
2255
330
1F
100
AcDbEntity
  8
DIM
100
AcDbDimension
  2
*D77
 10
6525.938641048418
 20
4181.670328905339
 30
0.0
 11
6407.726042623221
 21
4216.670328905339
 31
0.0
 70
    32
 71
     5
 42
60.0
  3
Standerd1
100
AcDbAlignedDimension
 13
6603.493805508962
 23
4133.437910955183
 33
0.0
 14
6543.493805508963
 24
4133.437910955183
 34
0.0
100
AcDbRotatedDimension
  0
DIMENSION
  5
2256
330
1F
100
AcDbEntity
  8
DIM
100
AcDbDimension
  2
*D78
 10
7255.938641048418
 20
4181.670328905339
 30
0.0
 11
7374.151239473616
 21
4216.670328905339
 31
0.0
 70
    32
 71
     5
 42
60.0
  3
Standerd1
100
AcDbAlignedDimension
 13
7213.493805508962
 23
4133.437910955183
 33
0.0
 14
7273.493805508962
 24
4133.437910955183
 34
0.0
100
AcDbRotatedDimension
  0
DIMENSION
  5
2257
330
1F
100
AcDbEntity
  8
DIM
100
AcDbDimension
  2
*D79
 10
6585.938641048419
 20
4181.670328905339
 30
0.0
 11
6890.938641048419
 21
4216.670328905339
 31
0.0
 70
    32
 71
     5
 42
610.0
  3
Standerd1
100
AcDbAlignedDimension
 13
7213.493805508962
 23
4133.437910955183
 33
0.0
 14
6603.493805508962
 24
4133.437910955183
 34
0.0
100
AcDbRotatedDimension
  0
DIMENSION
  5
225B
330
1F
100
AcDbEntity
  8
DIM
100
AcDbDimension
  2
*D81
 10
6543.493805508963
 20
3153.437910955183
 30
0.0
 11
6908.493805508962
 21
3188.437910955183
 31
0.0
 70
    32
 71
     5
 42
730.0
  3
Standerd
100
AcDbAlignedDimension
 13
7273.493805508962
 23
3613.437910955183
 33
0.0
 14
6543.493805508963
 24
3613.437910955183
 34
0.0
100
AcDbRotatedDimension
  0
DIMENSION
  5
225C
330
1F
100
AcDbEntity
  8
DIM
100
AcDbDimension
  2
*D82
 10
6608.493805508962
 20
3303.437910955183
 30
0.0
 11
6908.493805508962
 21
3338.437910955183
 31
0.0
 70
    32
 71
     5
 42
600.0
  3
Standerd
100
AcDbAlignedDimension
 13
7208.493805508962
 23
3713.437910955183
 33
0.0
 14
6608.493805508962
 24
3713.437910955183
 34
0.0
100
AcDbRotatedDimension
  0
DIMENSION
  5
225D
330
1F
100
AcDbEntity
  8
NO
100
AcDbDimension
  2
*D83
 10
6708.493805508962
 20
3453.437910955183
 30
0.0
 11
6908.493805508962
 21
3488.437910955183
 31
0.0
 70
    32
 71
     5
 42
400.0
  3
Standerd
100
AcDbAlignedDimension
 13
7108.493805508962
 23
3733.437910955183
 33
0.0
 14
6708.493805508962
 24
3733.437910955183
 34
0.0
100
AcDbRotatedDimension
  0
DIMENSION
  5
225E
330
1F
100
AcDbEntity
  8
DIM
100
AcDbDimension
  2
*D84
 10
7723.493805508963
 20
4133.437910955183
 30
0.0
 11
7688.493805508961
 21
3868.437910955184
 31
0.0
 70
    32
 71
     5
 42
530.0
  3
Standerd
100
AcDbAlignedDimension
 13
7263.493805508962
 23
3603.437910955183
 33
0.0
 14
7273.493805508962
 24
4133.437910955183
 34
0.0
 50
90.0
100
AcDbRotatedDimension
  0
DIMENSION
  5
225F
330
1F
100
AcDbEntity
  8
DIM
100
AcDbDimension
  2
*D85
 10
7573.493805508963
 20
3603.437910955183
 30
0.0
 11
7538.493805508962
 21
3643.437910955184
 31
0.0
 70
    32
 71
     5
 42
79.99999999999954
  3
Standerd
100
AcDbAlignedDimension
 13
7148.493805508962
 23
3683.437910955183
 33
0.0
 14
7263.493805508962
 24
3603.437910955183
 34
0.0
 50
90.0
100
AcDbRotatedDimension
  0
DIMENSION
  5
2260
330
1F
100
AcDbEntity
  8
DIM
100
AcDbDimension
  2
*D86
 10
7573.493805508963
 20
4133.437910955183
 30
0.0
 11
7538.493805508962
 21
3908.437910955184
 31
0.0
 70
    32
 71
     5
 42
450.0000000000004
  3
Standerd
100
AcDbAlignedDimension
 13
7148.493805508962
 23
3683.437910955183
 33
0.0
 14
7273.493805508962
 24
4133.437910955183
 34
0.0
 50
90.0
100
AcDbRotatedDimension
  0
DIMENSION
  5
2261
330
1F
100
AcDbEntity
  8
NO
100
AcDbDimension
  2
*D87
 10
7423.493805508963
 20
3603.437910955183
 30
0.0
 11
7423.493805508963
 21
3674.006160761076
 31
0.0
 70
   160
 71
     5
 42
130.0
  3
Standerd
100
AcDbAlignedDimension
 13
7253.493805508963
 23
3733.437910955183
 33
0.0
 14
7263.493805508962
 24
3603.437910955183
 34
0.0
 50
90.0
100
AcDbRotatedDimension
  0
DIMENSION
  5
2262
330
1F
100
AcDbEntity
  8
NO
100
AcDbDimension
  2
*D88
 10
7423.493805508963
 20
3733.437910955183
 30
0.0
 11
7388.493805508962
 21
3883.437910955184
 31
0.0
 70
    32
 71
     5
 42
300.0
  3
Standerd
100
AcDbAlignedDimension
 13
7253.493805508963
 23
4033.437910955182
 33
0.0
 14
7253.493805508963
 24
3733.437910955183
 34
0.0
 50
90.0
100
AcDbRotatedDimension
  0
DIMENSION
  5
2263
330
1F
100
AcDbEntity
  8
NO
100
AcDbDimension
  2
*D89
 10
7423.493805508963
 20
4133.437910955183
 30
0.0
 11
7388.493805508962
 21
4083.437910955184
 31
0.0
 70
    32
 71
     5
 42
100.0
  3
Standerd
100
AcDbAlignedDimension
 13
7253.493805508963
 23
4033.437910955182
 33
0.0
 14
7273.493805508962
 24
4133.437910955183
 34
0.0
 50
90.0
100
AcDbRotatedDimension
  0
LINE
  5
2267
330
1F
100
AcDbEntity
  8
NO2
 48
2.0
100
AcDbLine
 10
7253.493805508963
 20
3733.437910955183
 30
0.0
 11
7273.493805508962
 21
3723.437910955183
 31
0.0
  0
LINE
  5
2268
330
1F
100
AcDbEntity
  8
NO2
 48
2.0
100
AcDbLine
 10
7253.493805508963
 20
4033.437910955182
 30
0.0
 11
7253.493805508963
 21
3733.437910955183
 31
0.0
  0
LINE
  5
2269
330
1F
100
AcDbEntity
  8
NO2
 48
2.0
100
AcDbLine
 10
7273.493805508962
 20
4043.437910955183
 30
0.0
 11
7253.493805508963
 21
4033.437910955182
 31
0.0
  0
LINE
  5
226A
330
1F
100
AcDbEntity
  8
NO
100
AcDbLine
 10
7108.493805508962
 20
3733.437910955183
 30
0.0
 11
7118.493805508963
 21
3723.437910955183
 31
0.0
  0
LINE
  5
226B
330
1F
100
AcDbEntity
  8
NO
100
AcDbLine
 10
7108.493805508962
 20
4033.437910955182
 30
0.0
 11
7118.493805508963
 21
4043.437910955183
 31
0.0
  0
LINE
  5
226C
330
1F
100
AcDbEntity
  8
NO
100
AcDbLine
 10
6708.493805508962
 20
3733.437910955183
 30
0.0
 11
6698.493805508963
 21
3723.437910955183
 31
0.0
  0
LINE
  5
226D
330
1F
100
AcDbEntity
  8
NO
100
AcDbLine
 10
6698.493805508963
 20
4043.437910955183
 30
0.0
 11
6708.493805508962
 21
4033.437910955182
 31
0.0
  0
LWPOLYLINE
  5
226E
330
1F
100
AcDbEntity
  8
NO
100
AcDbPolyline
 90
        4
 70
     1
 43
0.0
 10
6698.493805508963
 20
3723.437910955183
 10
7118.493805508963
 20
3723.437910955183
 10
7118.493805508963
 20
4043.437910955183
 10
6698.493805508963
 20
4043.437910955183
  0
LWPOLYLINE
  5
226F
330
1F
100
AcDbEntity
  8
NO
100
AcDbPolyline
 90
        4
 70
     1
 43
0.0
 10
6708.493805508962
 20
3733.437910955183
 10
7108.493805508962
 20
3733.437910955183
 10
7108.493805508962
 20
4033.437910955182
 10
6708.493805508962
 20
4033.437910955182
  0
LWPOLYLINE
  5
2270
330
1F
100
AcDbEntity
  8
DASHED
 48
2.0
100
AcDbPolyline
 90
        4
 70
     1
 43
0.0
 10
7103.493805508962
 20
3733.437910955183
 10
7113.493805508962
 20
3733.437910955183
 10
7113.493805508962
 20
3683.437910955183
 10
7103.493805508962
 20
3683.437910955183
  0
MTEXT
  5
2271
102
{ACAD_REACTORS
330
2272
102
}
330
1F
100
AcDbEntity
  8
TXT
100
AcDbMText
 10
7454.68718735182
 20
3399.89869695907
 30
0.0
 40
40.0
 41
0.0
 71
     1
 72
     1
  1
吊りﾌｯｸ引込用ﾌｯｸ兼用
 73
     1
 44
1.0
  0
LEADER
  5
2272
330
1F
100
AcDbEntity
  8
TXT
100
AcDbLeader
  3
Standerd1
 73
     0
 74
     0
 75
     1
 40
40.00000000000001
 41
456.7830808016392
 76
     3
 10
7113.493805508962
 20
3708.437910955183
 30
0.0
 10
7399.68718735182
 20
3379.89869695907
 30
0.0
 10
7439.687187351819
 20
3379.89869695907
 30
0.0
213
0.0
223
-20.0
233
0.0
1001
ACAD
1000
DSTYLE
1002
{
1070
   147
1040
15.0
1070
    77
1070
     0
1002
}
  0
LWPOLYLINE
  5
2273
330
1F
100
AcDbEntity
  8
DASHED
 48
2.0
100
AcDbPolyline
 90
        4
 70
     1
 43
0.0
 10
6713.493805508962
 20
3733.437910955183
 10
6703.493805508962
 20
3733.437910955183
 10
6703.493805508962
 20
3683.437910955183
 10
6713.493805508962
 20
3683.437910955183
  0
LWPOLYLINE
  5
2274
330
1F
100
AcDbEntity
  8
DASHED
 48
2.0
100
AcDbPolyline
 90
        4
 70
     1
 43
0.0
 10
6574.0890436042
 20
4075.437910955183
 10
6604.089043604201
 20
4075.437910955183
 10
6604.089043604201
 20
4091.437910955183
 10
6574.0890436042
 20
4091.437910955183
  0
LWPOLYLINE
  5
2275
330
1F
100
AcDbEntity
  8
DASHED
 48
2.0
100
AcDbPolyline
 90
        4
 70
     1
 43
0.0
 10
7242.898567413724
 20
4075.437910955183
 10
7212.898567413724
 20
4075.437910955183
 10
7212.898567413724
 20
4091.437910955183
 10
7242.898567413724
 20
4091.437910955183
  0
LINE
  5
2276
330
1F
100
AcDbEntity
  8
LAYER
 48
2.0
100
AcDbLine
 10
7108.493805508962
 20
4063.437910955182
 30
0.0
 11
7108.493805508962
 21
4103.437910955182
 31
0.0
  0
LINE
  5
2277
330
1F
100
AcDbEntity
  8
LAYER
 48
2.0
100
AcDbLine
 10
7088.493805508962
 20
4083.437910955182
 30
0.0
 11
7128.493805508963
 21
4083.437910955182
 31
0.0
  0
CIRCLE
  5
2278
330
1F
100
AcDbEntity
  8
DASHED
 48
2.0
100
AcDbCircle
 10
7108.493805508962
 20
4083.437910955182
 30
0.0
 40
8.0
  0
LINE
  5
2279
330
1F
100
AcDbEntity
  8
LAYER
 48
2.0
100
AcDbLine
 10
6708.493805508962
 20
4063.437910955182
 30
0.0
 11
6708.493805508962
 21
4103.437910955182
 31
0.0
  0
LINE
  5
227A
330
1F
100
AcDbEntity
  8
LAYER
 48
2.0
100
AcDbLine
 10
6688.493805508961
 20
4083.437910955182
 30
0.0
 11
6728.493805508962
 21
4083.437910955182
 31
0.0
  0
CIRCLE
  5
227B
330
1F
100
AcDbEntity
  8
DASHED
 48
2.0
100
AcDbCircle
 10
6708.493805508962
 20
4083.437910955182
 30
0.0
 40
8.0
  0
LEADER
  5
227C
330
1F
100
AcDbEntity
  8
TXT
100
AcDbLeader
  3
Standerd1
 73
     0
 74
     0
 75
     1
 40
40.00787401574803
 41
190.0
 76
     3
 10
6708.493805508962
 20
4075.437910955183
 30
0.0
 10
6737.924689624768
 20
3976.672648784038
 30
0.0
 10
6777.924689624768
 20
3976.672648784038
 30
0.0
213
0.0
223
-20.0
233
0.0
1001
ACAD
1000
DSTYLE
1002
{
1070
   147
1040
15.0
1070
    77
1070
     0
1002
}
  0
LINE
  5
227D
330
1F
100
AcDbEntity
  8
DASHED
 48
2.0
100
AcDbLine
 10
7018.493805508963
 20
3683.437910955183
 30
0.0
 11
7008.493805508962
 21
3663.437910955183
 31
0.0
  0
LINE
  5
227E
330
1F
100
AcDbEntity
  8
DASHED
 48
2.0
100
AcDbLine
 10
7178.493805508963
 20
3683.437910955183
 30
0.0
 11
7018.493805508963
 21
3683.437910955183
 31
0.0
  0
LINE
  5
227F
330
1F
100
AcDbEntity
  8
DASHED
 48
2.0
100
AcDbLine
 10
6808.493805508962
 20
3663.437910955183
 30
0.0
 11
7008.493805508962
 21
3663.437910955183
 31
0.0
  0
LINE
  5
2280
330
1F
100
AcDbEntity
  8
DASHED
 48
2.0
100
AcDbLine
 10
6798.493805508963
 20
3683.437910955183
 30
0.0
 11
6808.493805508962
 21
3663.437910955183
 31
0.0
  0
LINE
  5
2281
330
1F
100
AcDbEntity
  8
DASHED
 48
2.0
100
AcDbLine
 10
6638.493805508962
 20
3683.437910955183
 30
0.0
 11
6798.493805508963
 21
3683.437910955183
 31
0.0
  0
LWPOLYLINE
  5
2282
330
1F
100
AcDbEntity
  8
LAYER
100
AcDbPolyline
 90
        6
 70
     1
 43
0.0
 10
6553.493805508963
 20
3603.437910955183
 10
7263.493805508962
 20
3603.437910955183
 10
7273.493805508962
 20
3613.437910955183
 10
7273.493805508962
 20
4133.437910955183
 10
6543.493805508963
 20
4133.437910955183
 10
6543.493805508963
 20
3613.437910955183
  0
DIMENSION
  5
24E8
330
1F
100
AcDbEntity
  8
DIM
100
AcDbDimension
  2
*D106
 10
6756.9767188936
 20
4133.437910955183
 30
0.0
 11
6721.972781885725
 21
4233.437910955184
 31
0.0
 70
    32
 71
     5
 42
200.0
  3
Standerd
100
AcDbAlignedDimension
 13
6605.874005614281
 23
4333.437910955182
 33
0.0
 14
6605.874005614281
 24
4133.437910955183
 34
0.0
 50
90.0
100
AcDbRotatedDimension
  0
LWPOLYLINE
  5
24E9
330
1F
100
AcDbEntity
  8
DASHED
 48
2.0
100
AcDbPolyline
 90
        4
 70
     1
 43
0.0
 10
6575.874005614281
 20
4325.437910955183
 10
6605.874005614281
 20
4325.437910955183
 10
6605.874005614281
 20
4341.437910955183
 10
6575.874005614281
 20
4341.437910955183
  0
LEADER
  5
24EA
330
1F
100
AcDbEntity
  8
TXT
100
AcDbLeader
  3
Standerd1
 73
     0
 74
     0
 75
     1
 40
40.00787401574803
 41
190.0
 76
     3
 10
6605.874005614281
 20
4333.437910955182
 30
0.0
 10
6782.220974766932
 20
4431.33277992588
 30
0.0
 10
6822.220974766931
 20
4431.33277992588
 30
0.0
213
0.0
223
-20.0
233
0.0
1001
ACAD
1000
DSTYLE
1002
{
1070
   147
1040
15.0
1070
    77
1070
     0
1002
}
  0
MTEXT
  5
24EB
102
{ACAD_REACTORS
330
24EA
102
}
330
1F
100
AcDbEntity
  8
TXT
100
AcDbMText
 10
6837.220974766932
 20
4431.33277992588
 30
0.0
 40
40.0
 41
0.0
 71
     4
 72
     1
  1
M12ｲﾝｻｰﾄ\P１面のみ
 73
     1
 44
1.0
  0
DIMENSION
  5
24EC
330
1F
100
AcDbEntity
  8
DIM
100
AcDbDimension
  2
*D107
 10
7723.493805508963
 20
4763.437910955182
 30
0.0
 11
7688.493805508961
 21
4713.437910955184
 31
0.0
 70
    32
 71
     5
 42
100.0
  3
Standerd
100
AcDbAlignedDimension
 13
7333.493805508962
 23
4663.437910955183
 33
0.0
 14
7328.493805508962
 24
4763.437910955182
 34
0.0
 50
90.0
100
AcDbRotatedDimension
  0
DIMENSION
  5
24ED
330
1F
100
AcDbEntity
  8
DIM
100
AcDbDimension
  2
*D99
 10
7723.493805508963
 20
4133.437910955183
 30
0.0
 11
7688.493805508961
 21
4398.437910955183
 31
0.0
 70
    32
 71
     5
 42
530.0
  3
Standerd
100
AcDbAlignedDimension
 13
7333.493805508962
 23
4663.437910955183
 33
0.0
 14
7273.493805508962
 24
4133.437910955183
 34
0.0
 50
90.0
100
AcDbRotatedDimension
  0
DIMENSION
  5
24EE
330
1F
100
AcDbEntity
  8
DIM
100
AcDbDimension
  2
*D100
 10
7573.493805508963
 20
4583.437910955182
 30
0.0
 11
7538.493805508962
 21
4623.437910955184
 31
0.0
 70
    32
 71
     5
 42
80.0
  3
Standerd
100
AcDbAlignedDimension
 13
7333.493805508962
 23
4663.437910955183
 33
0.0
 14
7208.138355271997
 24
4583.437910955182
 34
0.0
 50
90.0
100
AcDbRotatedDimension
  0
DIMENSION
  5
24EF
330
1F
100
AcDbEntity
  8
DIM
100
AcDbDimension
  2
*D101
 10
7573.493805508963
 20
4133.437910955183
 30
0.0
 11
7538.493805508962
 21
4358.437910955184
 31
0.0
 70
    32
 71
     5
 42
450.0
  3
Standerd
100
AcDbAlignedDimension
 13
7208.138355271997
 23
4583.437910955182
 33
0.0
 14
7273.493805508962
 24
4133.437910955183
 34
0.0
 50
90.0
100
AcDbRotatedDimension
  0
LINE
  5
24F0
330
1F
100
AcDbEntity
  8
LAYER
100
AcDbLine
 10
7333.493805508962
 20
4663.437910955183
 30
0.0
 11
7343.493805508963
 21
4653.437910955182
 31
0.0
  0
LINE
  5
24F1
330
1F
100
AcDbEntity
  8
LAYER
100
AcDbLine
 10
6473.493805508963
 20
4653.437910955182
 30
0.0
 11
6483.493805508962
 21
4663.437910955183
 31
0.0
  0
DIMENSION
  5
24F2
330
1F
100
AcDbEntity
  8
DIM
100
AcDbDimension
  2
*D102
 10
7343.493805508963
 20
5063.437910955183
 30
0.0
 11
6908.493805508962
 21
5098.437910955183
 31
0.0
 70
    32
 71
     5
 42
870.0
  3
Standerd
100
AcDbAlignedDimension
 13
6473.493805508963
 23
4748.437910955183
 33
0.0
 14
7343.493805508963
 24
4748.437910955183
 34
0.0
100
AcDbRotatedDimension
  0
DIMENSION
  5
24F3
330
1F
100
AcDbEntity
  8
DIM
100
AcDbDimension
  2
*D103
 10
6473.493805508963
 20
4913.437910955183
 30
0.0
 11
6540.993805508962
 21
4948.437910955183
 31
0.0
 70
    32
 71
     5
 42
135.0
  3
Standerd
100
AcDbAlignedDimension
 13
6608.493805508962
 23
4763.437910955182
 33
0.0
 14
6473.493805508963
 24
4748.437910955183
 34
0.0
100
AcDbRotatedDimension
  0
DIMENSION
  5
24F4
330
1F
100
AcDbEntity
  8
DIM
100
AcDbDimension
  2
*D104
 10
7208.493805508962
 20
4913.437910955183
 30
0.0
 11
6920.248934990917
 21
4913.437910955183
 31
0.0
 70
   160
 71
     5
 42
600.0
  3
Standerd
100
AcDbAlignedDimension
 13
6608.493805508962
 23
4763.437910955182
 33
0.0
 14
7208.493805508962
 24
4763.437910955182
 34
0.0
100
AcDbRotatedDimension
  0
LINE
  5
24F5
330
1F
100
AcDbEntity
  8
DASHED
 48
2.0
100
AcDbLine
 10
6608.493805508962
 20
4763.437910955182
 30
0.0
 11
6603.493805508962
 21
4663.437910955183
 31
0.0
  0
LINE
  5
24F6
330
1F
100
AcDbEntity
  8
DASHED
 48
2.0
100
AcDbLine
 10
7208.493805508962
 20
4763.437910955182
 30
0.0
 11
7213.493805508962
 21
4663.437910955183
 31
0.0
  0
TEXT
  5
24F7
330
1F
100
AcDbEntity
  8
TXT
100
AcDbText
 10
5943.493805508962
 20
4683.437910955182
 30
0.0
 40
60.0
  1
C  R
 41
1.5
100
AcDbText
  0
LWPOLYLINE
  5
24F8
330
1F
100
AcDbEntity
  8
LATER
100
AcDbPolyline
 90
        6
 70
     1
 43
0.0
 10
6488.493805508962
 20
4763.437910955182
 10
7328.493805508962
 20
4763.437910955182
 42
-0.4142135623730951
 10
7343.493805508963
 20
4748.437910955183
 10
7343.493805508963
 20
4663.437910955183
 10
6473.493805508963
 20
4663.437910955183
 10
6473.493805508963
 20
4748.437910955183
 42
-0.4142135623730951
  0
DIMENSION
  5
24F9
330
1F
100
AcDbEntity
  8
DIM
100
AcDbDimension
  2
*D105
 10
7343.493805508963
 20
4913.437910955183
 30
0.0
 11
7275.993805508962
 21
4948.437910955183
 31
0.0
 70
    32
 71
     5
 42
135.0
  3
Standerd
100
AcDbAlignedDimension
 13
7208.493805508962
 23
4763.437910955182
 33
0.0
 14
7343.493805508963
 24
4748.437910955183
 34
0.0
100
AcDbRotatedDimension
  0
LINE
  5
24FA
330
1F
100
AcDbEntity
  8
DASHED
 48
2.0
100
AcDbLine
 10
7178.138355271996
 20
4583.437910955182
 30
0.0
 11
7208.138355271997
 21
4553.437910955183
 31
0.0
  0
LINE
  5
24FB
330
1F
100
AcDbEntity
  8
DASHED
 48
2.0
100
AcDbLine
 10
6608.849255745929
 20
4553.437910955183
 30
0.0
 11
6638.849255745928
 21
4583.437910955182
 31
0.0
  0
LINE
  5
24FC
330
1F
100
AcDbEntity
  8
DASHED
 48
2.0
100
AcDbLine
 10
7208.138355271997
 20
4583.437910955182
 30
0.0
 11
7213.493805508962
 21
4133.437910955183
 31
0.0
  0
LINE
  5
24FD
330
1F
100
AcDbEntity
  8
DASHED
 48
2.0
100
AcDbLine
 10
7208.493805508962
 20
4583.437910955182
 30
0.0
 11
7213.493805508962
 21
4663.437910955183
 31
0.0
  0
LINE
  5
24FE
330
1F
100
AcDbEntity
  8
DASHED
 48
2.0
100
AcDbLine
 10
6608.849255745929
 20
4583.437910955182
 30
0.0
 11
6603.493805508962
 21
4133.437910955183
 31
0.0
  0
LINE
  5
24FF
330
1F
100
AcDbEntity
  8
DASHED
 48
2.0
100
AcDbLine
 10
6608.493805508962
 20
4583.437910955182
 30
0.0
 11
6603.493805508962
 21
4663.437910955183
 31
0.0
  0
LINE
  5
2500
330
1F
100
AcDbEntity
  8
DASHED
 48
2.0
100
AcDbLine
 10
6608.849255745929
 20
4583.437910955182
 30
0.0
 11
7208.138355271997
 21
4583.437910955182
 31
0.0
  0
LINE
  5
2501
330
1F
100
AcDbEntity
  8
LAYER
100
AcDbLine
 10
6473.493805508963
 20
4583.437910955182
 30
0.0
 11
6543.493805508963
 21
4483.437910955182
 31
0.0
  0
LINE
  5
2502
330
1F
100
AcDbEntity
  8
LAYER
100
AcDbLine
 10
6473.493805508963
 20
4653.437910955182
 30
0.0
 11
6473.493805508963
 21
4583.437910955182
 31
0.0
  0
LINE
  5
2503
330
1F
100
AcDbEntity
  8
LAYER
100
AcDbLine
 10
7343.493805508963
 20
4583.437910955182
 30
0.0
 11
7273.493805508962
 21
4483.437910955182
 31
0.0
  0
LINE
  5
2504
330
1F
100
AcDbEntity
  8
LAYER
100
AcDbLine
 10
7343.493805508963
 20
4653.437910955182
 30
0.0
 11
7343.493805508963
 21
4583.437910955182
 31
0.0
  0
LINE
  5
2505
330
1F
100
AcDbEntity
  8
LAYER
100
AcDbLine
 10
6483.493805508962
 20
4663.437910955183
 30
0.0
 11
7333.493805508962
 21
4663.437910955183
 31
0.0
  0
LINE
  5
2506
330
1F
100
AcDbEntity
  8
LAYER
100
AcDbLine
 10
6543.493805508963
 20
4133.437910955183
 30
0.0
 11
6543.493805508963
 21
4483.437910955182
 31
0.0
  0
LINE
  5
2507
330
1F
100
AcDbEntity
  8
LAYER
100
AcDbLine
 10
7273.493805508962
 20
4133.437910955183
 30
0.0
 11
7273.493805508962
 21
4483.437910955182
 31
0.0
  0
LINE
  5
2508
330
1F
100
AcDbEntity
  8
LAYER
100
AcDbLine
 10
6543.493805508963
 20
4133.437910955183
 30
0.0
 11
7273.493805508962
 21
4133.437910955183
 31
0.0
  0
TEXT
  5
2509
330
1F
100
AcDbEntity
  8
TXT
100
AcDbText
 10
5943.493805508962
 20
4583.437910955182
 30
0.0
 40
60.0
  1
B1-450
 41
1.5
100
AcDbText
  0
DIMENSION
  5
261E
330
1F
100
AcDbEntity
  8
TXT
100
AcDbDimension
  2
*D108
 10
7873.493805508963
 20
3603.437910955183
 30
0.0
 11
7838.493805508962
 21
4183.437910955183
 31
0.0
 70
    32
 71
     5
 42
1160.0
  3
Standerd
100
AcDbAlignedDimension
 13
7328.493805508962
 23
4763.437910955182
 33
0.0
 14
7263.493805508962
 24
3603.437910955183
 34
0.0
 50
90.0
100
AcDbRotatedDimension
  0
LWPOLYLINE
  5
2684
330
1F
100
AcDbEntity
  8
LATER
100
AcDbPolyline
 90
        4
 70
     1
 43
0.0
 10
3123.548688247915
 20
3268.481055518773
 10
3130.61975605978
 20
3275.552123330637
 10
3095.264417000453
 20
3310.907462389966
 10
3088.193349188588
 20
3303.8363945781
  0
LWPOLYLINE
  5
2685
330
1F
100
AcDbEntity
  8
LATER
100
AcDbPolyline
 90
        4
 70
     1
 43
0.0
 10
3088.193349188587
 20
2646.22708807461
 10
3095.264417000453
 20
2639.156020262745
 10
3130.61975605978
 20
2674.511359322072
 10
3123.548688247915
 20
2681.582427133938
  0
LWPOLYLINE
  5
2686
330
1F
100
AcDbEntity
  8
LATER
100
AcDbPolyline
 90
        4
 70
     1
 43
0.0
 10
2501.294720803753
 20
3303.8363945781
 10
2494.223652991887
 20
3310.907462389966
 10
2458.86831393256
 20
3275.552123330638
 10
2465.939381744425
 20
3268.481055518773
  0
LWPOLYLINE
  5
2687
330
1F
100
AcDbEntity
  8
LATER
100
AcDbPolyline
 90
        4
 70
     1
 43
0.0
 10
2465.939381744425
 20
2681.582427133938
 10
2458.86831393256
 20
2674.511359322073
 10
2494.223652991887
 20
2639.156020262745
 10
2501.294720803752
 20
2646.22708807461
  0
CIRCLE
  5
268A
330
1F
100
AcDbEntity
  8
LATER
100
AcDbCircle
 10
2794.74403499617
 20
2975.031741326355
 30
0.0
 40
300.0
  0
CIRCLE
  5
268B
330
1F
100
AcDbEntity
  8
CR
100
AcDbCircle
 10
2794.74403499617
 20
2975.031741326355
 30
0.0
 40
435.0
  0
LINE
  5
268C
330
1F
100
AcDbEntity
  8
CENTER
 48
5.0
100
AcDbLine
 10
2794.744034996172
 20
4560.031741326357
 30
0.0
 11
2794.744034996168
 21
1390.031741326354
 31
0.0
  0
LINE
  5
268D
330
1F
100
AcDbEntity
  8
CENTER
 48
5.0
100
AcDbLine
 10
1209.744034996169
 20
2975.031741326355
 30
0.0
 11
4379.74403499617
 21
2975.031741326355
 31
0.0
  0
LWPOLYLINE
  5
2690
330
1F
100
AcDbEntity
  8
LAYER
100
AcDbPolyline
 90
        8
 70
     1
 43
0.0
 10
2369.74403499617
 20
2540.031741326355
 10
3219.74403499617
 20
2540.031741326355
 10
3229.74403499617
 20
2550.031741326356
 10
3229.74403499617
 20
3400.031741326355
 10
3219.74403499617
 20
3410.031741326355
 10
2369.74403499617
 20
3410.031741326355
 10
2359.74403499617
 20
3400.031741326355
 10
2359.74403499617
 20
2550.031741326356
  0
LINE
  5
26BB
330
1F
100
AcDbEntity
  8
LAYER
100
AcDbLine
 10
2429.74403499617
 20
2010.031741326355
 30
0.0
 11
3159.74403499617
 21
2010.031741326355
 31
0.0
  0
LINE
  5
26BC
330
1F
100
AcDbEntity
  8
LAYER
100
AcDbLine
 10
3159.74403499617
 20
2010.031741326355
 30
0.0
 11
3159.74403499617
 21
2360.031741326355
 31
0.0
  0
LINE
  5
26BD
330
1F
100
AcDbEntity
  8
LAYER
100
AcDbLine
 10
2429.74403499617
 20
2010.031741326355
 30
0.0
 11
2429.74403499617
 21
2360.031741326355
 31
0.0
  0
LINE
  5
26BE
330
1F
100
AcDbEntity
  8
LAYER
100
AcDbLine
 10
2369.74403499617
 20
2540.031741326355
 30
0.0
 11
3219.74403499617
 21
2540.031741326355
 31
0.0
  0
LINE
  5
26BF
330
1F
100
AcDbEntity
  8
LAYER
100
AcDbLine
 10
3229.74403499617
 20
2530.031741326355
 30
0.0
 11
3229.74403499617
 21
2460.031741326356
 31
0.0
  0
LINE
  5
26C0
330
1F
100
AcDbEntity
  8
LAYER
100
AcDbLine
 10
3229.74403499617
 20
2460.031741326356
 30
0.0
 11
3159.74403499617
 21
2360.031741326355
 31
0.0
  0
LINE
  5
26C1
330
1F
100
AcDbEntity
  8
LAYER
100
AcDbLine
 10
2359.74403499617
 20
2530.031741326355
 30
0.0
 11
2359.74403499617
 21
2460.031741326356
 31
0.0
  0
LINE
  5
26C2
330
1F
100
AcDbEntity
  8
LAYER
100
AcDbLine
 10
2359.74403499617
 20
2460.031741326356
 30
0.0
 11
2429.74403499617
 21
2360.031741326355
 31
0.0
  0
LINE
  5
26CD
330
1F
100
AcDbEntity
  8
LAYER
100
AcDbLine
 10
2359.74403499617
 20
2530.031741326355
 30
0.0
 11
2369.74403499617
 21
2540.031741326355
 31
0.0
  0
LINE
  5
26CE
330
1F
100
AcDbEntity
  8
LAYER
100
AcDbLine
 10
3219.74403499617
 20
2540.031741326355
 30
0.0
 11
3229.74403499617
 21
2530.031741326355
 31
0.0
  0
LINE
  5
26FE
330
1F
100
AcDbEntity
  8
LAYER
100
AcDbLine
 10
2359.74403499617
 20
2460.031741326356
 30
0.0
 11
3229.74403499617
 21
2460.031741326356
 31
0.0
  0
LINE
  5
26FF
330
1F
100
AcDbEntity
  8
LAYER
100
AcDbLine
 10
2429.74403499617
 20
2360.031741326355
 30
0.0
 11
3159.74403499617
 21
2360.031741326355
 31
0.0
  0
LINE
  5
2700
330
1F
100
AcDbEntity
  8
LAYER
100
AcDbLine
 10
2429.74403499617
 20
2010.031741326355
 30
0.0
 11
3159.74403499617
 21
2010.031741326355
 31
0.0
  0
LWPOLYLINE
  5
2701
330
1F
100
AcDbEntity
  8
LAYER
100
AcDbPolyline
 90
        6
 70
     1
 43
0.0
 10
2439.74403499617
 20
1480.031741326355
 10
3149.74403499617
 20
1480.031741326355
 10
3159.74403499617
 20
1490.031741326355
 10
3159.74403499617
 20
2010.031741326355
 10
2429.74403499617
 20
2010.031741326355
 10
2429.74403499617
 20
1490.031741326355
  0
LWPOLYLINE
  5
2712
330
1F
100
AcDbEntity
  8
NO
100
AcDbPolyline
 90
        4
 70
     1
 43
0.0
 10
2594.74403499617
 20
1610.031741326355
 10
2994.74403499617
 20
1610.031741326355
 10
2994.74403499617
 20
1910.031741326355
 10
2594.74403499617
 20
1910.031741326355
  0
LWPOLYLINE
  5
2713
330
1F
100
AcDbEntity
  8
NO
100
AcDbPolyline
 90
        4
 70
     1
 43
0.0
 10
2584.74403499617
 20
1600.031741326355
 10
3004.74403499617
 20
1600.031741326355
 10
3004.74403499617
 20
1920.031741326355
 10
2584.74403499617
 20
1920.031741326355
  0
LINE
  5
2714
330
1F
100
AcDbEntity
  8
NO
100
AcDbLine
 10
2584.74403499617
 20
1920.031741326355
 30
0.0
 11
2594.74403499617
 21
1910.031741326355
 31
0.0
  0
LINE
  5
2715
330
1F
100
AcDbEntity
  8
NO
100
AcDbLine
 10
2594.74403499617
 20
1610.031741326355
 30
0.0
 11
2584.74403499617
 21
1600.031741326355
 31
0.0
  0
LINE
  5
2716
330
1F
100
AcDbEntity
  8
NO
100
AcDbLine
 10
2994.74403499617
 20
1910.031741326355
 30
0.0
 11
3004.74403499617
 21
1920.031741326355
 31
0.0
  0
LINE
  5
2717
330
1F
100
AcDbEntity
  8
NO
100
AcDbLine
 10
2994.74403499617
 20
1610.031741326355
 30
0.0
 11
3004.74403499617
 21
1600.031741326355
 31
0.0
  0
LINE
  5
273A
330
1F
100
AcDbEntity
  8
NO2
 48
2.0
100
AcDbLine
 10
6543.493805508963
 20
4043.437910955183
 30
0.0
 11
6563.493805508961
 21
4033.437910955182
 31
0.0
  0
LINE
  5
273B
330
1F
100
AcDbEntity
  8
NO2
 48
2.0
100
AcDbLine
 10
6563.493805508961
 20
4033.437910955182
 30
0.0
 11
6563.493805508961
 21
3733.437910955183
 31
0.0
  0
LINE
  5
273C
330
1F
100
AcDbEntity
  8
NO2
 48
2.0
100
AcDbLine
 10
6563.493805508961
 20
3733.437910955183
 30
0.0
 11
6543.493805508963
 21
3723.437910955183
 31
0.0
  0
LINE
  5
273E
330
1F
100
AcDbEntity
  8
NO
100
AcDbLine
 10
2594.74403499617
 20
4340.031741326355
 30
0.0
 11
2584.74403499617
 21
4350.031741326354
 31
0.0
  0
LINE
  5
273F
330
1F
100
AcDbEntity
  8
NO
100
AcDbLine
 10
2594.74403499617
 20
4040.031741326354
 30
0.0
 11
2584.74403499617
 21
4030.031741326355
 31
0.0
  0
LINE
  5
2740
330
1F
100
AcDbEntity
  8
NO
100
AcDbLine
 10
2994.74403499617
 20
4340.031741326355
 30
0.0
 11
3004.74403499617
 21
4350.031741326354
 31
0.0
  0
LINE
  5
2741
330
1F
100
AcDbEntity
  8
NO
100
AcDbLine
 10
3004.74403499617
 20
4030.031741326355
 30
0.0
 11
2994.74403499617
 21
4040.031741326354
 31
0.0
  0
LWPOLYLINE
  5
2742
330
1F
100
AcDbEntity
  8
NO
100
AcDbPolyline
 90
        4
 70
     1
 43
0.0
 10
3004.74403499617
 20
4350.031741326354
 10
2584.74403499617
 20
4350.031741326354
 10
2584.74403499617
 20
4030.031741326355
 10
3004.74403499617
 20
4030.031741326355
  0
LWPOLYLINE
  5
2743
330
1F
100
AcDbEntity
  8
NO
100
AcDbPolyline
 90
        4
 70
     1
 43
0.0
 10
2994.74403499617
 20
4340.031741326355
 10
2594.74403499617
 20
4340.031741326355
 10
2594.74403499617
 20
4040.031741326354
 10
2994.74403499617
 20
4040.031741326354
  0
LWPOLYLINE
  5
2744
330
1F
100
AcDbEntity
  8
LAYER
100
AcDbPolyline
 90
        6
 70
     1
 43
0.0
 10
3149.74403499617
 20
4470.031741326354
 10
2439.74403499617
 20
4470.031741326354
 10
2429.74403499617
 20
4460.031741326354
 10
2429.744034996169
 20
3940.031741326355
 10
3159.744034996169
 20
3940.031741326355
 10
3159.74403499617
 20
4460.031741326354
  0
LINE
  5
2745
330
1F
100
AcDbEntity
  8
LAYER
100
AcDbLine
 10
3159.744034996169
 20
3940.031741326355
 30
0.0
 11
2429.744034996169
 21
3940.031741326355
 31
0.0
  0
LINE
  5
2746
330
1F
100
AcDbEntity
  8
LAYER
100
AcDbLine
 10
3159.744034996169
 20
3590.031741326355
 30
0.0
 11
2429.744034996169
 21
3590.031741326355
 31
0.0
  0
LINE
  5
2747
330
1F
100
AcDbEntity
  8
LAYER
100
AcDbLine
 10
3229.74403499617
 20
3490.031741326355
 30
0.0
 11
2359.74403499617
 21
3490.031741326355
 31
0.0
  0
LINE
  5
2748
330
1F
100
AcDbEntity
  8
LAYER
100
AcDbLine
 10
2369.74403499617
 20
3410.031741326355
 30
0.0
 11
2359.74403499617
 21
3420.031741326355
 31
0.0
  0
LINE
  5
2749
330
1F
100
AcDbEntity
  8
LAYER
100
AcDbLine
 10
3229.74403499617
 20
3420.031741326355
 30
0.0
 11
3219.74403499617
 21
3410.031741326355
 31
0.0
  0
LINE
  5
274A
330
1F
100
AcDbEntity
  8
LAYER
100
AcDbLine
 10
3229.74403499617
 20
3490.031741326355
 30
0.0
 11
3159.744034996169
 21
3590.031741326355
 31
0.0
  0
LINE
  5
274B
330
1F
100
AcDbEntity
  8
LAYER
100
AcDbLine
 10
3229.74403499617
 20
3420.031741326355
 30
0.0
 11
3229.74403499617
 21
3490.031741326355
 31
0.0
  0
LINE
  5
274C
330
1F
100
AcDbEntity
  8
LAYER
100
AcDbLine
 10
2359.74403499617
 20
3490.031741326355
 30
0.0
 11
2429.744034996169
 21
3590.031741326355
 31
0.0
  0
LINE
  5
274D
330
1F
100
AcDbEntity
  8
LAYER
100
AcDbLine
 10
2359.74403499617
 20
3420.031741326355
 30
0.0
 11
2359.74403499617
 21
3490.031741326355
 31
0.0
  0
LINE
  5
274E
330
1F
100
AcDbEntity
  8
LAYER
100
AcDbLine
 10
3219.74403499617
 20
3410.031741326355
 30
0.0
 11
2369.74403499617
 21
3410.031741326355
 31
0.0
  0
LINE
  5
274F
330
1F
100
AcDbEntity
  8
LAYER
100
AcDbLine
 10
3159.744034996169
 20
3940.031741326355
 30
0.0
 11
3159.744034996169
 21
3590.031741326355
 31
0.0
  0
LINE
  5
2750
330
1F
100
AcDbEntity
  8
LAYER
100
AcDbLine
 10
2429.744034996169
 20
3940.031741326355
 30
0.0
 11
2429.744034996169
 21
3590.031741326355
 31
0.0
  0
LINE
  5
2751
330
1F
100
AcDbEntity
  8
LAYER
100
AcDbLine
 10
3159.744034996169
 20
3940.031741326355
 30
0.0
 11
2429.744034996169
 21
3940.031741326355
 31
0.0
  0
LINE
  5
2752
330
1F
100
AcDbEntity
  8
NO
100
AcDbLine
 10
1429.74403499617
 20
2775.031741326355
 30
0.0
 11
1419.74403499617
 21
2765.031741326355
 31
0.0
  0
LINE
  5
2753
330
1F
100
AcDbEntity
  8
NO
100
AcDbLine
 10
1729.74403499617
 20
2775.031741326355
 30
0.0
 11
1739.74403499617
 21
2765.031741326355
 31
0.0
  0
LINE
  5
2754
330
1F
100
AcDbEntity
  8
NO
100
AcDbLine
 10
1429.74403499617
 20
3175.031741326356
 30
0.0
 11
1419.74403499617
 21
3185.031741326355
 31
0.0
  0
LINE
  5
2755
330
1F
100
AcDbEntity
  8
NO
100
AcDbLine
 10
1739.74403499617
 20
3185.031741326355
 30
0.0
 11
1729.74403499617
 21
3175.031741326356
 31
0.0
  0
LWPOLYLINE
  5
2756
330
1F
100
AcDbEntity
  8
NO
100
AcDbPolyline
 90
        4
 70
     1
 43
0.0
 10
1419.74403499617
 20
3185.031741326355
 10
1419.74403499617
 20
2765.031741326355
 10
1739.74403499617
 20
2765.031741326355
 10
1739.74403499617
 20
3185.031741326355
  0
LWPOLYLINE
  5
2757
330
1F
100
AcDbEntity
  8
NO
100
AcDbPolyline
 90
        4
 70
     1
 43
0.0
 10
1429.74403499617
 20
3175.031741326356
 10
1429.74403499617
 20
2775.031741326355
 10
1729.74403499617
 20
2775.031741326355
 10
1729.74403499617
 20
3175.031741326356
  0
LWPOLYLINE
  5
2758
330
1F
100
AcDbEntity
  8
LAYER
100
AcDbPolyline
 90
        6
 70
     1
 43
0.0
 10
1299.74403499617
 20
3330.031741326355
 10
1299.744034996169
 20
2620.031741326355
 10
1309.744034996169
 20
2610.031741326356
 10
1829.74403499617
 20
2610.031741326356
 10
1829.74403499617
 20
3340.031741326355
 10
1309.74403499617
 20
3340.031741326355
  0
LINE
  5
2759
330
1F
100
AcDbEntity
  8
LAYER
100
AcDbLine
 10
1829.74403499617
 20
3340.031741326355
 30
0.0
 11
1829.74403499617
 21
2610.031741326356
 31
0.0
  0
LINE
  5
275A
330
1F
100
AcDbEntity
  8
LAYER
100
AcDbLine
 10
2179.74403499617
 20
3340.031741326355
 30
0.0
 11
2179.74403499617
 21
2610.031741326356
 31
0.0
  0
LINE
  5
275B
330
1F
100
AcDbEntity
  8
LAYER
100
AcDbLine
 10
2279.74403499617
 20
3410.031741326355
 30
0.0
 11
2279.74403499617
 21
2540.031741326355
 31
0.0
  0
LINE
  5
275C
330
1F
100
AcDbEntity
  8
LAYER
100
AcDbLine
 10
2359.74403499617
 20
2550.031741326356
 30
0.0
 11
2349.74403499617
 21
2540.031741326355
 31
0.0
  0
LINE
  5
275D
330
1F
100
AcDbEntity
  8
LAYER
100
AcDbLine
 10
2349.74403499617
 20
3410.031741326355
 30
0.0
 11
2359.74403499617
 21
3400.031741326355
 31
0.0
  0
LINE
  5
275E
330
1F
100
AcDbEntity
  8
LAYER
100
AcDbLine
 10
2279.74403499617
 20
3410.031741326355
 30
0.0
 11
2179.74403499617
 21
3340.031741326355
 31
0.0
  0
LINE
  5
275F
330
1F
100
AcDbEntity
  8
LAYER
100
AcDbLine
 10
2349.74403499617
 20
3410.031741326355
 30
0.0
 11
2279.74403499617
 21
3410.031741326355
 31
0.0
  0
LINE
  5
2760
330
1F
100
AcDbEntity
  8
LAYER
100
AcDbLine
 10
2279.74403499617
 20
2540.031741326355
 30
0.0
 11
2179.74403499617
 21
2610.031741326356
 31
0.0
  0
LINE
  5
2761
330
1F
100
AcDbEntity
  8
LAYER
100
AcDbLine
 10
2349.74403499617
 20
2540.031741326355
 30
0.0
 11
2279.74403499617
 21
2540.031741326355
 31
0.0
  0
LINE
  5
2762
330
1F
100
AcDbEntity
  8
LAYER
100
AcDbLine
 10
2359.74403499617
 20
3400.031741326355
 30
0.0
 11
2359.74403499617
 21
2550.031741326356
 31
0.0
  0
LINE
  5
2763
330
1F
100
AcDbEntity
  8
LAYER
100
AcDbLine
 10
1829.74403499617
 20
3340.031741326355
 30
0.0
 11
2179.74403499617
 21
3340.031741326355
 31
0.0
  0
LINE
  5
2764
330
1F
100
AcDbEntity
  8
LAYER
100
AcDbLine
 10
1829.74403499617
 20
2610.031741326356
 30
0.0
 11
2179.74403499617
 21
2610.031741326356
 31
0.0
  0
LINE
  5
2765
330
1F
100
AcDbEntity
  8
LAYER
100
AcDbLine
 10
1829.74403499617
 20
3340.031741326355
 30
0.0
 11
1829.74403499617
 21
2610.031741326356
 31
0.0
  0
LINE
  5
2766
330
1F
100
AcDbEntity
  8
NO
100
AcDbLine
 10
4159.744034996171
 20
3175.031741326356
 30
0.0
 11
4169.74403499617
 21
3185.031741326355
 31
0.0
  0
LINE
  5
2767
330
1F
100
AcDbEntity
  8
NO
100
AcDbLine
 10
3859.744034996171
 20
3175.031741326356
 30
0.0
 11
3849.744034996171
 21
3185.031741326355
 31
0.0
  0
LINE
  5
2768
330
1F
100
AcDbEntity
  8
NO
100
AcDbLine
 10
4159.744034996171
 20
2775.031741326355
 30
0.0
 11
4169.74403499617
 21
2765.031741326355
 31
0.0
  0
LINE
  5
2769
330
1F
100
AcDbEntity
  8
NO
100
AcDbLine
 10
3849.744034996171
 20
2765.031741326355
 30
0.0
 11
3859.744034996171
 21
2775.031741326355
 31
0.0
  0
LWPOLYLINE
  5
276A
330
1F
100
AcDbEntity
  8
NO
100
AcDbPolyline
 90
        4
 70
     1
 43
0.0
 10
4169.74403499617
 20
2765.031741326355
 10
4169.74403499617
 20
3185.031741326355
 10
3849.744034996171
 20
3185.031741326355
 10
3849.744034996171
 20
2765.031741326355
  0
LWPOLYLINE
  5
276B
330
1F
100
AcDbEntity
  8
NO
100
AcDbPolyline
 90
        4
 70
     1
 43
0.0
 10
4159.744034996171
 20
2775.031741326355
 10
4159.744034996171
 20
3175.031741326356
 10
3859.744034996171
 20
3175.031741326356
 10
3859.744034996171
 20
2775.031741326355
  0
LWPOLYLINE
  5
276C
330
1F
100
AcDbEntity
  8
LAYER
100
AcDbPolyline
 90
        6
 70
     1
 43
0.0
 10
4289.744034996171
 20
2620.031741326355
 10
4289.744034996171
 20
3330.031741326355
 10
4279.744034996171
 20
3340.031741326355
 10
3759.744034996171
 20
3340.031741326355
 10
3759.744034996171
 20
2610.031741326356
 10
4279.744034996171
 20
2610.031741326356
  0
LINE
  5
276D
330
1F
100
AcDbEntity
  8
LAYER
100
AcDbLine
 10
3759.744034996171
 20
2610.031741326356
 30
0.0
 11
3759.744034996171
 21
3340.031741326355
 31
0.0
  0
LINE
  5
276E
330
1F
100
AcDbEntity
  8
LAYER
100
AcDbLine
 10
3409.74403499617
 20
2610.031741326356
 30
0.0
 11
3409.74403499617
 21
3340.031741326355
 31
0.0
  0
LINE
  5
276F
330
1F
100
AcDbEntity
  8
LAYER
100
AcDbLine
 10
3309.74403499617
 20
2540.031741326355
 30
0.0
 11
3309.74403499617
 21
3410.031741326355
 31
0.0
  0
LINE
  5
2770
330
1F
100
AcDbEntity
  8
LAYER
100
AcDbLine
 10
3229.744034996171
 20
3400.031741326355
 30
0.0
 11
3239.744034996171
 21
3410.031741326355
 31
0.0
  0
LINE
  5
2771
330
1F
100
AcDbEntity
  8
LAYER
100
AcDbLine
 10
3239.744034996171
 20
2540.031741326355
 30
0.0
 11
3229.744034996171
 21
2550.031741326356
 31
0.0
  0
LINE
  5
2772
330
1F
100
AcDbEntity
  8
LAYER
100
AcDbLine
 10
3309.74403499617
 20
2540.031741326355
 30
0.0
 11
3409.74403499617
 21
2610.031741326356
 31
0.0
  0
LINE
  5
2773
330
1F
100
AcDbEntity
  8
LAYER
100
AcDbLine
 10
3239.744034996171
 20
2540.031741326355
 30
0.0
 11
3309.74403499617
 21
2540.031741326355
 31
0.0
  0
LINE
  5
2774
330
1F
100
AcDbEntity
  8
LAYER
100
AcDbLine
 10
3309.74403499617
 20
3410.031741326355
 30
0.0
 11
3409.74403499617
 21
3340.031741326355
 31
0.0
  0
LINE
  5
2775
330
1F
100
AcDbEntity
  8
LAYER
100
AcDbLine
 10
3239.744034996171
 20
3410.031741326355
 30
0.0
 11
3309.74403499617
 21
3410.031741326355
 31
0.0
  0
LINE
  5
2776
330
1F
100
AcDbEntity
  8
LAYER
100
AcDbLine
 10
3229.744034996171
 20
2550.031741326356
 30
0.0
 11
3229.744034996171
 21
3400.031741326355
 31
0.0
  0
LINE
  5
2777
330
1F
100
AcDbEntity
  8
LAYER
100
AcDbLine
 10
3759.744034996171
 20
2610.031741326356
 30
0.0
 11
3409.74403499617
 21
2610.031741326356
 31
0.0
  0
LINE
  5
2778
330
1F
100
AcDbEntity
  8
LAYER
100
AcDbLine
 10
3759.744034996171
 20
3340.031741326355
 30
0.0
 11
3409.74403499617
 21
3340.031741326355
 31
0.0
  0
LINE
  5
2779
330
1F
100
AcDbEntity
  8
LAYER
100
AcDbLine
 10
3759.744034996171
 20
2610.031741326356
 30
0.0
 11
3759.744034996171
 21
3340.031741326355
 31
0.0
  0
VIEWPORT
  5
1125
330
111E
100
AcDbEntity
 67
     1
  8
0
100
AcDbViewport
 10
5.249999639556162
 20
3.999999883606676
 30
0.0
 40
15.3246281934636
 41
8.992999745766947
 68
     1
 69
     1
 12
5.249999639556162
 22
3.999999883606676
 13
0.0
 23
0.0
 14
10.0
 24
10.0
 15
10.0
 25
10.0
 16
0.0
 26
0.0
 36
1.0
 17
0.0
 27
0.0
 37
0.0
 42
50.0
 43
0.0
 44
0.0
 45
8.992999745766947
 50
0.0
 51
0.0
 72
   100
 90
    32800
  1

281
     0
 71
     1
 74
     0
110
0.0
120
0.0
130
0.0
111
1.0
121
0.0
131
0.0
112
0.0
122
1.0
132
0.0
 79
     0
146
0.0
170
     0
  0
VIEWPORT
  5
1127
330
111E
100
AcDbEntity
 67
     1
  8
TXT
100
AcDbViewport
 10
5.24999976158142
 20
3.999999761581419
 30
0.0
 40
8.399999618530271
 41
6.399999618530272
 68
     2
 69
     2
 12
4090.0
 22
2857.5
 13
0.0
 23
0.0
 14
10.0
 24
10.0
 15
10.0
 25
10.0
 16
0.0
 26
0.0
 36
1.0
 17
0.0
 27
0.0
 37
0.0
 42
50.0
 43
0.0
 44
0.0
 45
6263.679025907926
 50
0.0
 51
0.0
 72
   100
 90
    32864
  1

281
     0
 71
     1
 74
     0
110
0.0
120
0.0
130
0.0
111
1.0
121
0.0
131
0.0
112
0.0
122
1.0
132
0.0
 79
     0
146
0.0
170
     0
  0
ENDSEC
  0
SECTION
  2
OBJECTS
  0
DICTIONARY
  5
C
330
0
100
AcDbDictionary
281
     1
  3
ACAD_COLOR
350
32E
  3
ACAD_GROUP
350
D
  3
ACAD_LAYOUT
350
1A
  3
ACAD_MATERIAL
350
32D
  3
ACAD_MLINESTYLE
350
17
  3
ACAD_PLOTSETTINGS
350
19
  3
ACAD_PLOTSTYLENAME
350
E
  0
DICTIONARY
  5
32E
102
{ACAD_REACTORS
330
C
102
}
330
C
100
AcDbDictionary
281
     1
  0
DICTIONARY
  5
D
102
{ACAD_REACTORS
330
C
102
}
330
C
100
AcDbDictionary
281
     1
  0
DICTIONARY
  5
1A
102
{ACAD_REACTORS
330
C
102
}
330
C
100
AcDbDictionary
281
     1
  3
Model
350
22
  3
レイアウト1
350
111F
  0
DICTIONARY
  5
32D
102
{ACAD_REACTORS
330
C
102
}
330
C
100
AcDbDictionary
281
     1
  0
DICTIONARY
  5
17
102
{ACAD_REACTORS
330
C
102
}
330
C
100
AcDbDictionary
281
     1
  3
Standard
350
18
  0
DICTIONARY
  5
19
102
{ACAD_REACTORS
330
C
102
}
330
C
100
AcDbDictionary
281
     1
  0
ACDBDICTIONARYWDFLT
  5
E
102
{ACAD_REACTORS
330
C
102
}
330
C
100
AcDbDictionary
281
     1
  3
Normal
350
F
100
AcDbDictionaryWithDefault
340
F
  0
LAYOUT
  5
22
102
{ACAD_REACTORS
330
1A
102
}
330
1A
100
AcDbPlotSettings
  1

  2
none_device
  4
Letter_(8.50_x_11.00_Inches)
  6

 40
6.349999904632567
 41
6.349999904632567
 42
6.350006103515625
 43
6.350006103515625
 44
215.8999938964844
 45
279.3999938964844
 46
0.0
 47
0.0
 48
0.0
 49
0.0
140
0.0
141
0.0
142
1.0
143
938.2644717309725
 70
 11920
 72
     0
 73
     1
 74
     0
  7

 75
     0
147
0.0010657975764074
 76
     0
 77
     2
 78
   150
148
21229.94326567703
149
842.9130745896639
100
AcDbLayout
  1
Model
 70
     1
 71
     0
 10
0.0
 20
0.0
 11
12.0
 21
9.0
 12
0.0
 22
0.0
 32
0.0
 14
0.0
 24
0.0
 34
0.0
 15
0.0
 25
0.0
 35
0.0
146
0.0
 13
0.0
 23
0.0
 33
0.0
 16
1.0
 26
0.0
 36
0.0
 17
0.0
 27
1.0
 37
0.0
 76
     0
330
1F
  0
LAYOUT
  5
111F
102
{ACAD_REACTORS
330
1A
102
}
330
1A
100
AcDbPlotSettings
  1

  2
none_device
  4
Letter_(8.50_x_11.00_Inches)
  6

 40
6.349999904632567
 41
6.349999904632567
 42
6.350006103515625
 43
6.350006103515625
 44
215.8999938964844
 45
279.3999938964844
 46
0.0
 47
0.0
 48
0.0
 49
0.0
140
0.0
141
0.0
142
1.0
143
1.0
 70
   688
 72
     0
 73
     1
 74
     5
  7
monochrome.ctb
 75
    16
147
1.0
 76
     1
 77
     2
 78
   150
148
0.0
149
0.0
100
AcDbLayout
  1
レイアウト1
 70
     1
 71
     1
 10
-0.2500002402958907
 20
-0.2499999962453767
 11
10.74999951940821
 21
8.249999763458731
 12
0.0
 22
0.0
 32
0.0
 14
1.049999952316283
 24
0.7999999523162842
 34
0.0
 15
9.449999570846555
 25
7.199999570846556
 35
0.0
146
0.0
 13
0.0
 23
0.0
 33
0.0
 16
1.0
 26
0.0
 36
0.0
 17
0.0
 27
1.0
 37
0.0
 76
     0
330
111E
331
1125
  0
MLINESTYLE
  5
18
102
{ACAD_REACTORS
330
17
102
}
330
17
100
AcDbMlineStyle
  2
STANDARD
 70
     0
  3

 62
   256
 51
90.0
 52
90.0
 71
     2
 49
0.5
 62
   256
  6
BYLAYER
 49
-0.5
 62
   256
  6
BYLAYER
  0
ACDBPLACEHOLDER
  5
F
102
{ACAD_REACTORS
330
E
102
}
330
E
  0
ENDSEC
  0
EOF
