  0
SECTION
  2
HEADER
  9
$ACADVER
  1
AC1018
  9
$ACADMAINTVER
 70
     0
  9
$DWGCODEPAGE
  3
ANSI_932
  9
$INSBASE
 10
0.0
 20
0.0
 30
0.0
  9
$EXTMIN
 10
30.00000000000037
 20
30.0
 30
0.0
  9
$EXTMAX
 10
8150.0
 20
5685.0
 30
0.0
  9
$LIMMIN
 10
0.0
 20
0.0
  9
$LIMMAX
 10
8179.999999999999
 20
5715.0
  9
$ORTHOMODE
 70
     1
  9
$REGENMODE
 70
     1
  9
$FILLMODE
 70
     1
  9
$QTEXTMODE
 70
     0
  9
$MIRRTEXT
 70
     1
  9
$LTSCALE
 40
1.0
  9
$ATTMODE
 70
     1
  9
$TEXTSIZE
 40
2.5
  9
$TRACEWID
 40
1.0
  9
$TEXTSTYLE
  7
Standard
  9
$CLAYER
  8
DIM
  9
$CELTYPE
  6
ByLayer
  9
$CECOLOR
 62
   256
  9
$CELTSCALE
 40
1.0
  9
$DISPSILH
 70
     0
  9
$DIMSCALE
 40
1.0
  9
$DIMASZ
 40
40.0
  9
$DIMEXO
 40
70.0
  9
$DIMDLI
 40
150.0
  9
$DIMRND
 40
0.0
  9
$DIMDLE
 40
0.0
  9
$DIMEXE
 40
30.0
  9
$DIMTP
 40
0.0
  9
$DIMTM
 40
0.0
  9
$DIMTXT
 40
40.0
  9
$DIMCEN
 40
2.0
  9
$DIMTSZ
 40
0.0
  9
$DIMTOL
 70
     0
  9
$DIMLIM
 70
     0
  9
$DIMTIH
 70
     0
  9
$DIMTOH
 70
     0
  9
$DIMSE1
 70
     0
  9
$DIMSE2
 70
     0
  9
$DIMTAD
 70
     1
  9
$DIMZIN
 70
     8
  9
$DIMBLK
  1

  9
$DIMASO
 70
     1
  9
$DIMSHO
 70
     1
  9
$DIMPOST
  1

  9
$DIMAPOST
  1

  9
$DIMALT
 70
     0
  9
$DIMALTD
 70
     3
  9
$DIMALTF
 40
0.03937007874016
  9
$DIMLFAC
 40
1.0
  9
$DIMTOFL
 70
     0
  9
$DIMTVP
 40
0.0
  9
$DIMTIX
 70
     0
  9
$DIMSOXD
 70
     0
  9
$DIMSAH
 70
     0
  9
$DIMBLK1
  1

  9
$DIMBLK2
  1

  9
$DIMSTYLE
  2
Standerd
  9
$DIMCLRD
 70
     0
  9
$DIMCLRE
 70
     0
  9
$DIMCLRT
 70
     0
  9
$DIMTFAC
 40
1.0
  9
$DIMGAP
 40
15.0
  9
$DIMJUST
 70
     0
  9
$DIMSD1
 70
     0
  9
$DIMSD2
 70
     0
  9
$DIMTOLJ
 70
     0
  9
$DIMTZIN
 70
     8
  9
$DIMALTZ
 70
     0
  9
$DIMALTTZ
 70
     0
  9
$DIMUPT
 70
     0
  9
$DIMDEC
 70
     2
  9
$DIMTDEC
 70
     2
  9
$DIMALTU
 70
     2
  9
$DIMALTTD
 70
     3
  9
$DIMTXSTY
  7
Standard
  9
$DIMAUNIT
 70
     0
  9
$DIMADEC
 70
     0
  9
$DIMALTRND
 40
0.0
  9
$DIMAZIN
 70
     0
  9
$DIMDSEP
 70
    46
  9
$DIMATFIT
 70
     3
  9
$DIMFRAC
 70
     0
  9
$DIMLDRBLK
  1

  9
$DIMLUNIT
 70
     2
  9
$DIMLWD
 70
    -2
  9
$DIMLWE
 70
    -2
  9
$DIMTMOVE
 70
     0
  9
$LUNITS
 70
     2
  9
$LUPREC
 70
     2
  9
$SKETCHINC
 40
1.0
  9
$FILLETRAD
 40
10.0
  9
$AUNITS
 70
     0
  9
$AUPREC
 70
     0
  9
$MENU
  1
.
  9
$ELEVATION
 40
0.0
  9
$PELEVATION
 40
0.0
  9
$THICKNESS
 40
0.0
  9
$LIMCHECK
 70
     0
  9
$CHAMFERA
 40
10.0
  9
$CHAMFERB
 40
10.0
  9
$CHAMFERC
 40
20.0
  9
$CHAMFERD
 40
0.0
  9
$SKPOLY
 70
     0
  9
$TDCREATE
 40
2452621.494232755
  9
$TDUCREATE
 40
2452621.119232755
  9
$TDUPDATE
 40
2453957.756298218
  9
$TDUUPDATE
 40
2453957.381298217
  9
$TDINDWG
 40
0.2231795602
  9
$TDUSRTIMER
 40
0.2231795602
  9
$USRTIMER
 70
     1
  9
$ANGBASE
 50
0.0
  9
$ANGDIR
 70
     0
  9
$PDMODE
 70
     0
  9
$PDSIZE
 40
0.0
  9
$PLINEWID
 40
0.0
  9
$SPLFRAME
 70
     0
  9
$SPLINETYPE
 70
     6
  9
$SPLINESEGS
 70
     8
  9
$HANDSEED
  5
2774
  9
$SURFTAB1
 70
     6
  9
$SURFTAB2
 70
     6
  9
$SURFTYPE
 70
     6
  9
$SURFU
 70
     6
  9
$SURFV
 70
     6
  9
$UCSBASE
  2

  9
$UCSNAME
  2

  9
$UCSORG
 10
0.0
 20
0.0
 30
0.0
  9
$UCSXDIR
 10
1.0
 20
0.0
 30
0.0
  9
$UCSYDIR
 10
0.0
 20
1.0
 30
0.0
  9
$UCSORTHOREF
  2

  9
$UCSORTHOVIEW
 70
     0
  9
$UCSORGTOP
 10
0.0
 20
0.0
 30
0.0
  9
$UCSORGBOTTOM
 10
0.0
 20
0.0
 30
0.0
  9
$UCSORGLEFT
 10
0.0
 20
0.0
 30
0.0
  9
$UCSORGRIGHT
 10
0.0
 20
0.0
 30
0.0
  9
$UCSORGFRONT
 10
0.0
 20
0.0
 30
0.0
  9
$UCSORGBACK
 10
0.0
 20
0.0
 30
0.0
  9
$PUCSBASE
  2

  9
$PUCSNAME
  2

  9
$PUCSORG
 10
0.0
 20
0.0
 30
0.0
  9
$PUCSXDIR
 10
1.0
 20
0.0
 30
0.0
  9
$PUCSYDIR
 10
0.0
 20
1.0
 30
0.0
  9
$PUCSORTHOREF
  2

  9
$PUCSORTHOVIEW
 70
     0
  9
$PUCSORGTOP
 10
0.0
 20
0.0
 30
0.0
  9
$PUCSORGBOTTOM
 10
0.0
 20
0.0
 30
0.0
  9
$PUCSORGLEFT
 10
0.0
 20
0.0
 30
0.0
  9
$PUCSORGRIGHT
 10
0.0
 20
0.0
 30
0.0
  9
$PUCSORGFRONT
 10
0.0
 20
0.0
 30
0.0
  9
$PUCSORGBACK
 10
0.0
 20
0.0
 30
0.0
  9
$USERI1
 70
     0
  9
$USERI2
 70
     0
  9
$USERI3
 70
     0
  9
$USERI4
 70
     0
  9
$USERI5
 70
     0
  9
$USERR1
 40
0.0
  9
$USERR2
 40
0.0
  9
$USERR3
 40
0.0
  9
$USERR4
 40
0.0
  9
$USERR5
 40
0.0
  9
$WORLDVIEW
 70
     1
  9
$SHADEDGE
 70
     3
  9
$SHADEDIF
 70
    70
  9
$TILEMODE
 70
     1
  9
$MAXACTVP
 70
    64
  9
$PINSBASE
 10
0.0
 20
0.0
 30
0.0
  9
$PLIMCHECK
 70
     0
  9
$PEXTMIN
 10
1.049999952316284
 20
0.7999999523162842
 30
0.0
  9
$PEXTMAX
 10
9.449999570846555
 20
7.199999570846556
 30
0.0
  9
$PLIMMIN
 10
-0.2500002402958907
 20
-0.2499999962453767
  9
$PLIMMAX
 10
10.74999951940821
 20
8.249999763458731
  9
$UNITMODE
 70
     0
  9
$VISRETAIN
 70
     1
  9
$PLINEGEN
 70
     0
  9
$PSLTSCALE
 70
     1
  9
$TREEDEPTH
 70
  3020
  9
$CMLSTYLE
  2
Standard
  9
$CMLJUST
 70
     0
  9
$CMLSCALE
 40
20.0
  9
$PROXYGRAPHICS
 70
     1
  9
$MEASUREMENT
 70
     1
  9
$CELWEIGHT
370
    -1
  9
$ENDCAPS
280
     0
  9
$JOINSTYLE
280
     0
  9
$LWDISPLAY
290
     0
  9
$INSUNITS
 70
     4
  9
$HYPERLINKBASE
  1

  9
$STYLESHEET
  1
monochrome.ctb
  9
$XEDIT
290
     1
  9
$CEPSNTYPE
380
     0
  9
$PSTYLEMODE
290
     1
  9
$FINGERPRINTGUID
  2
{6E626E7D-BCE8-4A34-9F3D-2964C1FA831F}
  9
$VERSIONGUID
  2
{D4411973-B9EF-4540-B2CB-6CC787475C68}
  9
$EXTNAMES
290
     1
  9
$PSVPSCALE
 40
0.0
  9
$OLESTARTUP
290
     0
  9
$SORTENTS
280
   127
  9
$INDEXCTL
280
     0
  9
$HIDETEXT
280
     0
  9
$XCLIPFRAME
290
     0
  9
$HALOGAP
280
     0
  9
$OBSCOLOR
 70
   257
  9
$OBSLTYPE
280
     0
  9
$INTERSECTIONDISPLAY
280
     0
  9
$INTERSECTIONCOLOR
 70
   257
  9
$DIMASSOC
280
     1
  9
$PROJECTNAME
  1

  0
ENDSEC
  0
SECTION
  2
CLASSES
  0
CLASS
  1
ACDBDICTIONARYWDFLT
  2
AcDbDictionaryWithDefault
  3
ObjectDBX Classes
 90
        0
 91
        1
280
     0
281
     0
  0
ENDSEC
  0
SECTION
  2
TABLES
  0
TABLE
  2
VPORT
  5
8
330
0
100
AcDbSymbolTable
 70
     2
  0
VPORT
  5
2773
330
8
100
AcDbSymbolTableRecord
100
AcDbViewportTableRecord
  2
*Active
 70
     0
 10
0.0
 20
0.0
 11
1.0
 21
1.0
 12
4090.000019045544
 22
2857.500013306274
 13
0.0
 23
0.0
 14
10.0
 24
10.0
 15
10.0
 25
10.0
 16
0.0
 26
0.0
 36
1.0
 17
0.0
 27
0.0
 37
0.0
 40
5717.781517268076
 41
1.637707948243992
 42
50.0
 43
0.0
 44
0.0
 50
0.0
 51
0.0
 71
     0
 72
   100
 73
     1
 74
     3
 75
     0
 76
     0
 77
     0
 78
     0
281
     0
 65
     1
110
0.0
120
0.0
130
0.0
111
1.0
121
0.0
131
0.0
112
0.0
122
1.0
132
0.0
 79
     0
146
0.0
  0
ENDTAB
  0
TABLE
  2
LTYPE
  5
5
330
0
100
AcDbSymbolTable
 70
     3
  0
LTYPE
  5
14
330
5
100
AcDbSymbolTableRecord
100
AcDbLinetypeTableRecord
  2
ByBlock
 70
     0
  3

 72
    65
 73
     0
 40
0.0
  0
LTYPE
  5
15
330
5
100
AcDbSymbolTableRecord
100
AcDbLinetypeTableRecord
  2
ByLayer
 70
     0
  3

 72
    65
 73
     0
 40
0.0
  0
LTYPE
  5
16
330
5
100
AcDbSymbolTableRecord
100
AcDbLinetypeTableRecord
  2
Continuous
 70
     0
  3
Solid line
 72
    65
 73
     0
 40
0.0
  0
LTYPE
  5
35
330
5
100
AcDbSymbolTableRecord
100
AcDbLinetypeTableRecord
  2
DASHED
 70
     0
  3
Dashed __ __ __ __ __ __ __ __ __ __ __ __ __ _
 72
    65
 73
     2
 40
19.05
 49
12.7
 74
     0
 49
-6.349999999999999
 74
     0
  0
LTYPE
  5
36
330
5
100
AcDbSymbolTableRecord
100
AcDbLinetypeTableRecord
  2
CENTER
 70
     0
  3
Center ____ _ ____ _ ____ _ ____ _ ____ _ ____
 72
    65
 73
     4
 40
50.8
 49
31.75
 74
     0
 49
-6.349999999999999
 74
     0
 49
6.349999999999999
 74
     0
 49
-6.349999999999999
 74
     0
  0
ENDTAB
  0
TABLE
  2
LAYER
  5
2
330
0
100
AcDbSymbolTable
 70
    15
  0
LAYER
  5
10
330
2
100
AcDbSymbolTableRecord
100
AcDbLayerTableRecord
  2
0
 70
     0
 62
     7
  6
Continuous
370
    -3
390
F
  0
LAYER
  5
37
330
2
100
AcDbSymbolTableRecord
100
AcDbLayerTableRecord
  2
DASHED
 70
     0
 62
     7
  6
DASHED
370
    -3
390
F
  0
LAYER
  5
38
330
2
100
AcDbSymbolTableRecord
100
AcDbLayerTableRecord
  2
DIM
 70
     0
 62
     7
  6
Continuous
370
    -3
390
F
  0
LAYER
  5
39
330
2
100
AcDbSymbolTableRecord
100
AcDbLayerTableRecord
  2
LATER
 70
     0
 62
     7
  6
Continuous
370
    -3
390
F
  0
LAYER
  5
3A
330
2
100
AcDbSymbolTableRecord
100
AcDbLayerTableRecord
  2
CENTER
 70
     0
 62
     7
  6
CENTER
370
    -3
390
F
  0
LAYER
  5
3B
330
2
100
AcDbSymbolTableRecord
100
AcDbLayerTableRecord
  2
TXT
 70
     0
 62
     7
  6
Continuous
370
    -3
390
F
  0
LAYER
  5
58
330
2
100
AcDbSymbolTableRecord
100
AcDbLayerTableRecord
  2
FLAM
 70
     0
 62
     5
  6
Continuous
370
    -3
390
F
  0
LAYER
  5
59
330
2
100
AcDbSymbolTableRecord
100
AcDbLayerTableRecord
  2
LAYER
 70
     0
 62
     7
  6
Continuous
370
    -3
390
F
  0
LAYER
  5
97
330
2
100
AcDbSymbolTableRecord
100
AcDbLayerTableRecord
  2
Defpoints
 70
     0
 62
     7
  6
Continuous
290
     0
370
    -3
390
F
  0
LAYER
  5
12E
330
2
100
AcDbSymbolTableRecord
100
AcDbLayerTableRecord
  2
LAYER2
 70
     0
 62
     7
  6
Continuous
370
    -3
390
F
  0
LAYER
  5
4B9
330
2
100
AcDbSymbolTableRecord
100
AcDbLayerTableRecord
  2
NO
 70
     0
 62
     7
  6
Continuous
370
    -3
390
F
  0
LAYER
  5
4BA
330
2
100
AcDbSymbolTableRecord
100
AcDbLayerTableRecord
  2
NO2
 70
     0
 62
     7
  6
DASHED
370
    -3
390
F
  0
LAYER
  5
50E
330
2
100
AcDbSymbolTableRecord
100
AcDbLayerTableRecord
  2
CR
 70
     0
 62
     7
  6
Continuous
370
    -3
390
F
  0
LAYER
  5
CD5
330
2
100
AcDbSymbolTableRecord
100
AcDbLayerTableRecord
  2
DIM2
 70
     0
 62
     7
  6
Continuous
370
    -3
390
F
  0
LAYER
  5
CD6
330
2
100
AcDbSymbolTableRecord
100
AcDbLayerTableRecord
  2
TEXT
 70
     0
 62
     7
  6
Continuous
370
    -3
390
F
  0
ENDTAB
  0
TABLE
  2
STYLE
  5
3
330
0
100
AcDbSymbolTable
 70
     2
  0
STYLE
  5
11
330
3
100
AcDbSymbolTableRecord
100
AcDbTextStyleTableRecord
  2
Standard
 70
     0
 40
0.0
 41
1.0
 50
0.0
 71
     0
 42
2.5
  3
isocp.shx
  4
extfont.shx
  0
STYLE
  5
34
330
3
100
AcDbSymbolTableRecord
100
AcDbTextStyleTableRecord
  2

 70
     1
 40
0.0
 41
1.0
 50
0.0
 71
     0
 42
2.5
  3
ltypeshp.shx
  4

  0
ENDTAB
  0
TABLE
  2
VIEW
  5
6
330
0
100
AcDbSymbolTable
 70
     0
  0
ENDTAB
  0
TABLE
  2
UCS
  5
7
330
0
100
AcDbSymbolTable
 70
     0
  0
ENDTAB
  0
TABLE
  2
APPID
  5
9
330
0
100
AcDbSymbolTable
 70
     1
  0
APPID
  5
12
330
9
100
AcDbSymbolTableRecord
100
AcDbRegAppTableRecord
  2
ACAD
 70
     0
  0
ENDTAB
  0
TABLE
  2
DIMSTYLE
  5
A
330
0
100
AcDbSymbolTable
 70
     5
100
AcDbDimStyleTable
 71
     1
340
27
  0
DIMSTYLE
105
27
102
{ACAD_REACTORS
330
1CC4
330
1CC5
330
1CC8
330
1CCA
330
1CCB
330
1CCC
330
1CCD
330
1CD2
330
1CD3
330
1CD4
330
1CD5
330
1CD6
330
1CD7
330
1EBD
330
1EBE
330
1EBF
330
263C
330
2640
330
2641
330
2646
330
2647
330
2648
330
2649
330
264A
102
}
330
A
100
AcDbSymbolTableRecord
100
AcDbDimStyleTableRecord
  2
Standerd
 70
     0
 41
40.0
 42
70.0
 43
150.0
 44
30.0
 73
     0
 74
     0
 77
     1
 78
     8
140
40.0
141
2.0
143
0.03937007874016
147
15.0
171
     3
271
     2
272
     2
274
     3
283
     0
284
     8
340
11
  0
DIMSTYLE
105
5A
330
A
100
AcDbSymbolTableRecord
100
AcDbDimStyleTableRecord
  2
ISO-25
 70
     0
 41
2.5
 42
0.625
 43
3.75
 44
1.25
 73
     0
 74
     0
 77
     1
 78
     8
140
2.5
141
2.5
143
0.03937007874016
147
0.625
171
     3
172
     1
271
     2
272
     2
274
     3
283
     0
284
     8
340
11
  0
DIMSTYLE
105
5B
330
A
100
AcDbSymbolTableRecord
100
AcDbDimStyleTableRecord
  2
STANDARD
 70
     0
 41
2.0
 42
1.75
 43
5.75
 44
1.3
 73
     0
 74
     0
 77
     1
 78
     8
 79
     2
140
1.75
141
2.5
143
0.03937007874016
147
0.65
171
     3
172
     1
271
     3
272
     3
274
     3
276
     2
283
     0
284
     8
340
11
  0
DIMSTYLE
105
3E1
102
{ACAD_REACTORS
330
3F8
330
263F
102
}
330
A
100
AcDbSymbolTableRecord
100
AcDbDimStyleTableRecord
  2
Standerd1
 70
     0
 41
40.0
 42
35.0
 43
150.0
 44
30.0
 73
     0
 74
     0
 77
     1
 78
     8
140
40.0
141
20.0
143
0.03937007874016
147
15.0
171
     3
271
     2
272
     2
274
     3
283
     0
284
     8
340
11
  0
DIMSTYLE
105
4BB
102
{ACAD_REACTORS
330
4E6
330
4E7
330
4E8
102
}
330
A
100
AcDbSymbolTableRecord
100
AcDbDimStyleTableRecord
  2
Standerd2
 70
     0
 41
40.0
 42
35.0
 43
150.0
 44
30.0
 73
     0
 74
     0
 77
     1
 78
     8
140
40.0
141
2.0
143
0.03937007874016
147
15.0
171
     3
271
     2
272
     2
274
     3
283
     0
284
     8
340
11
  0
ENDTAB
  0
TABLE
  2
BLOCK_RECORD
  5
1
330
0
100
AcDbSymbolTable
 70
    82
  0
BLOCK_RECORD
  5
1F
330
1
100
AcDbSymbolTableRecord
100
AcDbBlockTableRecord
  2
*Model_Space
340
22
  0
BLOCK_RECORD
  5
111E
330
1
100
AcDbSymbolTableRecord
100
AcDbBlockTableRecord
  2
*Paper_Space
340
111F
  0
BLOCK_RECORD
  5
5C
330
1
100
AcDbSymbolTableRecord
100
AcDbBlockTableRecord
  2
A$C0D8837DC
340
0
  0
BLOCK_RECORD
  5
338
330
1
100
AcDbSymbolTableRecord
100
AcDbBlockTableRecord
  2
*D1
340
0
  0
BLOCK_RECORD
  5
344
330
1
100
AcDbSymbolTableRecord
100
AcDbBlockTableRecord
  2
*D2
340
0
  0
BLOCK_RECORD
  5
350
330
1
100
AcDbSymbolTableRecord
100
AcDbBlockTableRecord
  2
*D3
340
0
  0
BLOCK_RECORD
  5
35C
330
1
100
AcDbSymbolTableRecord
100
AcDbBlockTableRecord
  2
*D4
340
0
  0
BLOCK_RECORD
  5
368
330
1
100
AcDbSymbolTableRecord
100
AcDbBlockTableRecord
  2
*D5
340
0
  0
BLOCK_RECORD
  5
374
330
1
100
AcDbSymbolTableRecord
100
AcDbBlockTableRecord
  2
*D6
340
0
  0
BLOCK_RECORD
  5
380
330
1
100
AcDbSymbolTableRecord
100
AcDbBlockTableRecord
  2
*D7
340
0
  0
BLOCK_RECORD
  5
38C
330
1
100
AcDbSymbolTableRecord
100
AcDbBlockTableRecord
  2
*D8
340
0
  0
BLOCK_RECORD
  5
398
330
1
100
AcDbSymbolTableRecord
100
AcDbBlockTableRecord
  2
*D9
340
0
  0
BLOCK_RECORD
  5
3A4
330
1
100
AcDbSymbolTableRecord
100
AcDbBlockTableRecord
  2
*D10
340
0
  0
BLOCK_RECORD
  5
3B0
330
1
100
AcDbSymbolTableRecord
100
AcDbBlockTableRecord
  2
*D11
340
0
  0
BLOCK_RECORD
  5
3BD
330
1
100
AcDbSymbolTableRecord
100
AcDbBlockTableRecord
  2
*D12
340
0
  0
BLOCK_RECORD
  5
3C9
330
1
100
AcDbSymbolTableRecord
100
AcDbBlockTableRecord
  2
*D13
340
0
  0
BLOCK_RECORD
  5
3D5
330
1
100
AcDbSymbolTableRecord
100
AcDbBlockTableRecord
  2
*D14
340
0
  0
BLOCK_RECORD
  5
3E2
330
1
100
AcDbSymbolTableRecord
100
AcDbBlockTableRecord
  2
B2-750
340
0
1001
ACAD
1000
DesignCenter Data
1002
{
1070
     1
1070
     4
1002
}
  0
BLOCK_RECORD
  5
40E
330
1
100
AcDbSymbolTableRecord
100
AcDbBlockTableRecord
  2
*D16
340
0
  0
BLOCK_RECORD
  5
41A
330
1
100
AcDbSymbolTableRecord
100
AcDbBlockTableRecord
  2
*D17
340
0
  0
BLOCK_RECORD
  5
426
330
1
100
AcDbSymbolTableRecord
100
AcDbBlockTableRecord
  2
*D18
340
0
  0
BLOCK_RECORD
  5
432
330
1
100
AcDbSymbolTableRecord
100
AcDbBlockTableRecord
  2
*D19
340
0
  0
BLOCK_RECORD
  5
43E
330
1
100
AcDbSymbolTableRecord
100
AcDbBlockTableRecord
  2
*D20
340
0
  0
BLOCK_RECORD
  5
44A
330
1
100
AcDbSymbolTableRecord
100
AcDbBlockTableRecord
  2
*D21
340
0
  0
BLOCK_RECORD
  5
456
330
1
100
AcDbSymbolTableRecord
100
AcDbBlockTableRecord
  2
*D22
340
0
  0
BLOCK_RECORD
  5
462
330
1
100
AcDbSymbolTableRecord
100
AcDbBlockTableRecord
  2
*D23
340
0
  0
BLOCK_RECORD
  5
46E
330
1
100
AcDbSymbolTableRecord
100
AcDbBlockTableRecord
  2
*D24
340
0
  0
BLOCK_RECORD
  5
47B
330
1
100
AcDbSymbolTableRecord
100
AcDbBlockTableRecord
  2
*D25
340
0
  0
BLOCK_RECORD
  5
488
330
1
100
AcDbSymbolTableRecord
100
AcDbBlockTableRecord
  2
*D26
340
0
  0
BLOCK_RECORD
  5
494
330
1
100
AcDbSymbolTableRecord
100
AcDbBlockTableRecord
  2
*D27
340
0
  0
BLOCK_RECORD
  5
4A1
330
1
100
AcDbSymbolTableRecord
100
AcDbBlockTableRecord
  2
*D28
340
0
  0
BLOCK_RECORD
  5
4AD
330
1
100
AcDbSymbolTableRecord
100
AcDbBlockTableRecord
  2
*D29
340
0
  0
BLOCK_RECORD
  5
4BC
330
1
100
AcDbSymbolTableRecord
100
AcDbBlockTableRecord
  2
B1-750
340
0
1001
ACAD
1000
DesignCenter Data
1002
{
1070
     1
1070
     4
1002
}
  0
BLOCK_RECORD
  5
4F6
330
1
100
AcDbSymbolTableRecord
100
AcDbBlockTableRecord
  2
*D31
340
0
  0
BLOCK_RECORD
  5
502
330
1
100
AcDbSymbolTableRecord
100
AcDbBlockTableRecord
  2
*D32
340
0
  0
BLOCK_RECORD
  5
50F
330
1
100
AcDbSymbolTableRecord
100
AcDbBlockTableRecord
  2
B2-top
340
0
1001
ACAD
1000
DesignCenter Data
1002
{
1070
     1
1070
     4
1002
}
  0
BLOCK_RECORD
  5
CA8
330
1
100
AcDbSymbolTableRecord
100
AcDbBlockTableRecord
  2
A4
340
0
  0
BLOCK_RECORD
  5
CD7
330
1
100
AcDbSymbolTableRecord
100
AcDbBlockTableRecord
  2
A3展開図dwg
340
0
1001
ACAD
1000
DesignCenter Data
1002
{
1070
     1
1070
     4
1002
}
  0
BLOCK_RECORD
  5
1CF6
330
1
100
AcDbSymbolTableRecord
100
AcDbBlockTableRecord
  2
*D37
340
0
  0
BLOCK_RECORD
  5
1D02
330
1
100
AcDbSymbolTableRecord
100
AcDbBlockTableRecord
  2
*D38
340
0
  0
BLOCK_RECORD
  5
1D0E
330
1
100
AcDbSymbolTableRecord
100
AcDbBlockTableRecord
  2
*D39
340
0
  0
BLOCK_RECORD
  5
1D1A
330
1
100
AcDbSymbolTableRecord
100
AcDbBlockTableRecord
  2
*D40
340
0
  0
BLOCK_RECORD
  5
1D27
330
1
100
AcDbSymbolTableRecord
100
AcDbBlockTableRecord
  2
*D41
340
0
  0
BLOCK_RECORD
  5
1D33
330
1
100
AcDbSymbolTableRecord
100
AcDbBlockTableRecord
  2
*D42
340
0
  0
BLOCK_RECORD
  5
1D40
330
1
100
AcDbSymbolTableRecord
100
AcDbBlockTableRecord
  2
*D43
340
0
  0
BLOCK_RECORD
  5
1D4C
330
1
100
AcDbSymbolTableRecord
100
AcDbBlockTableRecord
  2
*D44
340
0
  0
BLOCK_RECORD
  5
1D58
330
1
100
AcDbSymbolTableRecord
100
AcDbBlockTableRecord
  2
*D45
340
0
  0
BLOCK_RECORD
  5
1D65
330
1
100
AcDbSymbolTableRecord
100
AcDbBlockTableRecord
  2
*D46
340
0
  0
BLOCK_RECORD
  5
1D71
330
1
100
AcDbSymbolTableRecord
100
AcDbBlockTableRecord
  2
*D47
340
0
  0
BLOCK_RECORD
  5
1D7D
330
1
100
AcDbSymbolTableRecord
100
AcDbBlockTableRecord
  2
*D48
340
0
  0
BLOCK_RECORD
  5
1D89
330
1
100
AcDbSymbolTableRecord
100
AcDbBlockTableRecord
  2
*D49
340
0
  0
BLOCK_RECORD
  5
1ECC
330
1
100
AcDbSymbolTableRecord
100
AcDbBlockTableRecord
  2
*D50
340
0
  0
BLOCK_RECORD
  5
1ED9
330
1
100
AcDbSymbolTableRecord
100
AcDbBlockTableRecord
  2
*D51
340
0
  0
BLOCK_RECORD
  5
1EE5
330
1
100
AcDbSymbolTableRecord
100
AcDbBlockTableRecord
  2
*D52
340
0
  0
BLOCK_RECORD
  5
2652
330
1
100
AcDbSymbolTableRecord
100
AcDbBlockTableRecord
  2
*D73
340
0
  0
BLOCK_RECORD
  5
265F
330
1
100
AcDbSymbolTableRecord
100
AcDbBlockTableRecord
  2
*D74
340
0
  0
BLOCK_RECORD
  5
266B
330
1
100
AcDbSymbolTableRecord
100
AcDbBlockTableRecord
  2
*D75
340
0
  0
BLOCK_RECORD
  5
2677
330
1
100
AcDbSymbolTableRecord
100
AcDbBlockTableRecord
  2
*D76
340
0
  0
BLOCK_RECORD
  5
2683
330
1
100
AcDbSymbolTableRecord
100
AcDbBlockTableRecord
  2
*D77
340
0
  0
BLOCK_RECORD
  5
268F
330
1
100
AcDbSymbolTableRecord
100
AcDbBlockTableRecord
  2
*D78
340
0
  0
BLOCK_RECORD
  5
269B
330
1
100
AcDbSymbolTableRecord
100
AcDbBlockTableRecord
  2
*D79
340
0
  0
BLOCK_RECORD
  5
26A7
330
1
100
AcDbSymbolTableRecord
100
AcDbBlockTableRecord
  2
*D80
340
0
  0
BLOCK_RECORD
  5
26B4
330
1
100
AcDbSymbolTableRecord
100
AcDbBlockTableRecord
  2
*D81
340
0
  0
ENDTAB
  0
ENDSEC
  0
SECTION
  2
BLOCKS
  0
BLOCK
  5
20
330
1F
100
AcDbEntity
  8
0
100
AcDbBlockBegin
  2
*Model_Space
 70
     0
 10
0.0
 20
0.0
 30
0.0
  3
*Model_Space
  1

  0
ENDBLK
  5
21
330
1F
100
AcDbEntity
  8
0
100
AcDbBlockEnd
  0
BLOCK
  5
1120
330
111E
100
AcDbEntity
 67
     1
  8
0
100
AcDbBlockBegin
  2
*Paper_Space
 70
     0
 10
0.0
 20
0.0
 30
0.0
  3
*Paper_Space
  1

  0
ENDBLK
  5
1121
330
111E
100
AcDbEntity
 67
     1
  8
0
100
AcDbBlockEnd
  0
BLOCK
  5
87
330
5C
100
AcDbEntity
  8
0
100
AcDbBlockBegin
  2
A$C0D8837DC
 70
     0
 10
0.0
 20
0.0
 30
0.0
  3
A$C0D8837DC
  1

  0
LINE
  5
5D
330
5C
100
AcDbEntity
  8
FLAM
100
AcDbLine
 10
34.99999953015538
 20
11.25000005996003
 30
0.0
 11
209.9999995301553
 21
11.25000005996003
 31
0.0
  0
LINE
  5
5E
330
5C
100
AcDbEntity
  8
FLAM
100
AcDbLine
 10
34.99999953015538
 20
3.750000059960029
 30
0.0
 11
209.9999995301553
 21
3.75000005996003
 31
0.0
  0
LINE
  5
5F
330
5C
100
AcDbEntity
  8
LAYER
100
AcDbLine
 10
34.99999953015538
 20
7.500000059960029
 30
0.0
 11
209.9999995301553
 21
7.500000059960029
 31
0.0
  0
LINE
  5
60
330
5C
100
AcDbEntity
  8
LAYER
100
AcDbLine
 10
-0.0000004698446219
 20
15.00000005996003
 30
0.0
 11
405.9999995301553
 21
15.00000005996003
 31
0.0
  0
LWPOLYLINE
  5
61
330
5C
100
AcDbEntity
  8
LAYER
100
AcDbPolyline
 90
        4
 70
     1
 43
0.0
 10
-0.0000004698446219
 20
0.0000000599600298
 10
-0.0000004698446219
 20
282.75000005996
 10
405.9999995301553
 20
282.75000005996
 10
405.9999995301553
 20
0.0000000599600298
  0
VIEWPORT
  5
62
330
5C
100
AcDbEntity
  8
0
100
AcDbViewport
 10
202.9999995301554
 20
148.87500005996
 30
0.0
 40
405.9999999999999
 41
267.75
 69
     0
 12
228.1209015211101
 22
160.8176196896051
 13
0.0
 23
0.0
 14
10.0
 24
10.0
 15
10.0
 25
10.0
 16
0.0
 26
0.0
 36
1.0
 17
0.0
 27
0.0
 37
0.0
 42
50.0
 43
0.0
 44
0.0
 45
267.75
 50
0.0
 51
0.0
 72
   100
 90
    32864
  1

281
     0
 71
     1
 74
     0
110
0.0
120
0.0
130
0.0
111
1.0
121
0.0
131
0.0
112
0.0
122
1.0
132
0.0
 79
     0
146
0.0
170
     0
  0
TEXT
  5
63
330
5C
100
AcDbEntity
  8
LAYER
100
AcDbText
 10
2.049999530155377
 20
5.00000005996003
 30
0.0
 40
5.0
  1
種類・呼び名
 41
0.9
 72
     4
 11
17.49999953015538
 21
7.500000059960029
 31
0.0
100
AcDbText
  0
LINE
  5
64
330
5C
100
AcDbEntity
  8
LAYER
100
AcDbLine
 10
34.99999953015538
 20
15.00000005996003
 30
0.0
 11
34.99999953015538
 21
0.0000000599600298
 31
0.0
  0
LINE
  5
65
330
5C
100
AcDbEntity
  8
FLAM
100
AcDbLine
 10
122.4999995301553
 20
7.500000059960029
 30
0.0
 11
122.4999995301553
 21
0.0000000599600298
 31
0.0
  0
LINE
  5
66
330
5C
100
AcDbEntity
  8
FLAM
100
AcDbLine
 10
122.4999995301553
 20
7.500000059960029
 30
0.0
 11
122.4999995301553
 21
15.00000005996003
 31
0.0
  0
LINE
  5
67
330
5C
100
AcDbEntity
  8
LAYER
100
AcDbLine
 10
309.9999995301553
 20
10.00000005996003
 30
0.0
 11
345.9999995301553
 21
10.00000005996003
 31
0.0
  0
LINE
  5
68
330
5C
100
AcDbEntity
  8
FLAM
100
AcDbLine
 10
216.9999995301553
 20
11.25000005996003
 30
0.0
 11
309.9999995301553
 21
11.25000005996003
 31
0.0
  0
LINE
  5
69
330
5C
100
AcDbEntity
  8
FLAM
100
AcDbLine
 10
216.9999995301553
 20
3.75000005996003
 30
0.0
 11
309.9999995301553
 21
3.750000059960029
 31
0.0
  0
LINE
  5
6A
330
5C
100
AcDbEntity
  8
FLAM
100
AcDbLine
 10
216.9999995301553
 20
7.500000059960029
 30
0.0
 11
309.9999995301553
 21
7.500000059960029
 31
0.0
  0
TEXT
  5
6B
330
5C
100
AcDbEntity
  8
LAYER
100
AcDbText
 10
211.6333328634886
 20
1.883333393293362
 30
0.0
 40
4.0
  1
要
 72
     4
 11
213.4999995301553
 21
3.750000059960029
 31
0.0
100
AcDbText
  0
LINE
  5
6C
330
5C
100
AcDbEntity
  8
FLAM
100
AcDbLine
 10
263.4999995301553
 20
7.500000059960029
 30
0.0
 11
263.4999995301553
 21
0.0000000599600298
 31
0.0
  0
LINE
  5
6D
330
5C
100
AcDbEntity
  8
LAYER
100
AcDbLine
 10
216.9999995301553
 20
15.00000005996003
 30
0.0
 11
216.9999995301553
 21
0.0000000599600298
 31
0.0
  0
LINE
  5
6E
330
5C
100
AcDbEntity
  8
LAYER
100
AcDbLine
 10
209.9999995301553
 20
15.00000005996003
 30
0.0
 11
209.9999995301553
 21
0.0000000599600298
 31
0.0
  0
TEXT
  5
6F
330
5C
100
AcDbEntity
  8
LAYER
100
AcDbText
 10
211.5952376253934
 20
9.250000059960029
 30
0.0
 40
4.0
  1
摘
 72
     4
 11
213.4999995301553
 21
11.25000005996003
 31
0.0
100
AcDbText
  0
LINE
  5
70
330
5C
100
AcDbEntity
  8
FLAM
100
AcDbLine
 10
263.4999995301553
 20
7.500000059960029
 30
0.0
 11
263.4999995301553
 21
15.00000005996003
 31
0.0
  0
LINE
  5
71
330
5C
100
AcDbEntity
  8
LAYER
100
AcDbLine
 10
333.9999995301553
 20
15.00000005996003
 30
0.0
 11
333.9999995301553
 21
0.0000000599600298
 31
0.0
  0
LINE
  5
72
330
5C
100
AcDbEntity
  8
LAYER
100
AcDbLine
 10
321.9999995301553
 20
15.00000005996003
 30
0.0
 11
321.9999995301553
 21
0.0000000599600298
 31
0.0
  0
LINE
  5
73
330
5C
100
AcDbEntity
  8
LAYER
100
AcDbLine
 10
309.9999995301553
 20
15.00000005996003
 30
0.0
 11
309.9999995301553
 21
0.0000000599600298
 31
0.0
  0
TEXT
  5
74
330
5C
100
AcDbEntity
  8
LAYER
100
AcDbText
 10
310.9999995301553
 20
11.00000005996003
 30
0.0
 40
3.0
  1
工場長
 72
     4
 11
315.9999995301553
 21
12.50000005996003
 31
0.0
100
AcDbText
  0
TEXT
  5
75
330
5C
100
AcDbEntity
  8
LAYER
100
AcDbText
 10
323.0999995301553
 20
11.00000005996003
 30
0.0
 40
3.0
  1
検　図
 72
     4
 11
327.9999995301553
 21
12.50000005996003
 31
0.0
100
AcDbText
  0
TEXT
  5
76
330
5C
100
AcDbEntity
  8
LAYER
100
AcDbText
 10
367.7624995301553
 20
17.00000005996003
 30
0.0
 40
3.5
  1
H.   年   月   日
 72
     4
 11
384.9999995301553
 21
18.75000005996003
 31
0.0
100
AcDbText
  0
TEXT
  5
77
330
5C
100
AcDbEntity
  8
LAYER
100
AcDbText
 10
347.066666196822
 20
2.00000005996003
 30
0.0
 40
3.5
  1
阿賀コンクリート工業株式会社
 72
     4
 11
375.9999995301553
 21
3.750000059960029
 31
0.0
100
AcDbText
  0
LINE
  5
78
330
5C
100
AcDbEntity
  8
FLAM
100
AcDbLine
 10
363.9999995301553
 20
11.25000005996003
 30
0.0
 11
405.9999995301553
 21
11.25000005996003
 31
0.0
  0
LINE
  5
79
330
5C
100
AcDbEntity
  8
FLAM
100
AcDbLine
 10
363.9999995301553
 20
26.25000005996003
 30
0.0
 11
405.9999995301553
 21
26.25000005996003
 31
0.0
  0
LINE
  5
7A
330
5C
100
AcDbEntity
  8
FLAM
100
AcDbLine
 10
363.9999995301553
 20
18.75000005996003
 30
0.0
 11
405.9999995301553
 21
18.75000005996003
 31
0.0
  0
LINE
  5
7B
330
5C
100
AcDbEntity
  8
LAYER
100
AcDbLine
 10
345.9999995301553
 20
7.500000059960029
 30
0.0
 11
405.9999995301553
 21
7.500000059960029
 31
0.0
  0
LINE
  5
7C
330
5C
100
AcDbEntity
  8
LAYER
100
AcDbLine
 10
345.9999995301553
 20
22.50000005996003
 30
0.0
 11
405.9999995301553
 21
22.50000005996003
 31
0.0
  0
LINE
  5
7D
330
5C
100
AcDbEntity
  8
LAYER
100
AcDbLine
 10
345.9999995301553
 20
30.00000005996003
 30
0.0
 11
405.9999995301553
 21
30.00000005996003
 31
0.0
  0
LINE
  5
7E
330
5C
100
AcDbEntity
  8
LAYER
100
AcDbLine
 10
345.9999995301553
 20
15.00000005996003
 30
0.0
 11
345.9999995301553
 21
0.0000000599600298
 31
0.0
  0
TEXT
  5
7F
330
5C
100
AcDbEntity
  8
LAYER
100
AcDbText
 10
349.166666196822
 20
24.50000005996003
 30
0.0
 40
3.5
  1
縮　尺
 72
     4
 11
354.9999995301553
 21
26.25000005996003
 31
0.0
100
AcDbText
  0
LINE
  5
80
330
5C
100
AcDbEntity
  8
LAYER
100
AcDbLine
 10
363.9999995301553
 20
30.00000005996003
 30
0.0
 11
363.9999995301553
 21
7.500000059960029
 31
0.0
  0
LINE
  5
81
330
5C
100
AcDbEntity
  8
LAYER
100
AcDbLine
 10
345.9999995301553
 20
15.00000005996003
 30
0.0
 11
345.9999995301553
 21
30.00000005996003
 31
0.0
  0
TEXT
  5
82
330
5C
100
AcDbEntity
  8
LAYER
100
AcDbText
 10
349.0499995301553
 20
9.500000059960029
 30
0.0
 40
3.5
  1
図　番
 72
     4
 11
354.9999995301553
 21
11.25000005996003
 31
0.0
100
AcDbText
  0
TEXT
  5
83
330
5C
100
AcDbEntity
  8
LAYER
100
AcDbText
 10
348.9333328634887
 20
17.00000005996003
 30
0.0
 40
3.5
  1
日　付
 72
     4
 11
354.9999995301553
 21
18.75000005996003
 31
0.0
100
AcDbText
  0
TEXT
  5
84
330
5C
100
AcDbEntity
  8
LAYER
100
AcDbText
 10
335.0999995301553
 20
11.00000005996003
 30
0.0
 40
3.0
  1
製　図
 72
     4
 11
339.9999995301553
 21
12.50000005996003
 31
0.0
100
AcDbText
  0
LINE
  5
85
330
5C
100
AcDbEntity
  8
FLAM
100
AcDbLine
 10
384.9999995301553
 20
26.25000005996003
 30
0.0
 11
384.9999995301553
 21
7.500000059960029
 31
0.0
  0
LINE
  5
86
330
5C
100
AcDbEntity
  8
FLAM
100
AcDbLine
 10
384.9999995301553
 20
26.25000005996003
 30
0.0
 11
384.9999995301553
 21
30.00000005996003
 31
0.0
  0
ENDBLK
  5
88
330
5C
100
AcDbEntity
  8
0
100
AcDbBlockEnd
  0
BLOCK
  5
339
330
338
100
AcDbEntity
  8
0
100
AcDbBlockBegin
  2
*D1
 70
     1
 10
0.0
 20
0.0
 30
0.0
  3
*D1
  1

  0
LINE
  5
33A
330
338
100
AcDbEntity
  8
DIM
 62
     0
370
    -2
100
AcDbLine
 10
1227.5
 20
750.0
 30
0.0
 11
1645.0
 21
749.9999999999999
 31
0.0
  0
LINE
  5
33B
330
338
100
AcDbEntity
  8
DIM
 62
     0
370
    -2
100
AcDbLine
 10
1375.0
 20
-0.0000000000000198
 30
0.0
 11
1645.0
 21
-0.0000000000000963
 31
0.0
  0
LINE
  5
33C
330
338
100
AcDbEntity
  8
DIM
 62
     0
370
    -2
100
AcDbLine
 10
1615.0
 20
709.9999999999998
 30
0.0
 11
1615.0
 21
39.99999999999992
 31
0.0
  0
SOLID
  5
33D
330
338
100
AcDbEntity
  8
DIM
 62
     0
100
AcDbTrace
 10
1608.333333333333
 20
709.9999999999998
 30
0.0
 11
1621.666666666667
 21
709.9999999999998
 31
0.0
 12
1615.0
 22
749.9999999999999
 32
0.0
 13
1615.0
 23
749.9999999999999
 33
0.0
  0
SOLID
  5
33E
330
338
100
AcDbEntity
  8
DIM
 62
     0
100
AcDbTrace
 10
1608.333333333333
 20
39.99999999999992
 30
0.0
 11
1621.666666666667
 21
39.99999999999991
 31
0.0
 12
1615.0
 22
-0.0000000000000878
 32
0.0
 13
1615.0
 23
-0.0000000000000878
 33
0.0
  0
MTEXT
  5
33F
330
338
100
AcDbEntity
  8
DIM
 62
     0
100
AcDbMText
 10
1580.0
 20
375.0000000000001
 30
0.0
 40
40.0
 41
0.0
 71
     5
 72
     1
  1
750
 11
0.0000000000000001
 21
1.0
 31
0.0
 73
     1
 44
1.0
  0
POINT
  5
340
330
338
100
AcDbEntity
  8
Defpoints
 62
     0
100
AcDbPoint
 10
1157.5
 20
750.0
 30
0.0
  0
POINT
  5
341
330
338
100
AcDbEntity
  8
Defpoints
 62
     0
100
AcDbPoint
 10
1305.0
 20
0.0
 30
0.0
  0
POINT
  5
342
330
338
100
AcDbEntity
  8
Defpoints
 62
     0
100
AcDbPoint
 10
1615.0
 20
-0.0000000000000878
 30
0.0
  0
ENDBLK
  5
343
330
338
100
AcDbEntity
  8
0
100
AcDbBlockEnd
  0
BLOCK
  5
345
330
344
100
AcDbEntity
  8
0
100
AcDbBlockBegin
  2
*D2
 70
     1
 10
0.0
 20
0.0
 30
0.0
  3
*D2
  1

  0
LINE
  5
346
330
344
100
AcDbEntity
  8
DIM
 62
     0
370
    -2
100
AcDbLine
 10
98.82855567520373
 20
865.0
 30
0.0
 11
82.22611542610128
 21
770.842882453976
 31
0.0
  0
LINE
  5
347
330
344
100
AcDbEntity
  8
DIM
 62
     0
370
    -2
100
AcDbLine
 10
708.8285556752037
 20
865.0
 30
0.0
 11
692.2261154261012
 21
770.842882453976
 31
0.0
  0
LINE
  5
348
330
344
100
AcDbEntity
  8
DIM
 62
     0
370
    -2
100
AcDbLine
 10
127.5159248473552
 20
800.8428824539759
 30
0.0
 11
657.5159248473552
 21
800.8428824539759
 31
0.0
  0
SOLID
  5
349
330
344
100
AcDbEntity
  8
DIM
 62
     0
100
AcDbTrace
 10
127.5159248473552
 20
807.5095491206425
 30
0.0
 11
127.5159248473552
 21
794.1762157873093
 31
0.0
 12
87.51592484735523
 22
800.8428824539759
 32
0.0
 13
87.51592484735523
 23
800.8428824539759
 33
0.0
  0
SOLID
  5
34A
330
344
100
AcDbEntity
  8
DIM
 62
     0
100
AcDbTrace
 10
657.5159248473552
 20
807.5095491206425
 30
0.0
 11
657.5159248473552
 21
794.1762157873093
 31
0.0
 12
697.5159248473552
 22
800.8428824539759
 32
0.0
 13
697.5159248473552
 23
800.8428824539759
 33
0.0
  0
MTEXT
  5
34B
330
344
100
AcDbEntity
  8
DIM
 62
     0
100
AcDbMText
 10
392.5159248473552
 20
835.842882453976
 30
0.0
 40
40.0
 41
0.0
 71
     5
 72
     1
  1
610
 73
     1
 44
1.0
  0
POINT
  5
34C
330
344
100
AcDbEntity
  8
Defpoints
 62
     0
100
AcDbPoint
 10
105.0
 20
900.0
 30
0.0
  0
POINT
  5
34D
330
344
100
AcDbEntity
  8
Defpoints
 62
     0
100
AcDbPoint
 10
715.0
 20
900.0
 30
0.0
  0
POINT
  5
34E
330
344
100
AcDbEntity
  8
Defpoints
 62
     0
100
AcDbPoint
 10
697.5159248473552
 20
800.8428824539759
 30
0.0
  0
ENDBLK
  5
34F
330
344
100
AcDbEntity
  8
0
100
AcDbBlockEnd
  0
BLOCK
  5
351
330
350
100
AcDbEntity
  8
0
100
AcDbBlockBegin
  2
*D3
 70
     1
 10
0.0
 20
0.0
 30
0.0
  3
*D3
  1

  0
LINE
  5
352
330
350
100
AcDbEntity
  8
DIM
 62
     0
370
    -2
100
AcDbLine
 10
110.0
 20
1070.0
 30
0.0
 11
110.0
 21
1180.0
 31
0.0
  0
LINE
  5
353
330
350
100
AcDbEntity
  8
DIM
 62
     0
370
    -2
100
AcDbLine
 10
710.0
 20
1070.0
 30
0.0
 11
710.0
 21
1180.0
 31
0.0
  0
LINE
  5
354
330
350
100
AcDbEntity
  8
DIM
 62
     0
370
    -2
100
AcDbLine
 10
150.0
 20
1150.0
 30
0.0
 11
670.0
 21
1150.0
 31
0.0
  0
SOLID
  5
355
330
350
100
AcDbEntity
  8
DIM
 62
     0
100
AcDbTrace
 10
150.0
 20
1156.666666666667
 30
0.0
 11
150.0
 21
1143.333333333333
 31
0.0
 12
110.0
 22
1150.0
 32
0.0
 13
110.0
 23
1150.0
 33
0.0
  0
SOLID
  5
356
330
350
100
AcDbEntity
  8
DIM
 62
     0
100
AcDbTrace
 10
670.0
 20
1156.666666666667
 30
0.0
 11
670.0
 21
1143.333333333333
 31
0.0
 12
710.0
 22
1150.0
 32
0.0
 13
710.0
 23
1150.0
 33
0.0
  0
MTEXT
  5
357
330
350
100
AcDbEntity
  8
DIM
 62
     0
100
AcDbMText
 10
421.7551294819541
 20
1185.0
 30
0.0
 40
40.0
 41
0.0
 71
     5
 72
     1
  1
600
 73
     1
 44
1.0
  0
POINT
  5
358
330
350
100
AcDbEntity
  8
Defpoints
 62
     0
100
AcDbPoint
 10
110.0
 20
1000.0
 30
0.0
  0
POINT
  5
359
330
350
100
AcDbEntity
  8
Defpoints
 62
     0
100
AcDbPoint
 10
710.0
 20
1000.0
 30
0.0
  0
POINT
  5
35A
330
350
100
AcDbEntity
  8
Defpoints
 62
     0
100
AcDbPoint
 10
710.0
 20
1150.0
 30
0.0
  0
ENDBLK
  5
35B
330
350
100
AcDbEntity
  8
0
100
AcDbBlockEnd
  0
BLOCK
  5
35D
330
35C
100
AcDbEntity
  8
0
100
AcDbBlockBegin
  2
*D4
 70
     1
 10
0.0
 20
0.0
 30
0.0
  3
*D4
  1

  0
LINE
  5
35E
330
35C
100
AcDbEntity
  8
DIM
 62
     0
370
    -2
100
AcDbLine
 10
110.0
 20
1070.0
 30
0.0
 11
110.0
 21
1180.0
 31
0.0
  0
LINE
  5
35F
330
35C
100
AcDbEntity
  8
DIM
 62
     0
370
    -2
100
AcDbLine
 10
-25.0
 20
1055.0
 30
0.0
 11
-24.99999999999999
 21
1180.0
 31
0.0
  0
LINE
  5
360
330
35C
100
AcDbEntity
  8
DIM
 62
     0
370
    -2
100
AcDbLine
 10
70.00000000000001
 20
1150.0
 30
0.0
 11
15.00000000000001
 21
1150.0
 31
0.0
  0
SOLID
  5
361
330
35C
100
AcDbEntity
  8
DIM
 62
     0
100
AcDbTrace
 10
70.00000000000001
 20
1156.666666666667
 30
0.0
 11
70.00000000000001
 21
1143.333333333333
 31
0.0
 12
110.0
 22
1150.0
 32
0.0
 13
110.0
 23
1150.0
 33
0.0
  0
SOLID
  5
362
330
35C
100
AcDbEntity
  8
DIM
 62
     0
100
AcDbTrace
 10
15.00000000000001
 20
1156.666666666667
 30
0.0
 11
15.00000000000001
 21
1143.333333333333
 31
0.0
 12
-24.99999999999999
 22
1150.0
 32
0.0
 13
-24.99999999999999
 23
1150.0
 33
0.0
  0
MTEXT
  5
363
330
35C
100
AcDbEntity
  8
DIM
 62
     0
100
AcDbMText
 10
42.50000000000001
 20
1185.0
 30
0.0
 40
40.0
 41
0.0
 71
     5
 72
     1
  1
135
 73
     1
 44
1.0
  0
POINT
  5
364
330
35C
100
AcDbEntity
  8
Defpoints
 62
     0
100
AcDbPoint
 10
110.0
 20
1000.0
 30
0.0
  0
POINT
  5
365
330
35C
100
AcDbEntity
  8
Defpoints
 62
     0
100
AcDbPoint
 10
-25.0
 20
985.0
 30
0.0
  0
POINT
  5
366
330
35C
100
AcDbEntity
  8
Defpoints
 62
     0
100
AcDbPoint
 10
-24.99999999999999
 20
1150.0
 30
0.0
  0
ENDBLK
  5
367
330
35C
100
AcDbEntity
  8
0
100
AcDbBlockEnd
  0
BLOCK
  5
369
330
368
100
AcDbEntity
  8
0
100
AcDbBlockBegin
  2
*D5
 70
     1
 10
0.0
 20
0.0
 30
0.0
  3
*D5
  1

  0
LINE
  5
36A
330
368
100
AcDbEntity
  8
DIM
 62
     0
370
    -2
100
AcDbLine
 10
710.0
 20
1070.0
 30
0.0
 11
710.0
 21
1180.0
 31
0.0
  0
LINE
  5
36B
330
368
100
AcDbEntity
  8
DIM
 62
     0
370
    -2
100
AcDbLine
 10
845.0000000000001
 20
1055.0
 30
0.0
 11
845.0000000000001
 21
1180.0
 31
0.0
  0
LINE
  5
36C
330
368
100
AcDbEntity
  8
DIM
 62
     0
370
    -2
100
AcDbLine
 10
750.0
 20
1150.0
 30
0.0
 11
805.0
 21
1150.0
 31
0.0
  0
SOLID
  5
36D
330
368
100
AcDbEntity
  8
DIM
 62
     0
100
AcDbTrace
 10
750.0
 20
1156.666666666667
 30
0.0
 11
750.0
 21
1143.333333333333
 31
0.0
 12
710.0
 22
1150.0
 32
0.0
 13
710.0
 23
1150.0
 33
0.0
  0
SOLID
  5
36E
330
368
100
AcDbEntity
  8
DIM
 62
     0
100
AcDbTrace
 10
805.0
 20
1156.666666666667
 30
0.0
 11
805.0
 21
1143.333333333333
 31
0.0
 12
845.0000000000001
 22
1150.0
 32
0.0
 13
845.0000000000001
 23
1150.0
 33
0.0
  0
MTEXT
  5
36F
330
368
100
AcDbEntity
  8
DIM
 62
     0
100
AcDbMText
 10
777.5
 20
1185.0
 30
0.0
 40
40.0
 41
0.0
 71
     5
 72
     1
  1
135
 73
     1
 44
1.0
  0
POINT
  5
370
330
368
100
AcDbEntity
  8
Defpoints
 62
     0
100
AcDbPoint
 10
710.0
 20
1000.0
 30
0.0
  0
POINT
  5
371
330
368
100
AcDbEntity
  8
Defpoints
 62
     0
100
AcDbPoint
 10
845.0000000000001
 20
985.0
 30
0.0
  0
POINT
  5
372
330
368
100
AcDbEntity
  8
Defpoints
 62
     0
100
AcDbPoint
 10
845.0000000000001
 20
1150.0
 30
0.0
  0
ENDBLK
  5
373
330
368
100
AcDbEntity
  8
0
100
AcDbBlockEnd
  0
BLOCK
  5
375
330
374
100
AcDbEntity
  8
0
100
AcDbBlockBegin
  2
*D6
 70
     1
 10
0.0
 20
0.0
 30
0.0
  3
*D6
  1

  0
LINE
  5
376
330
374
100
AcDbEntity
  8
DIM
 62
     0
370
    -2
100
AcDbLine
 10
410.0000000000001
 20
1120.0
 30
0.0
 11
410.0000000000001
 21
1330.0
 31
0.0
  0
LINE
  5
377
330
374
100
AcDbEntity
  8
DIM
 62
     0
370
    -2
100
AcDbLine
 10
-100.0
 20
960.0
 30
0.0
 11
-99.99999999999998
 21
1330.0
 31
0.0
  0
LINE
  5
378
330
374
100
AcDbEntity
  8
DIM
 62
     0
370
    -2
100
AcDbLine
 10
370.0000000000001
 20
1300.0
 30
0.0
 11
-59.99999999999997
 21
1300.0
 31
0.0
  0
SOLID
  5
379
330
374
100
AcDbEntity
  8
DIM
 62
     0
100
AcDbTrace
 10
370.0000000000001
 20
1306.666666666667
 30
0.0
 11
370.0000000000001
 21
1293.333333333333
 31
0.0
 12
410.0000000000001
 22
1300.0
 32
0.0
 13
410.0000000000001
 23
1300.0
 33
0.0
  0
SOLID
  5
37A
330
374
100
AcDbEntity
  8
DIM
 62
     0
100
AcDbTrace
 10
-59.99999999999997
 20
1306.666666666667
 30
0.0
 11
-59.99999999999997
 21
1293.333333333333
 31
0.0
 12
-99.99999999999998
 22
1300.0
 32
0.0
 13
-99.99999999999998
 23
1300.0
 33
0.0
  0
MTEXT
  5
37B
330
374
100
AcDbEntity
  8
DIM
 62
     0
100
AcDbMText
 10
155.0
 20
1335.0
 30
0.0
 40
40.0
 41
0.0
 71
     5
 72
     1
  1
510
 73
     1
 44
1.0
  0
POINT
  5
37C
330
374
100
AcDbEntity
  8
Defpoints
 62
     0
100
AcDbPoint
 10
410.0000000000001
 20
1050.0
 30
0.0
  0
POINT
  5
37D
330
374
100
AcDbEntity
  8
Defpoints
 62
     0
100
AcDbPoint
 10
-100.0
 20
890.0
 30
0.0
  0
POINT
  5
37E
330
374
100
AcDbEntity
  8
Defpoints
 62
     0
100
AcDbPoint
 10
-99.99999999999998
 20
1300.0
 30
0.0
  0
ENDBLK
  5
37F
330
374
100
AcDbEntity
  8
0
100
AcDbBlockEnd
  0
BLOCK
  5
381
330
380
100
AcDbEntity
  8
0
100
AcDbBlockBegin
  2
*D7
 70
     1
 10
0.0
 20
0.0
 30
0.0
  3
*D7
  1

  0
LINE
  5
382
330
380
100
AcDbEntity
  8
DIM
 62
     0
370
    -2
100
AcDbLine
 10
410.0000000000001
 20
1120.0
 30
0.0
 11
410.0000000000001
 21
1330.0
 31
0.0
  0
LINE
  5
383
330
380
100
AcDbEntity
  8
DIM
 62
     0
370
    -2
100
AcDbLine
 10
1315.0
 20
960.0
 30
0.0
 11
1315.0
 21
1330.0
 31
0.0
  0
LINE
  5
384
330
380
100
AcDbEntity
  8
DIM
 62
     0
370
    -2
100
AcDbLine
 10
450.0
 20
1300.0
 30
0.0
 11
1275.0
 21
1300.0
 31
0.0
  0
SOLID
  5
385
330
380
100
AcDbEntity
  8
DIM
 62
     0
100
AcDbTrace
 10
450.0
 20
1306.666666666667
 30
0.0
 11
450.0
 21
1293.333333333333
 31
0.0
 12
410.0000000000001
 22
1300.0
 32
0.0
 13
410.0000000000001
 23
1300.0
 33
0.0
  0
SOLID
  5
386
330
380
100
AcDbEntity
  8
DIM
 62
     0
100
AcDbTrace
 10
1275.0
 20
1306.666666666667
 30
0.0
 11
1275.0
 21
1293.333333333333
 31
0.0
 12
1315.0
 22
1300.0
 32
0.0
 13
1315.0
 23
1300.0
 33
0.0
  0
MTEXT
  5
387
330
380
100
AcDbEntity
  8
DIM
 62
     0
100
AcDbMText
 10
862.5
 20
1335.0
 30
0.0
 40
40.0
 41
0.0
 71
     5
 72
     1
  1
905
 73
     1
 44
1.0
  0
POINT
  5
388
330
380
100
AcDbEntity
  8
Defpoints
 62
     0
100
AcDbPoint
 10
410.0000000000001
 20
1050.0
 30
0.0
  0
POINT
  5
389
330
380
100
AcDbEntity
  8
Defpoints
 62
     0
100
AcDbPoint
 10
1315.0
 20
890.0
 30
0.0
  0
POINT
  5
38A
330
380
100
AcDbEntity
  8
Defpoints
 62
     0
100
AcDbPoint
 10
1315.0
 20
1300.0
 30
0.0
  0
ENDBLK
  5
38B
330
380
100
AcDbEntity
  8
0
100
AcDbBlockEnd
  0
BLOCK
  5
38D
330
38C
100
AcDbEntity
  8
0
100
AcDbBlockBegin
  2
*D8
 70
     1
 10
0.0
 20
0.0
 30
0.0
  3
*D8
  1

  0
LINE
  5
38E
330
38C
100
AcDbEntity
  8
DIM
 62
     0
370
    -2
100
AcDbLine
 10
-100.0
 20
960.0
 30
0.0
 11
-99.99999999999996
 21
1480.0
 31
0.0
  0
LINE
  5
38F
330
38C
100
AcDbEntity
  8
DIM
 62
     0
370
    -2
100
AcDbLine
 10
1315.0
 20
960.0
 30
0.0
 11
1315.0
 21
1480.0
 31
0.0
  0
LINE
  5
390
330
38C
100
AcDbEntity
  8
DIM
 62
     0
370
    -2
100
AcDbLine
 10
-59.99999999999997
 20
1450.0
 30
0.0
 11
1275.0
 21
1450.0
 31
0.0
  0
SOLID
  5
391
330
38C
100
AcDbEntity
  8
DIM
 62
     0
100
AcDbTrace
 10
-59.99999999999997
 20
1456.666666666667
 30
0.0
 11
-59.99999999999997
 21
1443.333333333333
 31
0.0
 12
-99.99999999999998
 22
1450.0
 32
0.0
 13
-99.99999999999998
 23
1450.0
 33
0.0
  0
SOLID
  5
392
330
38C
100
AcDbEntity
  8
DIM
 62
     0
100
AcDbTrace
 10
1275.0
 20
1456.666666666667
 30
0.0
 11
1275.0
 21
1443.333333333333
 31
0.0
 12
1315.0
 22
1450.0
 32
0.0
 13
1315.0
 23
1450.0
 33
0.0
  0
MTEXT
  5
393
330
38C
100
AcDbEntity
  8
DIM
 62
     0
100
AcDbMText
 10
607.5
 20
1485.0
 30
0.0
 40
40.0
 41
0.0
 71
     5
 72
     1
  1
1415
 73
     1
 44
1.0
  0
POINT
  5
394
330
38C
100
AcDbEntity
  8
Defpoints
 62
     0
100
AcDbPoint
 10
-100.0
 20
890.0
 30
0.0
  0
POINT
  5
395
330
38C
100
AcDbEntity
  8
Defpoints
 62
     0
100
AcDbPoint
 10
1315.0
 20
890.0
 30
0.0
  0
POINT
  5
396
330
38C
100
AcDbEntity
  8
Defpoints
 62
     0
100
AcDbPoint
 10
1315.0
 20
1450.0
 30
0.0
  0
ENDBLK
  5
397
330
38C
100
AcDbEntity
  8
0
100
AcDbBlockEnd
  0
BLOCK
  5
399
330
398
100
AcDbEntity
  8
0
100
AcDbBlockBegin
  2
*D9
 70
     1
 10
0.0
 20
0.0
 30
0.0
  3
*D9
  1

  0
LINE
  5
39A
330
398
100
AcDbEntity
  8
DIM
 62
     0
370
    -2
100
AcDbLine
 10
1227.5
 20
750.0
 30
0.0
 11
1645.0
 21
749.9999999999999
 31
0.0
  0
LINE
  5
39B
330
398
100
AcDbEntity
  8
DIM
 62
     0
370
    -2
100
AcDbLine
 10
1375.0
 20
900.0
 30
0.0
 11
1645.0
 21
900.0
 31
0.0
  0
LINE
  5
39C
330
398
100
AcDbEntity
  8
DIM
 62
     0
370
    -2
100
AcDbLine
 10
1615.0
 20
789.9999999999999
 30
0.0
 11
1615.0
 21
860.0
 31
0.0
  0
SOLID
  5
39D
330
398
100
AcDbEntity
  8
DIM
 62
     0
100
AcDbTrace
 10
1608.333333333333
 20
789.9999999999999
 30
0.0
 11
1621.666666666667
 21
789.9999999999999
 31
0.0
 12
1615.0
 22
749.9999999999999
 32
0.0
 13
1615.0
 23
749.9999999999999
 33
0.0
  0
SOLID
  5
39E
330
398
100
AcDbEntity
  8
DIM
 62
     0
100
AcDbTrace
 10
1608.333333333333
 20
860.0
 30
0.0
 11
1621.666666666667
 21
860.0
 31
0.0
 12
1615.0
 22
900.0
 32
0.0
 13
1615.0
 23
900.0
 33
0.0
  0
MTEXT
  5
39F
330
398
100
AcDbEntity
  8
DIM
 62
     0
100
AcDbMText
 10
1580.0
 20
825.0000000000001
 30
0.0
 40
40.0
 41
0.0
 71
     5
 72
     1
  1
150
 11
0.0000000000000001
 21
1.0
 31
0.0
 73
     1
 44
1.0
  0
POINT
  5
3A0
330
398
100
AcDbEntity
  8
Defpoints
 62
     0
100
AcDbPoint
 10
1157.5
 20
750.0
 30
0.0
  0
POINT
  5
3A1
330
398
100
AcDbEntity
  8
Defpoints
 62
     0
100
AcDbPoint
 10
1305.0
 20
900.0
 30
0.0
  0
POINT
  5
3A2
330
398
100
AcDbEntity
  8
Defpoints
 62
     0
100
AcDbPoint
 10
1615.0
 20
900.0
 30
0.0
  0
ENDBLK
  5
3A3
330
398
100
AcDbEntity
  8
0
100
AcDbBlockEnd
  0
BLOCK
  5
3A5
330
3A4
100
AcDbEntity
  8
0
100
AcDbBlockBegin
  2
*D10
 70
     1
 10
0.0
 20
0.0
 30
0.0
  3
*D10
  1

  0
LINE
  5
3A6
330
3A4
100
AcDbEntity
  8
DIM
 62
     0
370
    -2
100
AcDbLine
 10
1375.0
 20
900.0
 30
0.0
 11
1795.0
 21
899.9999999999998
 31
0.0
  0
LINE
  5
3A7
330
3A4
100
AcDbEntity
  8
DIM
 62
     0
370
    -2
100
AcDbLine
 10
1375.0
 20
-0.0000000000000198
 30
0.0
 11
1795.0
 21
-0.0000000000001388
 31
0.0
  0
LINE
  5
3A8
330
3A4
100
AcDbEntity
  8
DIM
 62
     0
370
    -2
100
AcDbLine
 10
1765.0
 20
860.0
 30
0.0
 11
1765.0
 21
39.99999999999987
 31
0.0
  0
SOLID
  5
3A9
330
3A4
100
AcDbEntity
  8
DIM
 62
     0
100
AcDbTrace
 10
1758.333333333333
 20
860.0
 30
0.0
 11
1771.666666666667
 21
860.0
 31
0.0
 12
1765.0
 22
900.0
 32
0.0
 13
1765.0
 23
900.0
 33
0.0
  0
SOLID
  5
3AA
330
3A4
100
AcDbEntity
  8
DIM
 62
     0
100
AcDbTrace
 10
1758.333333333333
 20
39.99999999999987
 30
0.0
 11
1771.666666666667
 21
39.99999999999987
 31
0.0
 12
1765.0
 22
-0.0000000000001303
 32
0.0
 13
1765.0
 23
-0.0000000000001303
 33
0.0
  0
MTEXT
  5
3AB
330
3A4
100
AcDbEntity
  8
DIM
 62
     0
100
AcDbMText
 10
1730.0
 20
450.0000000000001
 30
0.0
 40
40.0
 41
0.0
 71
     5
 72
     1
  1
900
 11
0.0000000000000001
 21
1.0
 31
0.0
 73
     1
 44
1.0
  0
POINT
  5
3AC
330
3A4
100
AcDbEntity
  8
Defpoints
 62
     0
100
AcDbPoint
 10
1305.0
 20
900.0
 30
0.0
  0
POINT
  5
3AD
330
3A4
100
AcDbEntity
  8
Defpoints
 62
     0
100
AcDbPoint
 10
1305.0
 20
0.0
 30
0.0
  0
POINT
  5
3AE
330
3A4
100
AcDbEntity
  8
Defpoints
 62
     0
100
AcDbPoint
 10
1765.0
 20
-0.0000000000001303
 30
0.0
  0
ENDBLK
  5
3AF
330
3A4
100
AcDbEntity
  8
0
100
AcDbBlockEnd
  0
BLOCK
  5
3B1
330
3B0
100
AcDbEntity
  8
0
100
AcDbBlockBegin
  2
*D11
 70
     1
 10
0.0
 20
0.0
 30
0.0
  3
*D11
  1

  0
LINE
  5
3B2
330
3B0
100
AcDbEntity
  8
DIM
 62
     0
370
    -2
100
AcDbLine
 10
1375.0
 20
900.0
 30
0.0
 11
1795.0
 21
899.9999999999998
 31
0.0
  0
LINE
  5
3B3
330
3B0
100
AcDbEntity
  8
DIM
 62
     0
370
    -2
100
AcDbLine
 10
900.0000000000001
 20
1000.0
 30
0.0
 11
1795.0
 21
999.9999999999996
 31
0.0
  0
LINE
  5
3B4
330
3B0
100
AcDbEntity
  8
DIM
 62
     0
370
    -2
100
AcDbLine
 10
1765.0
 20
860.0
 30
0.0
 11
1765.0
 21
820.0
 31
0.0
  0
LINE
  5
3B5
330
3B0
100
AcDbEntity
  8
DIM
 62
     0
370
    -2
100
AcDbLine
 10
1765.0
 20
1039.999999999999
 30
0.0
 11
1765.0
 21
1079.999999999999
 31
0.0
  0
SOLID
  5
3B6
330
3B0
100
AcDbEntity
  8
DIM
 62
     0
100
AcDbTrace
 10
1758.333333333333
 20
860.0
 30
0.0
 11
1771.666666666667
 21
860.0
 31
0.0
 12
1765.0
 22
900.0
 32
0.0
 13
1765.0
 23
900.0
 33
0.0
  0
SOLID
  5
3B7
330
3B0
100
AcDbEntity
  8
DIM
 62
     0
100
AcDbTrace
 10
1758.333333333333
 20
1039.999999999999
 30
0.0
 11
1771.666666666667
 21
1039.999999999999
 31
0.0
 12
1765.0
 22
999.9999999999998
 32
0.0
 13
1765.0
 23
999.9999999999998
 33
0.0
  0
MTEXT
  5
3B8
330
3B0
100
AcDbEntity
  8
DIM
 62
     0
100
AcDbMText
 10
1730.0
 20
950.0000000000001
 30
0.0
 40
40.0
 41
0.0
 71
     5
 72
     1
  1
100
 11
0.0000000000000001
 21
1.0
 31
0.0
 73
     1
 44
1.0
  0
POINT
  5
3B9
330
3B0
100
AcDbEntity
  8
Defpoints
 62
     0
100
AcDbPoint
 10
1305.0
 20
900.0
 30
0.0
  0
POINT
  5
3BA
330
3B0
100
AcDbEntity
  8
Defpoints
 62
     0
100
AcDbPoint
 10
830.0
 20
1000.0
 30
0.0
  0
POINT
  5
3BB
330
3B0
100
AcDbEntity
  8
Defpoints
 62
     0
100
AcDbPoint
 10
1765.0
 20
999.9999999999998
 30
0.0
  0
ENDBLK
  5
3BC
330
3B0
100
AcDbEntity
  8
0
100
AcDbBlockEnd
  0
BLOCK
  5
3BE
330
3BD
100
AcDbEntity
  8
0
100
AcDbBlockBegin
  2
*D12
 70
     1
 10
0.0
 20
0.0
 30
0.0
  3
*D12
  1

  0
LINE
  5
3BF
330
3BD
100
AcDbEntity
  8
DIM
 62
     0
370
    -2
100
AcDbLine
 10
42.67857142857143
 20
250.0
 30
0.0
 11
120.0
 21
250.0
 31
0.0
  0
LINE
  5
3C0
330
3BD
100
AcDbEntity
  8
DIM
 62
     0
370
    -2
100
AcDbLine
 10
70.0
 20
-0.0000000000000198
 30
0.0
 11
120.0
 21
-0.000000000000034
 31
0.0
  0
LINE
  5
3C1
330
3BD
100
AcDbEntity
  8
DIM
 62
     0
370
    -2
100
AcDbLine
 10
90.00000000000005
 20
210.0
 30
0.0
 11
90.00000000000001
 21
39.99999999999997
 31
0.0
  0
SOLID
  5
3C2
330
3BD
100
AcDbEntity
  8
DIM
 62
     0
100
AcDbTrace
 10
83.33333333333337
 20
210.0
 30
0.0
 11
96.66666666666671
 21
210.0
 31
0.0
 12
90.00000000000005
 22
250.0
 32
0.0
 13
90.00000000000005
 23
250.0
 33
0.0
  0
SOLID
  5
3C3
330
3BD
100
AcDbEntity
  8
DIM
 62
     0
100
AcDbTrace
 10
83.33333333333333
 20
39.99999999999997
 30
0.0
 11
96.66666666666669
 21
39.99999999999997
 31
0.0
 12
90.0
 22
-0.0000000000000255
 32
0.0
 13
90.0
 23
-0.0000000000000255
 33
0.0
  0
MTEXT
  5
3C4
330
3BD
100
AcDbEntity
  8
DIM
 62
     0
100
AcDbMText
 10
54.99606299212599
 20
125.0
 30
0.0
 40
40.0
 41
0.0
 71
     5
 72
     1
  1
250
 11
0.0000000000000001
 21
1.0
 31
0.0
 73
     1
 44
1.0
  0
POINT
  5
3C5
330
3BD
100
AcDbEntity
  8
Defpoints
 62
     0
100
AcDbPoint
 10
-27.32142857142857
 20
250.0
 30
0.0
  0
POINT
  5
3C6
330
3BD
100
AcDbEntity
  8
Defpoints
 62
     0
100
AcDbPoint
 10
0.0
 20
0.0
 30
0.0
  0
POINT
  5
3C7
330
3BD
100
AcDbEntity
  8
Defpoints
 62
     0
100
AcDbPoint
 10
90.0
 20
-0.0000000000000255
 30
0.0
  0
ENDBLK
  5
3C8
330
3BD
100
AcDbEntity
  8
0
100
AcDbBlockEnd
  0
BLOCK
  5
3CA
330
3C9
100
AcDbEntity
  8
0
100
AcDbBlockBegin
  2
*D13
 70
     1
 10
0.0
 20
0.0
 30
0.0
  3
*D13
  1

  0
LINE
  5
3CB
330
3C9
100
AcDbEntity
  8
DIM
 62
     0
370
    -2
100
AcDbLine
 10
42.67857142857143
 20
250.0
 30
0.0
 11
120.0
 21
250.0
 31
0.0
  0
LINE
  5
3CC
330
3C9
100
AcDbEntity
  8
DIM
 62
     0
370
    -2
100
AcDbLine
 10
45.89285714285714
 20
550.0
 30
0.0
 11
120.0000000000001
 21
550.0
 31
0.0
  0
LINE
  5
3CD
330
3C9
100
AcDbEntity
  8
DIM
 62
     0
370
    -2
100
AcDbLine
 10
90.00000000000007
 20
290.0
 30
0.0
 11
90.00000000000012
 21
510.0
 31
0.0
  0
SOLID
  5
3CE
330
3C9
100
AcDbEntity
  8
DIM
 62
     0
100
AcDbTrace
 10
83.33333333333341
 20
290.0
 30
0.0
 11
96.66666666666674
 21
290.0
 31
0.0
 12
90.00000000000005
 22
250.0
 32
0.0
 13
90.00000000000005
 23
250.0
 33
0.0
  0
SOLID
  5
3CF
330
3C9
100
AcDbEntity
  8
DIM
 62
     0
100
AcDbTrace
 10
83.33333333333344
 20
510.0
 30
0.0
 11
96.66666666666678
 21
510.0
 31
0.0
 12
90.00000000000012
 22
550.0
 32
0.0
 13
90.00000000000012
 23
550.0
 33
0.0
  0
MTEXT
  5
3D0
330
3C9
100
AcDbEntity
  8
DIM
 62
     0
100
AcDbMText
 10
55.00000000000002
 20
400.0
 30
0.0
 40
40.0
 41
0.0
 71
     5
 72
     1
  1
300
 11
0.0000000000000001
 21
1.0
 31
0.0
 73
     1
 44
1.0
  0
POINT
  5
3D1
330
3C9
100
AcDbEntity
  8
Defpoints
 62
     0
100
AcDbPoint
 10
-27.32142857142857
 20
250.0
 30
0.0
  0
POINT
  5
3D2
330
3C9
100
AcDbEntity
  8
Defpoints
 62
     0
100
AcDbPoint
 10
-24.10714285714286
 20
550.0
 30
0.0
  0
POINT
  5
3D3
330
3C9
100
AcDbEntity
  8
Defpoints
 62
     0
100
AcDbPoint
 10
90.00000000000012
 20
550.0
 30
0.0
  0
ENDBLK
  5
3D4
330
3C9
100
AcDbEntity
  8
0
100
AcDbBlockEnd
  0
BLOCK
  5
3D6
330
3D5
100
AcDbEntity
  8
0
100
AcDbBlockBegin
  2
*D14
 70
     1
 10
0.0
 20
0.0
 30
0.0
  3
*D14
  1

  0
LINE
  5
3D7
330
3D5
100
AcDbEntity
  8
DIM
 62
     0
370
    -2
100
AcDbLine
 10
407.5
 20
340.0
 30
0.0
 11
407.5
 21
448.2243564018904
 31
0.0
  0
LINE
  5
3D8
330
3D5
100
AcDbEntity
  8
DIM
 62
     0
370
    -2
100
AcDbLine
 10
807.4999999999999
 20
340.0
 30
0.0
 11
807.4999999999999
 21
448.2243564018904
 31
0.0
  0
LINE
  5
3D9
330
3D5
100
AcDbEntity
  8
DIM
 62
     0
370
    -2
100
AcDbLine
 10
447.5
 20
418.2243564018904
 30
0.0
 11
767.4999999999999
 21
418.2243564018904
 31
0.0
  0
SOLID
  5
3DA
330
3D5
100
AcDbEntity
  8
DIM
 62
     0
100
AcDbTrace
 10
447.5
 20
424.8910230685571
 30
0.0
 11
447.5
 21
411.5576897352237
 31
0.0
 12
407.5
 22
418.2243564018904
 32
0.0
 13
407.5
 23
418.2243564018904
 33
0.0
  0
SOLID
  5
3DB
330
3D5
100
AcDbEntity
  8
DIM
 62
     0
100
AcDbTrace
 10
767.4999999999999
 20
424.8910230685571
 30
0.0
 11
767.4999999999999
 21
411.5576897352237
 31
0.0
 12
807.4999999999999
 22
418.2243564018904
 32
0.0
 13
807.4999999999999
 23
418.2243564018904
 33
0.0
  0
MTEXT
  5
3DC
330
3D5
100
AcDbEntity
  8
DIM
 62
     0
100
AcDbMText
 10
607.5
 20
453.2243564018904
 30
0.0
 40
40.0
 41
0.0
 71
     5
 72
     1
  1
400
 73
     1
 44
1.0
  0
POINT
  5
3DD
330
3D5
100
AcDbEntity
  8
Defpoints
 62
     0
100
AcDbPoint
 10
407.5
 20
270.0
 30
0.0
  0
POINT
  5
3DE
330
3D5
100
AcDbEntity
  8
Defpoints
 62
     0
100
AcDbPoint
 10
807.4999999999999
 20
270.0
 30
0.0
  0
POINT
  5
3DF
330
3D5
100
AcDbEntity
  8
Defpoints
 62
     0
100
AcDbPoint
 10
807.4999999999999
 20
418.2243564018904
 30
0.0
  0
ENDBLK
  5
3E0
330
3D5
100
AcDbEntity
  8
0
100
AcDbBlockEnd
  0
BLOCK
  5
40A
330
3E2
100
AcDbEntity
  8
0
100
AcDbBlockBegin
  2
B2-750
 70
     0
 10
0.0
 20
0.0
 30
0.0
  3
B2-750
  1

  0
LWPOLYLINE
  5
3E3
330
3E2
100
AcDbEntity
  8
LATER
100
AcDbPolyline
 90
        8
 70
     1
 43
0.0
 10
-90.0
 20
0.0
 10
1305.0
 20
0.0
 10
1315.0
 20
10.0
 10
1315.0
 20
890.0
 10
1305.0
 20
900.0
 10
-90.0
 20
900.0
 10
-100.0
 20
890.0
 10
-100.0
 20
10.0
  0
LINE
  5
3E4
330
3E2
100
AcDbEntity
  8
DASHED
 48
0.15
100
AcDbLine
 10
0.0
 20
0.0
 30
0.0
 11
7.5
 21
700.0
 31
0.0
  0
LINE
  5
3E5
330
3E2
100
AcDbEntity
  8
DASHED
 48
0.15
100
AcDbLine
 10
7.5
 20
700.0
 30
0.0
 11
57.5
 21
750.0
 31
0.0
  0
LINE
  5
3E6
330
3E2
100
AcDbEntity
  8
DASHED
 48
0.15
100
AcDbLine
 10
57.5
 20
750.0
 30
0.0
 11
1157.5
 21
750.0
 31
0.0
  0
LINE
  5
3E7
330
3E2
100
AcDbEntity
  8
DASHED
 48
0.15
100
AcDbLine
 10
1157.5
 20
750.0
 30
0.0
 11
1207.5
 21
700.0
 31
0.0
  0
LINE
  5
3E8
330
3E2
100
AcDbEntity
  8
DASHED
 48
0.15
100
AcDbLine
 10
1207.5
 20
700.0
 30
0.0
 11
1215.0
 21
0.0
 31
0.0
  0
LINE
  5
3E9
330
3E2
100
AcDbEntity
  8
DASHED
 48
0.15
100
AcDbLine
 10
95.0
 20
750.0
 30
0.0
 11
105.0
 21
900.0
 31
0.0
  0
LINE
  5
3EA
330
3E2
100
AcDbEntity
  8
DASHED
 48
0.15
100
AcDbLine
 10
715.0
 20
900.0
 30
0.0
 11
725.0
 21
750.0
 31
0.0
  0
CIRCLE
  5
3EB
330
3E2
100
AcDbEntity
  8
DASHED
 48
0.15
100
AcDbCircle
 10
407.5
 20
250.0
 30
0.0
 40
8.0
  0
LINE
  5
3EC
330
3E2
100
AcDbEntity
  8
DASHED
 48
0.15
100
AcDbLine
 10
387.5
 20
250.0
 30
0.0
 11
427.5
 21
250.0
 31
0.0
  0
LINE
  5
3ED
330
3E2
100
AcDbEntity
  8
DASHED
 48
0.15
100
AcDbLine
 10
407.5
 20
230.0
 30
0.0
 11
407.5
 21
270.0
 31
0.0
  0
LINE
  5
3EE
330
3E2
100
AcDbEntity
  8
DASHED
 48
0.15
100
AcDbLine
 10
787.5
 20
250.0
 30
0.0
 11
827.5
 21
250.0
 31
0.0
  0
CIRCLE
  5
3EF
330
3E2
100
AcDbEntity
  8
DASHED
 48
0.15
100
AcDbCircle
 10
807.4999999999999
 20
250.0
 30
0.0
 40
8.0
  0
LINE
  5
3F0
330
3E2
100
AcDbEntity
  8
DASHED
 48
0.15
100
AcDbLine
 10
807.4999999999999
 20
230.0
 30
0.0
 11
807.4999999999999
 21
270.0
 31
0.0
  0
LWPOLYLINE
  5
3F1
330
3E2
100
AcDbEntity
  8
DASHED
 48
0.15
100
AcDbPolyline
 90
        4
 70
     1
 43
0.0
 10
-27.32142857142857
 20
242.0
 10
2.67857142857143
 20
242.0
 10
2.67857142857143
 20
258.0
 10
-27.32142857142857
 20
258.0
  0
LWPOLYLINE
  5
3F2
330
3E2
100
AcDbEntity
  8
DASHED
 48
0.15
100
AcDbPolyline
 90
        4
 70
     1
 43
0.0
 10
-24.10714285714286
 20
542.0
 10
5.892857142857138
 20
542.0
 10
5.892857142857138
 20
558.0
 10
-24.10714285714286
 20
558.0
  0
LWPOLYLINE
  5
3F3
330
3E2
100
AcDbEntity
  8
DASHED
 48
0.15
100
AcDbPolyline
 90
        4
 70
     1
 43
0.0
 10
1242.321428571429
 20
242.0
 10
1212.321428571428
 20
242.0
 10
1212.321428571428
 20
258.0
 10
1242.321428571429
 20
258.0
  0
LWPOLYLINE
  5
3F4
330
3E2
100
AcDbEntity
  8
LATER
100
AcDbPolyline
 90
        6
 70
     1
 43
0.0
 10
-10.0
 20
1000.0
 10
830.0
 20
1000.0
 42
-0.4142135623730951
 10
845.0000000000001
 20
985.0
 10
845.0
 20
900.0
 10
-25.0
 20
900.0
 10
-25.0
 20
985.0
 42
-0.4142135623730951
  0
LINE
  5
3F5
330
3E2
100
AcDbEntity
  8
DASHED
 48
0.15
100
AcDbLine
 10
110.0
 20
1000.0
 30
0.0
 11
105.0
 21
900.0
 31
0.0
  0
LINE
  5
3F6
330
3E2
100
AcDbEntity
  8
DASHED
 48
0.15
100
AcDbLine
 10
710.0
 20
1000.0
 30
0.0
 11
715.0
 21
900.0
 31
0.0
  0
DIMENSION
  5
3F7
330
3E2
100
AcDbEntity
  8
DIM
100
AcDbDimension
  2
*D1
 10
1615.0
 20
-0.0000000000000878
 30
0.0
 11
1580.0
 21
375.0000000000001
 31
0.0
 70
    32
 71
     5
 42
749.9999999999999
  3
Standerd
100
AcDbAlignedDimension
 13
1157.5
 23
750.0
 33
0.0
 14
1305.0
 24
0.0
 34
0.0
 50
90.0
100
AcDbRotatedDimension
  0
DIMENSION
  5
3F8
330
3E2
100
AcDbEntity
  8
DIM
100
AcDbDimension
  2
*D2
 10
697.5159248473552
 20
800.8428824539759
 30
0.0
 11
392.5159248473552
 21
835.842882453976
 31
0.0
 70
    32
 71
     5
 42
610.0
  3
Standerd1
100
AcDbAlignedDimension
 13
105.0
 23
900.0
 33
0.0
 14
715.0
 24
900.0
 34
0.0
100
AcDbRotatedDimension
  0
DIMENSION
  5
3F9
330
3E2
100
AcDbEntity
  8
DIM
100
AcDbDimension
  2
*D3
 10
710.0
 20
1150.0
 30
0.0
 11
421.7551294819541
 21
1150.0
 31
0.0
 70
   160
 71
     5
 42
600.0
  3
Standerd
100
AcDbAlignedDimension
 13
110.0
 23
1000.0
 33
0.0
 14
710.0
 24
1000.0
 34
0.0
100
AcDbRotatedDimension
  0
DIMENSION
  5
3FA
330
3E2
100
AcDbEntity
  8
DIM
100
AcDbDimension
  2
*D4
 10
-24.99999999999999
 20
1150.0
 30
0.0
 11
42.50000000000001
 21
1185.0
 31
0.0
 70
    32
 71
     5
 42
135.0
  3
Standerd
100
AcDbAlignedDimension
 13
110.0
 23
1000.0
 33
0.0
 14
-25.0
 24
985.0
 34
0.0
100
AcDbRotatedDimension
  0
DIMENSION
  5
3FB
330
3E2
100
AcDbEntity
  8
DIM
100
AcDbDimension
  2
*D5
 10
845.0000000000001
 20
1150.0
 30
0.0
 11
777.5
 21
1185.0
 31
0.0
 70
    32
 71
     5
 42
135.0000000000001
  3
Standerd
100
AcDbAlignedDimension
 13
710.0
 23
1000.0
 33
0.0
 14
845.0000000000001
 24
985.0
 34
0.0
100
AcDbRotatedDimension
  0
LINE
  5
3FC
330
3E2
100
AcDbEntity
  8
CENTER
 48
0.2
100
AcDbLine
 10
410.0000000000001
 20
1050.0
 30
0.0
 11
410.0000000000001
 21
700.0
 31
0.0
  0
DIMENSION
  5
3FD
330
3E2
100
AcDbEntity
  8
DIM
100
AcDbDimension
  2
*D6
 10
-99.99999999999998
 20
1300.0
 30
0.0
 11
155.0
 21
1335.0
 31
0.0
 70
    32
 71
     5
 42
510.0000000000001
  3
Standerd
100
AcDbAlignedDimension
 13
410.0000000000001
 23
1050.0
 33
0.0
 14
-100.0
 24
890.0
 34
0.0
100
AcDbRotatedDimension
  0
DIMENSION
  5
3FE
330
3E2
100
AcDbEntity
  8
DIM
100
AcDbDimension
  2
*D7
 10
1315.0
 20
1300.0
 30
0.0
 11
862.5
 21
1335.0
 31
0.0
 70
    32
 71
     5
 42
904.9999999999998
  3
Standerd
100
AcDbAlignedDimension
 13
410.0000000000001
 23
1050.0
 33
0.0
 14
1315.0
 24
890.0
 34
0.0
100
AcDbRotatedDimension
  0
DIMENSION
  5
3FF
330
3E2
100
AcDbEntity
  8
DIM
100
AcDbDimension
  2
*D8
 10
1315.0
 20
1450.0
 30
0.0
 11
607.5
 21
1485.0
 31
0.0
 70
    32
 71
     5
 42
1415.0
  3
Standerd
100
AcDbAlignedDimension
 13
-100.0
 23
890.0
 33
0.0
 14
1315.0
 24
890.0
 34
0.0
100
AcDbRotatedDimension
  0
TEXT
  5
400
330
3E2
100
AcDbEntity
  8
TXT
100
AcDbText
 10
-550.0
 20
920.0
 30
0.0
 40
60.0
  1
C  R
 41
1.5
100
AcDbText
  0
TEXT
  5
401
330
3E2
100
AcDbEntity
  8
TXT
100
AcDbText
 10
-550.0
 20
820.0
 30
0.0
 40
60.0
  1
B2-750
 41
1.5
100
AcDbText
  0
DIMENSION
  5
402
330
3E2
100
AcDbEntity
  8
DIM
100
AcDbDimension
  2
*D9
 10
1615.0
 20
900.0
 30
0.0
 11
1580.0
 21
825.0000000000001
 31
0.0
 70
    32
 71
     5
 42
150.0000000000001
  3
Standerd
100
AcDbAlignedDimension
 13
1157.5
 23
750.0
 33
0.0
 14
1305.0
 24
900.0
 34
0.0
 50
90.0
100
AcDbRotatedDimension
  0
DIMENSION
  5
403
330
3E2
100
AcDbEntity
  8
DIM
100
AcDbDimension
  2
*D10
 10
1765.0
 20
-0.0000000000001303
 30
0.0
 11
1730.0
 21
450.0000000000001
 31
0.0
 70
    32
 71
     5
 42
900.0
  3
Standerd
100
AcDbAlignedDimension
 13
1305.0
 23
900.0
 33
0.0
 14
1305.0
 24
0.0
 34
0.0
 50
90.0
100
AcDbRotatedDimension
  0
DIMENSION
  5
404
330
3E2
100
AcDbEntity
  8
DIM
100
AcDbDimension
  2
*D11
 10
1765.0
 20
999.9999999999998
 30
0.0
 11
1730.0
 21
950.0000000000001
 31
0.0
 70
    32
 71
     5
 42
99.99999999999989
  3
Standerd
100
AcDbAlignedDimension
 13
1305.0
 23
900.0
 33
0.0
 14
830.0
 24
1000.0
 34
0.0
 50
90.0
100
AcDbRotatedDimension
  0
LEADER
  5
405
330
3E2
100
AcDbEntity
  8
TXT
100
AcDbLeader
  3
Standerd
 73
     0
 40
40.00787401574804
 41
481.6568542494919
 76
     2
 10
-24.10714285714286
 20
542.0
 30
0.0
 10
-263.8027353046391
 20
484.028735637265
 30
0.0
340
406
213
0.0
223
20.0
233
0.0
1001
ACAD
1000
DSTYLE
1002
{
1070
   147
1040
15.0
1070
    77
1070
     0
1002
}
  0
MTEXT
  5
406
102
{ACAD_REACTORS
330
405
102
}
330
3E2
100
AcDbEntity
  8
TXT
100
AcDbMText
 10
-278.8027353046391
 20
464.028735637265
 30
0.0
 40
40.0
 41
0.0
 71
     9
 72
     1
  1
M12ｲﾝｻｰﾄ（１面のみ）
 73
     1
 44
1.0
  0
DIMENSION
  5
407
330
3E2
100
AcDbEntity
  8
DIM
100
AcDbDimension
  2
*D12
 10
90.0
 20
-0.0000000000000255
 30
0.0
 11
54.99606299212599
 21
125.0
 31
0.0
 70
    32
 71
     5
 42
250.0
  3
Standerd
100
AcDbAlignedDimension
 13
-27.32142857142857
 23
250.0
 33
0.0
 14
0.0
 24
0.0
 34
0.0
 50
90.0
100
AcDbRotatedDimension
  0
DIMENSION
  5
408
330
3E2
100
AcDbEntity
  8
DIM
100
AcDbDimension
  2
*D13
 10
90.00000000000012
 20
550.0
 30
0.0
 11
55.00000000000002
 21
400.0
 31
0.0
 70
    32
 71
     5
 42
300.0
  3
Standerd
100
AcDbAlignedDimension
 13
-27.32142857142857
 23
250.0
 33
0.0
 14
-24.10714285714286
 24
550.0
 34
0.0
 50
90.0
100
AcDbRotatedDimension
  0
DIMENSION
  5
409
330
3E2
100
AcDbEntity
  8
DIM
100
AcDbDimension
  2
*D14
 10
807.4999999999999
 20
418.2243564018904
 30
0.0
 11
607.5
 21
453.2243564018904
 31
0.0
 70
    32
 71
     5
 42
400.0
  3
Standerd
100
AcDbAlignedDimension
 13
407.5
 23
270.0
 33
0.0
 14
807.4999999999999
 24
270.0
 34
0.0
100
AcDbRotatedDimension
  0
ENDBLK
  5
40B
330
3E2
100
AcDbEntity
  8
0
100
AcDbBlockEnd
  0
BLOCK
  5
40F
330
40E
100
AcDbEntity
  8
0
100
AcDbBlockBegin
  2
*D16
 70
     1
 10
0.0
 20
0.0
 30
0.0
  3
*D16
  1

  0
LINE
  5
410
330
40E
100
AcDbEntity
  8
NO
 62
     0
370
    -2
100
AcDbLine
 10
1907.842030105023
 20
1342.723087638182
 30
0.0
 11
2027.842030105023
 21
1342.723087638182
 31
0.0
  0
LINE
  5
411
330
40E
100
AcDbEntity
  8
NO
 62
     0
370
    -2
100
AcDbLine
 10
1882.842030105023
 20
1132.723087638182
 30
0.0
 11
2027.842030105023
 21
1132.723087638182
 31
0.0
  0
LINE
  5
412
330
40E
100
AcDbEntity
  8
NO
 62
     0
370
    -2
100
AcDbLine
 10
1997.842030105022
 20
1302.723087638182
 30
0.0
 11
1997.842030105022
 21
1172.723087638182
 31
0.0
  0
SOLID
  5
413
330
40E
100
AcDbEntity
  8
NO
 62
     0
100
AcDbTrace
 10
1991.175363438356
 20
1302.723087638182
 30
0.0
 11
2004.50869677169
 21
1302.723087638182
 31
0.0
 12
1997.842030105022
 22
1342.723087638182
 32
0.0
 13
1997.842030105022
 23
1342.723087638182
 33
0.0
  0
SOLID
  5
414
330
40E
100
AcDbEntity
  8
NO
 62
     0
100
AcDbTrace
 10
1991.175363438356
 20
1172.723087638182
 30
0.0
 11
2004.50869677169
 21
1172.723087638182
 31
0.0
 12
1997.842030105022
 22
1132.723087638182
 32
0.0
 13
1997.842030105022
 23
1132.723087638182
 33
0.0
  0
MTEXT
  5
415
330
40E
100
AcDbEntity
  8
NO
 62
     0
100
AcDbMText
 10
1962.838093097148
 20
1237.723087638182
 30
0.0
 40
40.0
 41
0.0
 71
     5
 72
     1
  1
210
 11
0.0000000000000001
 21
1.0
 31
0.0
 73
     1
 44
1.0
  0
POINT
  5
416
330
40E
100
AcDbEntity
  8
Defpoints
 62
     0
100
AcDbPoint
 10
1837.842030105022
 20
1342.723087638182
 30
0.0
  0
POINT
  5
417
330
40E
100
AcDbEntity
  8
Defpoints
 62
     0
100
AcDbPoint
 10
1812.842030105023
 20
1132.723087638182
 30
0.0
  0
POINT
  5
418
330
40E
100
AcDbEntity
  8
Defpoints
 62
     0
100
AcDbPoint
 10
1997.842030105022
 20
1132.723087638182
 30
0.0
  0
ENDBLK
  5
419
330
40E
100
AcDbEntity
  8
0
100
AcDbBlockEnd
  0
BLOCK
  5
41B
330
41A
100
AcDbEntity
  8
0
100
AcDbBlockBegin
  2
*D17
 70
     1
 10
0.0
 20
0.0
 30
0.0
  3
*D17
  1

  0
LINE
  5
41C
330
41A
100
AcDbEntity
  8
NO
 62
     0
370
    -2
100
AcDbLine
 10
690.3420301050227
 20
612.7230876381823
 30
0.0
 11
690.3420301050227
 21
312.7230876381823
 31
0.0
  0
LINE
  5
41D
330
41A
100
AcDbEntity
  8
NO
 62
     0
370
    -2
100
AcDbLine
 10
1590.342030105023
 20
612.7230876381823
 30
0.0
 11
1590.342030105023
 21
312.7230876381823
 31
0.0
  0
LINE
  5
41E
330
41A
100
AcDbEntity
  8
NO
 62
     0
370
    -2
100
AcDbLine
 10
730.3420301050228
 20
342.7230876381823
 30
0.0
 11
1550.342030105023
 21
342.7230876381823
 31
0.0
  0
SOLID
  5
41F
330
41A
100
AcDbEntity
  8
NO
 62
     0
100
AcDbTrace
 10
730.3420301050228
 20
349.389754304849
 30
0.0
 11
730.3420301050228
 21
336.0564209715156
 31
0.0
 12
690.3420301050227
 22
342.7230876381823
 32
0.0
 13
690.3420301050227
 23
342.7230876381823
 33
0.0
  0
SOLID
  5
420
330
41A
100
AcDbEntity
  8
NO
 62
     0
100
AcDbTrace
 10
1550.342030105023
 20
349.389754304849
 30
0.0
 11
1550.342030105023
 21
336.0564209715156
 31
0.0
 12
1590.342030105023
 22
342.7230876381823
 32
0.0
 13
1590.342030105023
 23
342.7230876381823
 33
0.0
  0
MTEXT
  5
421
330
41A
100
AcDbEntity
  8
NO
 62
     0
100
AcDbMText
 10
1140.342030105023
 20
377.7230876381823
 30
0.0
 40
40.0
 41
0.0
 71
     5
 72
     1
  1
900
 73
     1
 44
1.0
  0
POINT
  5
422
330
41A
100
AcDbEntity
  8
Defpoints
 62
     0
100
AcDbPoint
 10
690.3420301050227
 20
682.7230876381823
 30
0.0
  0
POINT
  5
423
330
41A
100
AcDbEntity
  8
Defpoints
 62
     0
100
AcDbPoint
 10
1590.342030105023
 20
682.7230876381823
 30
0.0
  0
POINT
  5
424
330
41A
100
AcDbEntity
  8
Defpoints
 62
     0
100
AcDbPoint
 10
1590.342030105023
 20
342.7230876381823
 30
0.0
  0
ENDBLK
  5
425
330
41A
100
AcDbEntity
  8
0
100
AcDbBlockEnd
  0
BLOCK
  5
427
330
426
100
AcDbEntity
  8
0
100
AcDbBlockBegin
  2
*D18
 70
     1
 10
0.0
 20
0.0
 30
0.0
  3
*D18
  1

  0
LINE
  5
428
330
426
100
AcDbEntity
  8
DIM
 62
     0
370
    -2
100
AcDbLine
 10
540.3420301050227
 20
572.7230876381822
 30
0.0
 11
540.3420301050227
 21
162.7230876381823
 31
0.0
  0
LINE
  5
429
330
426
100
AcDbEntity
  8
DIM
 62
     0
370
    -2
100
AcDbLine
 10
1740.342030105023
 20
572.7230876381822
 30
0.0
 11
1740.342030105023
 21
162.7230876381823
 31
0.0
  0
LINE
  5
42A
330
426
100
AcDbEntity
  8
DIM
 62
     0
370
    -2
100
AcDbLine
 10
580.3420301050228
 20
192.7230876381823
 30
0.0
 11
1700.342030105022
 21
192.7230876381823
 31
0.0
  0
SOLID
  5
42B
330
426
100
AcDbEntity
  8
DIM
 62
     0
100
AcDbTrace
 10
580.3420301050228
 20
199.3897543048489
 30
0.0
 11
580.3420301050228
 21
186.0564209715156
 31
0.0
 12
540.3420301050227
 22
192.7230876381823
 32
0.0
 13
540.3420301050227
 23
192.7230876381823
 33
0.0
  0
SOLID
  5
42C
330
426
100
AcDbEntity
  8
DIM
 62
     0
100
AcDbTrace
 10
1700.342030105022
 20
199.3897543048489
 30
0.0
 11
1700.342030105022
 21
186.0564209715156
 31
0.0
 12
1740.342030105023
 22
192.7230876381823
 32
0.0
 13
1740.342030105023
 23
192.7230876381823
 33
0.0
  0
MTEXT
  5
42D
330
426
100
AcDbEntity
  8
DIM
 62
     0
100
AcDbMText
 10
1140.342030105023
 20
227.7270246460563
 30
0.0
 40
40.0
 41
0.0
 71
     5
 72
     1
  1
1200
 73
     1
 44
1.0
  0
POINT
  5
42E
330
426
100
AcDbEntity
  8
Defpoints
 62
     0
100
AcDbPoint
 10
540.3420301050227
 20
642.7230876381822
 30
0.0
  0
POINT
  5
42F
330
426
100
AcDbEntity
  8
Defpoints
 62
     0
100
AcDbPoint
 10
1740.342030105023
 20
642.7230876381822
 30
0.0
  0
POINT
  5
430
330
426
100
AcDbEntity
  8
Defpoints
 62
     0
100
AcDbPoint
 10
1740.342030105023
 20
192.7230876381823
 30
0.0
  0
ENDBLK
  5
431
330
426
100
AcDbEntity
  8
0
100
AcDbBlockEnd
  0
BLOCK
  5
433
330
432
100
AcDbEntity
  8
0
100
AcDbBlockBegin
  2
*D19
 70
     1
 10
0.0
 20
0.0
 30
0.0
  3
*D19
  1

  0
LINE
  5
434
330
432
100
AcDbEntity
  8
DIM
 62
     0
370
    -2
100
AcDbLine
 10
432.8420301050227
 20
432.7230876381823
 30
0.0
 11
432.8420301050227
 21
12.72308763818228
 31
0.0
  0
LINE
  5
435
330
432
100
AcDbEntity
  8
DIM
 62
     0
370
    -2
100
AcDbLine
 10
1847.842030105023
 20
432.7230876381823
 30
0.0
 11
1847.842030105023
 21
12.72308763818228
 31
0.0
  0
LINE
  5
436
330
432
100
AcDbEntity
  8
DIM
 62
     0
370
    -2
100
AcDbLine
 10
472.8420301050228
 20
42.72308763818227
 30
0.0
 11
1807.842030105023
 21
42.72308763818227
 31
0.0
  0
SOLID
  5
437
330
432
100
AcDbEntity
  8
DIM
 62
     0
100
AcDbTrace
 10
472.8420301050228
 20
49.38975430484894
 30
0.0
 11
472.8420301050228
 21
36.05642097151561
 31
0.0
 12
432.8420301050227
 22
42.72308763818227
 32
0.0
 13
432.8420301050227
 23
42.72308763818227
 33
0.0
  0
SOLID
  5
438
330
432
100
AcDbEntity
  8
DIM
 62
     0
100
AcDbTrace
 10
1807.842030105023
 20
49.38975430484894
 30
0.0
 11
1807.842030105023
 21
36.05642097151561
 31
0.0
 12
1847.842030105023
 22
42.72308763818227
 32
0.0
 13
1847.842030105023
 23
42.72308763818227
 33
0.0
  0
MTEXT
  5
439
330
432
100
AcDbEntity
  8
DIM
 62
     0
100
AcDbMText
 10
1140.342030105023
 20
77.72308763818227
 30
0.0
 40
40.0
 41
0.0
 71
     5
 72
     1
  1
1415
 73
     1
 44
1.0
  0
POINT
  5
43A
330
432
100
AcDbEntity
  8
Defpoints
 62
     0
100
AcDbPoint
 10
432.8420301050227
 20
502.7230876381822
 30
0.0
  0
POINT
  5
43B
330
432
100
AcDbEntity
  8
Defpoints
 62
     0
100
AcDbPoint
 10
1847.842030105023
 20
502.7230876381822
 30
0.0
  0
POINT
  5
43C
330
432
100
AcDbEntity
  8
Defpoints
 62
     0
100
AcDbPoint
 10
1847.842030105023
 20
42.72308763818227
 30
0.0
  0
ENDBLK
  5
43D
330
432
100
AcDbEntity
  8
0
100
AcDbBlockEnd
  0
BLOCK
  5
43F
330
43E
100
AcDbEntity
  8
0
100
AcDbBlockBegin
  2
*D20
 70
     1
 10
0.0
 20
0.0
 30
0.0
  3
*D20
  1

  0
LINE
  5
440
330
43E
100
AcDbEntity
  8
NO
 62
     0
370
    -2
100
AcDbLine
 10
1882.842030105023
 20
1132.723087638182
 30
0.0
 11
2027.842030105023
 21
1132.723087638182
 31
0.0
  0
LINE
  5
441
330
43E
100
AcDbEntity
  8
NO
 62
     0
370
    -2
100
AcDbLine
 10
1882.842030105023
 20
682.7230876381823
 30
0.0
 11
2027.842030105023
 21
682.7230876381823
 31
0.0
  0
LINE
  5
442
330
43E
100
AcDbEntity
  8
NO
 62
     0
370
    -2
100
AcDbLine
 10
1997.842030105022
 20
1092.723087638182
 30
0.0
 11
1997.842030105022
 21
722.7230876381822
 31
0.0
  0
SOLID
  5
443
330
43E
100
AcDbEntity
  8
NO
 62
     0
100
AcDbTrace
 10
1991.175363438356
 20
1092.723087638182
 30
0.0
 11
2004.50869677169
 21
1092.723087638182
 31
0.0
 12
1997.842030105022
 22
1132.723087638182
 32
0.0
 13
1997.842030105022
 23
1132.723087638182
 33
0.0
  0
SOLID
  5
444
330
43E
100
AcDbEntity
  8
NO
 62
     0
100
AcDbTrace
 10
1991.175363438356
 20
722.7230876381822
 30
0.0
 11
2004.50869677169
 21
722.7230876381822
 31
0.0
 12
1997.842030105022
 22
682.7230876381823
 32
0.0
 13
1997.842030105022
 23
682.7230876381823
 33
0.0
  0
MTEXT
  5
445
330
43E
100
AcDbEntity
  8
NO
 62
     0
100
AcDbMText
 10
1962.842030105022
 20
907.7230876381825
 30
0.0
 40
40.0
 41
0.0
 71
     5
 72
     1
  1
450
 11
0.0000000000000001
 21
1.0
 31
0.0
 73
     1
 44
1.0
  0
POINT
  5
446
330
43E
100
AcDbEntity
  8
Defpoints
 62
     0
100
AcDbPoint
 10
1812.842030105023
 20
1132.723087638182
 30
0.0
  0
POINT
  5
447
330
43E
100
AcDbEntity
  8
Defpoints
 62
     0
100
AcDbPoint
 10
1812.842030105023
 20
682.7230876381823
 30
0.0
  0
POINT
  5
448
330
43E
100
AcDbEntity
  8
Defpoints
 62
     0
100
AcDbPoint
 10
1997.842030105022
 20
682.7230876381823
 30
0.0
  0
ENDBLK
  5
449
330
43E
100
AcDbEntity
  8
0
100
AcDbBlockEnd
  0
BLOCK
  5
44B
330
44A
100
AcDbEntity
  8
0
100
AcDbBlockBegin
  2
*D21
 70
     1
 10
0.0
 20
0.0
 30
0.0
  3
*D21
  1

  0
LINE
  5
44C
330
44A
100
AcDbEntity
  8
DIM
 62
     0
370
    -2
100
AcDbLine
 10
1907.842030105023
 20
1342.723087638182
 30
0.0
 11
2177.842030105023
 21
1342.723087638182
 31
0.0
  0
LINE
  5
44D
330
44A
100
AcDbEntity
  8
DIM
 62
     0
370
    -2
100
AcDbLine
 10
1760.342030105023
 20
592.7230876381822
 30
0.0
 11
2177.842030105023
 21
592.7230876381822
 31
0.0
  0
LINE
  5
44E
330
44A
100
AcDbEntity
  8
DIM
 62
     0
370
    -2
100
AcDbLine
 10
2147.842030105023
 20
1302.723087638182
 30
0.0
 11
2147.842030105023
 21
632.7230876381821
 31
0.0
  0
SOLID
  5
44F
330
44A
100
AcDbEntity
  8
DIM
 62
     0
100
AcDbTrace
 10
2141.175363438357
 20
1302.723087638182
 30
0.0
 11
2154.50869677169
 21
1302.723087638182
 31
0.0
 12
2147.842030105023
 22
1342.723087638182
 32
0.0
 13
2147.842030105023
 23
1342.723087638182
 33
0.0
  0
SOLID
  5
450
330
44A
100
AcDbEntity
  8
DIM
 62
     0
100
AcDbTrace
 10
2141.175363438356
 20
632.7230876381821
 30
0.0
 11
2154.508696771689
 21
632.7230876381821
 31
0.0
 12
2147.842030105023
 22
592.7230876381822
 32
0.0
 13
2147.842030105023
 23
592.7230876381822
 33
0.0
  0
MTEXT
  5
451
330
44A
100
AcDbEntity
  8
DIM
 62
     0
100
AcDbMText
 10
2112.842030105023
 20
967.7230876381825
 30
0.0
 40
40.0
 41
0.0
 71
     5
 72
     1
  1
750
 11
0.0000000000000001
 21
1.0
 31
0.0
 73
     1
 44
1.0
  0
POINT
  5
452
330
44A
100
AcDbEntity
  8
Defpoints
 62
     0
100
AcDbPoint
 10
1837.842030105022
 20
1342.723087638182
 30
0.0
  0
POINT
  5
453
330
44A
100
AcDbEntity
  8
Defpoints
 62
     0
100
AcDbPoint
 10
1690.342030105023
 20
592.7230876381822
 30
0.0
  0
POINT
  5
454
330
44A
100
AcDbEntity
  8
Defpoints
 62
     0
100
AcDbPoint
 10
2147.842030105023
 20
592.7230876381822
 30
0.0
  0
ENDBLK
  5
455
330
44A
100
AcDbEntity
  8
0
100
AcDbBlockEnd
  0
BLOCK
  5
457
330
456
100
AcDbEntity
  8
0
100
AcDbBlockBegin
  2
*D22
 70
     1
 10
0.0
 20
0.0
 30
0.0
  3
*D22
  1

  0
LINE
  5
458
330
456
100
AcDbEntity
  8
DIM
 62
     0
370
    -2
100
AcDbLine
 10
1907.842030105023
 20
492.7230876381822
 30
0.0
 11
2327.842030105022
 21
492.7230876381821
 31
0.0
  0
LINE
  5
459
330
456
100
AcDbEntity
  8
DIM
 62
     0
370
    -2
100
AcDbLine
 10
1907.842030105023
 20
1342.723087638182
 30
0.0
 11
2327.842030105023
 21
1342.723087638182
 31
0.0
  0
LINE
  5
45A
330
456
100
AcDbEntity
  8
DIM
 62
     0
370
    -2
100
AcDbLine
 10
2297.842030105023
 20
532.7230876381823
 30
0.0
 11
2297.842030105023
 21
1302.723087638182
 31
0.0
  0
SOLID
  5
45B
330
456
100
AcDbEntity
  8
DIM
 62
     0
100
AcDbTrace
 10
2291.175363438356
 20
532.7230876381823
 30
0.0
 11
2304.508696771689
 21
532.7230876381821
 31
0.0
 12
2297.842030105023
 22
492.7230876381822
 32
0.0
 13
2297.842030105023
 23
492.7230876381822
 33
0.0
  0
SOLID
  5
45C
330
456
100
AcDbEntity
  8
DIM
 62
     0
100
AcDbTrace
 10
2291.175363438356
 20
1302.723087638182
 30
0.0
 11
2304.508696771689
 21
1302.723087638182
 31
0.0
 12
2297.842030105023
 22
1342.723087638182
 32
0.0
 13
2297.842030105023
 23
1342.723087638182
 33
0.0
  0
MTEXT
  5
45D
330
456
100
AcDbEntity
  8
DIM
 62
     0
100
AcDbMText
 10
2262.842030105022
 20
917.7230876381825
 30
0.0
 40
40.0
 41
0.0
 71
     5
 72
     1
  1
850
 11
0.0000000000000001
 21
1.0
 31
0.0
 73
     1
 44
1.0
  0
POINT
  5
45E
330
456
100
AcDbEntity
  8
Defpoints
 62
     0
100
AcDbPoint
 10
1837.842030105022
 20
492.7230876381822
 30
0.0
  0
POINT
  5
45F
330
456
100
AcDbEntity
  8
Defpoints
 62
     0
100
AcDbPoint
 10
1837.842030105022
 20
1342.723087638182
 30
0.0
  0
POINT
  5
460
330
456
100
AcDbEntity
  8
Defpoints
 62
     0
100
AcDbPoint
 10
2297.842030105023
 20
1342.723087638182
 30
0.0
  0
ENDBLK
  5
461
330
456
100
AcDbEntity
  8
0
100
AcDbBlockEnd
  0
BLOCK
  5
463
330
462
100
AcDbEntity
  8
0
100
AcDbBlockBegin
  2
*D23
 70
     1
 10
0.0
 20
0.0
 30
0.0
  3
*D23
  1

  0
LINE
  5
464
330
462
100
AcDbEntity
  8
NO
 62
     0
370
    -2
100
AcDbLine
 10
397.8420301050228
 20
1032.723087638182
 30
0.0
 11
252.8420301050227
 21
1032.723087638182
 31
0.0
  0
LINE
  5
465
330
462
100
AcDbEntity
  8
NO
 62
     0
370
    -2
100
AcDbLine
 10
397.8420301050226
 20
682.7230876381823
 30
0.0
 11
252.8420301050226
 21
682.7230876381824
 31
0.0
  0
LINE
  5
466
330
462
100
AcDbEntity
  8
NO
 62
     0
370
    -2
100
AcDbLine
 10
282.8420301050227
 20
992.7230876381822
 30
0.0
 11
282.8420301050226
 21
722.7230876381822
 31
0.0
  0
SOLID
  5
467
330
462
100
AcDbEntity
  8
NO
 62
     0
100
AcDbTrace
 10
276.175363438356
 20
992.7230876381822
 30
0.0
 11
289.5086967716894
 21
992.7230876381822
 31
0.0
 12
282.8420301050227
 22
1032.723087638182
 32
0.0
 13
282.8420301050227
 23
1032.723087638182
 33
0.0
  0
SOLID
  5
468
330
462
100
AcDbEntity
  8
NO
 62
     0
100
AcDbTrace
 10
276.1753634383559
 20
722.7230876381822
 30
0.0
 11
289.5086967716893
 21
722.7230876381822
 31
0.0
 12
282.8420301050226
 22
682.7230876381823
 32
0.0
 13
282.8420301050226
 23
682.7230876381823
 33
0.0
  0
MTEXT
  5
469
330
462
100
AcDbEntity
  8
NO
 62
     0
100
AcDbMText
 10
247.8420301050225
 20
857.7230876381822
 30
0.0
 40
40.0
 41
0.0
 71
     5
 72
     1
  1
350
 11
0.0000000000000001
 21
1.0
 31
0.0
 73
     1
 44
1.0
  0
POINT
  5
46A
330
462
100
AcDbEntity
  8
Defpoints
 62
     0
100
AcDbPoint
 10
467.8420301050228
 20
1032.723087638182
 30
0.0
  0
POINT
  5
46B
330
462
100
AcDbEntity
  8
Defpoints
 62
     0
100
AcDbPoint
 10
467.8420301050225
 20
682.7230876381823
 30
0.0
  0
POINT
  5
46C
330
462
100
AcDbEntity
  8
Defpoints
 62
     0
100
AcDbPoint
 10
282.8420301050226
 20
682.7230876381823
 30
0.0
  0
ENDBLK
  5
46D
330
462
100
AcDbEntity
  8
0
100
AcDbBlockEnd
  0
BLOCK
  5
46F
330
46E
100
AcDbEntity
  8
0
100
AcDbBlockBegin
  2
*D24
 70
     1
 10
0.0
 20
0.0
 30
0.0
  3
*D24
  1

  0
LINE
  5
470
330
46E
100
AcDbEntity
  8
DIM
 62
     0
370
    -2
100
AcDbLine
 10
1760.342030105023
 20
592.7230876381822
 30
0.0
 11
2177.842030105022
 21
592.7230876381822
 31
0.0
  0
LINE
  5
471
330
46E
100
AcDbEntity
  8
DIM
 62
     0
370
    -2
100
AcDbLine
 10
1907.842030105023
 20
492.7230876381822
 30
0.0
 11
2177.842030105022
 21
492.7230876381822
 31
0.0
  0
LINE
  5
472
330
46E
100
AcDbEntity
  8
DIM
 62
     0
370
    -2
100
AcDbLine
 10
2147.842030105023
 20
632.7230876381821
 30
0.0
 11
2147.842030105023
 21
672.7230876381821
 31
0.0
  0
LINE
  5
473
330
46E
100
AcDbEntity
  8
DIM
 62
     0
370
    -2
100
AcDbLine
 10
2147.842030105023
 20
452.7230876381822
 30
0.0
 11
2147.842030105023
 21
412.7230876381822
 31
0.0
  0
SOLID
  5
474
330
46E
100
AcDbEntity
  8
DIM
 62
     0
100
AcDbTrace
 10
2141.175363438356
 20
632.7230876381821
 30
0.0
 11
2154.508696771689
 21
632.7230876381821
 31
0.0
 12
2147.842030105023
 22
592.7230876381822
 32
0.0
 13
2147.842030105023
 23
592.7230876381822
 33
0.0
  0
SOLID
  5
475
330
46E
100
AcDbEntity
  8
DIM
 62
     0
100
AcDbTrace
 10
2141.175363438356
 20
452.7230876381822
 30
0.0
 11
2154.508696771689
 21
452.7230876381822
 31
0.0
 12
2147.842030105023
 22
492.7230876381822
 32
0.0
 13
2147.842030105023
 23
492.7230876381822
 33
0.0
  0
MTEXT
  5
476
330
46E
100
AcDbEntity
  8
DIM
 62
     0
100
AcDbMText
 10
2112.842030105023
 20
542.7230876381825
 30
0.0
 40
40.0
 41
0.0
 71
     5
 72
     1
  1
100
 11
0.0000000000000001
 21
1.0
 31
0.0
 73
     1
 44
1.0
  0
POINT
  5
477
330
46E
100
AcDbEntity
  8
Defpoints
 62
     0
100
AcDbPoint
 10
1690.342030105023
 20
592.7230876381822
 30
0.0
  0
POINT
  5
478
330
46E
100
AcDbEntity
  8
Defpoints
 62
     0
100
AcDbPoint
 10
1837.842030105022
 20
492.7230876381822
 30
0.0
  0
POINT
  5
479
330
46E
100
AcDbEntity
  8
Defpoints
 62
     0
100
AcDbPoint
 10
2147.842030105023
 20
492.7230876381822
 30
0.0
  0
ENDBLK
  5
47A
330
46E
100
AcDbEntity
  8
0
100
AcDbBlockEnd
  0
BLOCK
  5
47C
330
47B
100
AcDbEntity
  8
0
100
AcDbBlockBegin
  2
*D25
 70
     1
 10
0.0
 20
0.0
 30
0.0
  3
*D25
  1

  0
LINE
  5
47D
330
47B
100
AcDbEntity
  8
DIM
 62
     0
370
    -2
100
AcDbLine
 10
1841.670585780226
 20
1367.723087638182
 30
0.0
 11
1828.446062227092
 21
1442.723087638182
 31
0.0
  0
LINE
  5
47E
330
47B
100
AcDbEntity
  8
DIM
 62
     0
370
    -2
100
AcDbLine
 10
1741.670585780227
 20
1377.723087638182
 30
0.0
 11
1730.209332034176
 21
1442.723087638182
 31
0.0
  0
LINE
  5
47F
330
47B
100
AcDbEntity
  8
DIM
 62
     0
370
    -2
100
AcDbLine
 10
1873.735871648345
 20
1412.723087638182
 30
0.0
 11
1913.735871648346
 21
1412.723087638182
 31
0.0
  0
LINE
  5
480
330
47B
100
AcDbEntity
  8
DIM
 62
     0
370
    -2
100
AcDbLine
 10
1695.49914145543
 20
1412.723087638182
 30
0.0
 11
1655.49914145543
 21
1412.723087638182
 31
0.0
  0
SOLID
  5
481
330
47B
100
AcDbEntity
  8
DIM
 62
     0
100
AcDbTrace
 10
1873.735871648345
 20
1419.389754304849
 30
0.0
 11
1873.735871648345
 21
1406.056420971515
 31
0.0
 12
1833.735871648346
 22
1412.723087638182
 32
0.0
 13
1833.735871648346
 23
1412.723087638182
 33
0.0
  0
SOLID
  5
482
330
47B
100
AcDbEntity
  8
DIM
 62
     0
100
AcDbTrace
 10
1695.49914145543
 20
1419.389754304849
 30
0.0
 11
1695.49914145543
 21
1406.056420971515
 31
0.0
 12
1735.49914145543
 22
1412.723087638182
 32
0.0
 13
1735.49914145543
 23
1412.723087638182
 33
0.0
  0
MTEXT
  5
483
330
47B
100
AcDbEntity
  8
DIM
 62
     0
100
AcDbMText
 10
1784.617506551888
 20
1447.723087638182
 30
0.0
 40
40.0
 41
0.0
 71
     5
 72
     1
  1
100
 73
     1
 44
1.0
  0
POINT
  5
484
330
47B
100
AcDbEntity
  8
Defpoints
 62
     0
100
AcDbPoint
 10
1847.842030105023
 20
1332.723087638182
 30
0.0
  0
POINT
  5
485
330
47B
100
AcDbEntity
  8
Defpoints
 62
     0
100
AcDbPoint
 10
1747.842030105022
 20
1342.723087638182
 30
0.0
  0
POINT
  5
486
330
47B
100
AcDbEntity
  8
Defpoints
 62
     0
100
AcDbPoint
 10
1735.49914145543
 20
1412.723087638182
 30
0.0
  0
ENDBLK
  5
487
330
47B
100
AcDbEntity
  8
0
100
AcDbBlockEnd
  0
BLOCK
  5
489
330
488
100
AcDbEntity
  8
0
100
AcDbBlockBegin
  2
*D26
 70
     1
 10
0.0
 20
0.0
 30
0.0
  3
*D26
  1

  0
LINE
  5
48A
330
488
100
AcDbEntity
  8
DIM
 62
     0
370
    -2
100
AcDbLine
 10
1741.670585780227
 20
1377.723087638182
 30
0.0
 11
1730.209332034176
 21
1442.723087638182
 31
0.0
  0
LINE
  5
48B
330
488
100
AcDbEntity
  8
DIM
 62
     0
370
    -2
100
AcDbLine
 10
526.6705857802264
 20
1377.723087638182
 30
0.0
 11
515.2093320341763
 21
1442.723087638182
 31
0.0
  0
LINE
  5
48C
330
488
100
AcDbEntity
  8
DIM
 62
     0
370
    -2
100
AcDbLine
 10
1695.49914145543
 20
1412.723087638182
 30
0.0
 11
560.4991414554302
 21
1412.723087638182
 31
0.0
  0
SOLID
  5
48D
330
488
100
AcDbEntity
  8
DIM
 62
     0
100
AcDbTrace
 10
1695.49914145543
 20
1419.389754304849
 30
0.0
 11
1695.49914145543
 21
1406.056420971515
 31
0.0
 12
1735.49914145543
 22
1412.723087638182
 32
0.0
 13
1735.49914145543
 23
1412.723087638182
 33
0.0
  0
SOLID
  5
48E
330
488
100
AcDbEntity
  8
DIM
 62
     0
100
AcDbTrace
 10
560.4991414554302
 20
1419.389754304849
 30
0.0
 11
560.4991414554302
 21
1406.056420971515
 31
0.0
 12
520.4991414554302
 22
1412.723087638182
 32
0.0
 13
520.4991414554302
 23
1412.723087638182
 33
0.0
  0
MTEXT
  5
48F
330
488
100
AcDbEntity
  8
DIM
 62
     0
100
AcDbMText
 10
1127.99914145543
 20
1447.727024646056
 30
0.0
 40
40.0
 41
0.0
 71
     5
 72
     1
  1
1215
 73
     1
 44
1.0
  0
POINT
  5
490
330
488
100
AcDbEntity
  8
Defpoints
 62
     0
100
AcDbPoint
 10
1747.842030105022
 20
1342.723087638182
 30
0.0
  0
POINT
  5
491
330
488
100
AcDbEntity
  8
Defpoints
 62
     0
100
AcDbPoint
 10
532.8420301050227
 20
1342.723087638182
 30
0.0
  0
POINT
  5
492
330
488
100
AcDbEntity
  8
Defpoints
 62
     0
100
AcDbPoint
 10
520.4991414554302
 20
1412.723087638182
 30
0.0
  0
ENDBLK
  5
493
330
488
100
AcDbEntity
  8
0
100
AcDbBlockEnd
  0
BLOCK
  5
495
330
494
100
AcDbEntity
  8
0
100
AcDbBlockBegin
  2
*D27
 70
     1
 10
0.0
 20
0.0
 30
0.0
  3
*D27
  1

  0
LINE
  5
496
330
494
100
AcDbEntity
  8
DIM
 62
     0
370
    -2
100
AcDbLine
 10
526.6705857802264
 20
1377.723087638182
 30
0.0
 11
515.2093320341763
 21
1442.723087638182
 31
0.0
  0
LINE
  5
497
330
494
100
AcDbEntity
  8
DIM
 62
     0
370
    -2
100
AcDbLine
 10
426.6705857802265
 20
1367.723087638182
 30
0.0
 11
413.4460622270916
 21
1442.723087638182
 31
0.0
  0
LINE
  5
498
330
494
100
AcDbEntity
  8
DIM
 62
     0
370
    -2
100
AcDbLine
 10
560.4991414554302
 20
1412.723087638182
 30
0.0
 11
600.4991414554303
 21
1412.723087638182
 31
0.0
  0
LINE
  5
499
330
494
100
AcDbEntity
  8
DIM
 62
     0
370
    -2
100
AcDbLine
 10
378.7358716483456
 20
1412.723087638182
 30
0.0
 11
338.7358716483456
 21
1412.723087638182
 31
0.0
  0
SOLID
  5
49A
330
494
100
AcDbEntity
  8
DIM
 62
     0
100
AcDbTrace
 10
560.4991414554302
 20
1419.389754304849
 30
0.0
 11
560.4991414554302
 21
1406.056420971515
 31
0.0
 12
520.4991414554302
 22
1412.723087638182
 32
0.0
 13
520.4991414554302
 23
1412.723087638182
 33
0.0
  0
SOLID
  5
49B
330
494
100
AcDbEntity
  8
DIM
 62
     0
100
AcDbTrace
 10
378.7358716483456
 20
1419.389754304849
 30
0.0
 11
378.7358716483456
 21
1406.056420971515
 31
0.0
 12
418.7358716483456
 22
1412.723087638182
 32
0.0
 13
418.7358716483456
 23
1412.723087638182
 33
0.0
  0
MTEXT
  5
49C
330
494
100
AcDbEntity
  8
DIM
 62
     0
100
AcDbMText
 10
469.6175065518879
 20
1447.723087638182
 30
0.0
 40
40.0
 41
0.0
 71
     5
 72
     1
  1
100
 73
     1
 44
1.0
  0
POINT
  5
49D
330
494
100
AcDbEntity
  8
Defpoints
 62
     0
100
AcDbPoint
 10
532.8420301050227
 20
1342.723087638182
 30
0.0
  0
POINT
  5
49E
330
494
100
AcDbEntity
  8
Defpoints
 62
     0
100
AcDbPoint
 10
432.8420301050227
 20
1332.723087638182
 30
0.0
  0
POINT
  5
49F
330
494
100
AcDbEntity
  8
Defpoints
 62
     0
100
AcDbPoint
 10
418.7358716483456
 20
1412.723087638182
 30
0.0
  0
ENDBLK
  5
4A0
330
494
100
AcDbEntity
  8
0
100
AcDbBlockEnd
  0
BLOCK
  5
4A2
330
4A1
100
AcDbEntity
  8
0
100
AcDbBlockBegin
  2
*D28
 70
     1
 10
0.0
 20
0.0
 30
0.0
  3
*D28
  1

  0
LINE
  5
4A3
330
4A1
100
AcDbEntity
  8
DIM
 62
     0
370
    -2
100
AcDbLine
 10
940.3420301050228
 20
1242.723087638182
 30
0.0
 11
940.3420301050228
 21
1300.577769325613
 31
0.0
  0
LINE
  5
4A4
330
4A1
100
AcDbEntity
  8
DIM
 62
     0
370
    -2
100
AcDbLine
 10
1340.342030105023
 20
1242.723087638182
 30
0.0
 11
1340.342030105023
 21
1300.577769325613
 31
0.0
  0
LINE
  5
4A5
330
4A1
100
AcDbEntity
  8
DIM
 62
     0
370
    -2
100
AcDbLine
 10
980.3420301050227
 20
1270.577769325613
 30
0.0
 11
1300.342030105023
 21
1270.577769325613
 31
0.0
  0
SOLID
  5
4A6
330
4A1
100
AcDbEntity
  8
DIM
 62
     0
100
AcDbTrace
 10
980.3420301050227
 20
1277.24443599228
 30
0.0
 11
980.3420301050227
 21
1263.911102658947
 31
0.0
 12
940.3420301050228
 22
1270.577769325613
 32
0.0
 13
940.3420301050228
 23
1270.577769325613
 33
0.0
  0
SOLID
  5
4A7
330
4A1
100
AcDbEntity
  8
DIM
 62
     0
100
AcDbTrace
 10
1300.342030105023
 20
1277.24443599228
 30
0.0
 11
1300.342030105023
 21
1263.911102658947
 31
0.0
 12
1340.342030105023
 22
1270.577769325613
 32
0.0
 13
1340.342030105023
 23
1270.577769325613
 33
0.0
  0
MTEXT
  5
4A8
330
4A1
100
AcDbEntity
  8
DIM
 62
     0
100
AcDbMText
 10
1140.342030105023
 20
1305.577769325613
 30
0.0
 40
40.0
 41
0.0
 71
     5
 72
     1
  1
400
 73
     1
 44
1.0
  0
POINT
  5
4A9
330
4A1
100
AcDbEntity
  8
Defpoints
 62
     0
100
AcDbPoint
 10
940.3420301050228
 20
1172.723087638182
 30
0.0
  0
POINT
  5
4AA
330
4A1
100
AcDbEntity
  8
Defpoints
 62
     0
100
AcDbPoint
 10
1340.342030105023
 20
1172.723087638182
 30
0.0
  0
POINT
  5
4AB
330
4A1
100
AcDbEntity
  8
Defpoints
 62
     0
100
AcDbPoint
 10
1340.342030105023
 20
1270.577769325613
 30
0.0
  0
ENDBLK
  5
4AC
330
4A1
100
AcDbEntity
  8
0
100
AcDbBlockEnd
  0
BLOCK
  5
4AE
330
4AD
100
AcDbEntity
  8
0
100
AcDbBlockBegin
  2
*D29
 70
     1
 10
0.0
 20
0.0
 30
0.0
  3
*D29
  1

  0
LINE
  5
4AF
330
4AD
100
AcDbEntity
  8
DIM
 62
     0
370
    -2
100
AcDbLine
 10
574.4491729621656
 20
1192.723087638182
 30
0.0
 11
652.8420301050227
 21
1192.723087638182
 31
0.0
  0
LINE
  5
4B0
330
4AD
100
AcDbEntity
  8
DIM
 62
     0
370
    -2
100
AcDbLine
 10
602.8420301050227
 20
1342.723087638182
 30
0.0
 11
652.8420301050227
 21
1342.723087638182
 31
0.0
  0
LINE
  5
4B1
330
4AD
100
AcDbEntity
  8
DIM
 62
     0
370
    -2
100
AcDbLine
 10
622.8420301050227
 20
1232.723087638182
 30
0.0
 11
622.8420301050228
 21
1302.723087638182
 31
0.0
  0
SOLID
  5
4B2
330
4AD
100
AcDbEntity
  8
DIM
 62
     0
100
AcDbTrace
 10
616.175363438356
 20
1232.723087638182
 30
0.0
 11
629.5086967716892
 21
1232.723087638182
 31
0.0
 12
622.8420301050227
 22
1192.723087638182
 32
0.0
 13
622.8420301050227
 23
1192.723087638182
 33
0.0
  0
SOLID
  5
4B3
330
4AD
100
AcDbEntity
  8
DIM
 62
     0
100
AcDbTrace
 10
616.1753634383561
 20
1302.723087638182
 30
0.0
 11
629.5086967716894
 21
1302.723087638182
 31
0.0
 12
622.8420301050228
 22
1342.723087638182
 32
0.0
 13
622.8420301050228
 23
1342.723087638182
 33
0.0
  0
MTEXT
  5
4B4
330
4AD
100
AcDbEntity
  8
DIM
 62
     0
100
AcDbMText
 10
587.8420301050225
 20
1267.723087638182
 30
0.0
 40
40.0
 41
0.0
 71
     5
 72
     1
  1
150
 11
0.0000000000000001
 21
1.0
 31
0.0
 73
     1
 44
1.0
  0
POINT
  5
4B5
330
4AD
100
AcDbEntity
  8
Defpoints
 62
     0
100
AcDbPoint
 10
504.4491729621657
 20
1192.723087638182
 30
0.0
  0
POINT
  5
4B6
330
4AD
100
AcDbEntity
  8
Defpoints
 62
     0
100
AcDbPoint
 10
532.8420301050227
 20
1342.723087638182
 30
0.0
  0
POINT
  5
4B7
330
4AD
100
AcDbEntity
  8
Defpoints
 62
     0
100
AcDbPoint
 10
622.8420301050228
 20
1342.723087638182
 30
0.0
  0
ENDBLK
  5
4B8
330
4AD
100
AcDbEntity
  8
0
100
AcDbBlockEnd
  0
BLOCK
  5
4F2
330
4BC
100
AcDbEntity
  8
0
100
AcDbBlockBegin
  2
B1-750
 70
     0
 10
0.0
 20
0.0
 30
0.0
  3
B1-750
  1

  0
LWPOLYLINE
  5
4BD
330
4BC
100
AcDbEntity
  8
LATER
100
AcDbPolyline
 90
        8
 70
     1
 43
0.0
 10
442.8420301050228
 20
492.7230876381822
 10
1837.842030105022
 20
492.7230876381822
 10
1847.842030105023
 20
502.7230876381822
 10
1847.842030105023
 20
1332.723087638182
 10
1837.842030105022
 20
1342.723087638182
 10
442.8420301050228
 20
1342.723087638182
 10
432.8420301050227
 20
1332.723087638182
 10
432.8420301050227
 20
502.7230876381822
  0
LINE
  5
4BE
330
4BC
100
AcDbEntity
  8
DASHED
 48
0.15
100
AcDbLine
 10
532.8420301050227
 20
1342.723087638182
 30
0.0
 11
540.3420301050227
 21
642.7230876381822
 31
0.0
  0
LINE
  5
4BF
330
4BC
100
AcDbEntity
  8
DASHED
 48
0.15
100
AcDbLine
 10
540.3420301050227
 20
642.7230876381822
 30
0.0
 11
590.3420301050227
 21
592.7230876381822
 31
0.0
  0
LINE
  5
4C0
330
4BC
100
AcDbEntity
  8
DASHED
 48
0.15
100
AcDbLine
 10
590.3420301050227
 20
592.7230876381822
 30
0.0
 11
1030.342030105023
 21
592.7230876381822
 31
0.0
  0
LINE
  5
4C1
330
4BC
100
AcDbEntity
  8
DASHED
 48
0.15
100
AcDbLine
 10
1040.342030105023
 20
572.7230876381822
 30
0.0
 11
1240.342030105023
 21
572.7230876381822
 31
0.0
  0
LINE
  5
4C2
330
4BC
100
AcDbEntity
  8
DASHED
 48
0.15
100
AcDbLine
 10
1030.342030105023
 20
592.7230876381822
 30
0.0
 11
1040.342030105023
 21
572.7230876381822
 31
0.0
  0
LINE
  5
4C3
330
4BC
100
AcDbEntity
  8
DASHED
 48
0.15
100
AcDbLine
 10
1747.842030105022
 20
1342.723087638182
 30
0.0
 11
1740.342030105023
 21
642.7230876381822
 31
0.0
  0
LINE
  5
4C4
330
4BC
100
AcDbEntity
  8
DASHED
 48
0.15
100
AcDbLine
 10
1740.342030105023
 20
642.7230876381822
 30
0.0
 11
1690.342030105023
 21
592.7230876381822
 31
0.0
  0
LINE
  5
4C5
330
4BC
100
AcDbEntity
  8
DASHED
 48
0.15
100
AcDbLine
 10
1690.342030105023
 20
592.7230876381822
 30
0.0
 11
1250.342030105023
 21
592.7230876381822
 31
0.0
  0
LINE
  5
4C6
330
4BC
100
AcDbEntity
  8
DASHED
 48
0.15
100
AcDbLine
 10
1250.342030105023
 20
592.7230876381822
 30
0.0
 11
1240.342030105023
 21
572.7230876381822
 31
0.0
  0
LWPOLYLINE
  5
4C7
330
4BC
100
AcDbEntity
  8
NO
100
AcDbPolyline
 90
        4
 70
     1
 43
0.0
 10
690.3420301050227
 20
1132.723087638182
 10
1590.342030105023
 20
1132.723087638182
 10
1590.342030105023
 20
682.7230876381823
 10
690.3420301050227
 20
682.7230876381823
  0
LWPOLYLINE
  5
4C8
330
4BC
100
AcDbEntity
  8
NO
100
AcDbPolyline
 90
        4
 70
     1
 43
0.0
 10
670.3420301050227
 20
1152.723087638182
 10
1610.342030105023
 20
1152.723087638182
 10
1610.342030105023
 20
662.7230876381823
 10
670.3420301050229
 20
662.7230876381823
  0
LINE
  5
4C9
330
4BC
100
AcDbEntity
  8
NO
100
AcDbLine
 10
670.3420301050227
 20
1152.723087638182
 30
0.0
 11
690.3420301050227
 21
1132.723087638182
 31
0.0
  0
LINE
  5
4CA
330
4BC
100
AcDbEntity
  8
NO
100
AcDbLine
 10
670.3420301050227
 20
662.7230876381823
 30
0.0
 11
690.3420301050227
 21
682.7230876381823
 31
0.0
  0
LINE
  5
4CB
330
4BC
100
AcDbEntity
  8
NO
100
AcDbLine
 10
1590.342030105023
 20
682.7230876381823
 30
0.0
 11
1610.342030105023
 21
662.7230876381823
 31
0.0
  0
LINE
  5
4CC
330
4BC
100
AcDbEntity
  8
NO
100
AcDbLine
 10
1590.342030105023
 20
1132.723087638182
 30
0.0
 11
1610.342030105023
 21
1152.723087638182
 31
0.0
  0
LINE
  5
4CD
330
4BC
100
AcDbEntity
  8
NO2
 48
0.15
100
AcDbLine
 10
1847.842030105023
 20
1152.723087638182
 30
0.0
 11
1812.842030105023
 21
1132.723087638182
 31
0.0
  0
LINE
  5
4CE
330
4BC
100
AcDbEntity
  8
NO2
 48
0.15
100
AcDbLine
 10
1812.842030105023
 20
1132.723087638182
 30
0.0
 11
1812.842030105023
 21
682.7230876381823
 31
0.0
  0
LINE
  5
4CF
330
4BC
100
AcDbEntity
  8
NO2
 48
0.15
100
AcDbLine
 10
1812.842030105023
 20
682.7230876381823
 30
0.0
 11
1847.842030105023
 21
662.7230876381823
 31
0.0
  0
LINE
  5
4D0
330
4BC
100
AcDbEntity
  8
NO2
 48
0.15
100
AcDbLine
 10
467.8420301050228
 20
1032.723087638182
 30
0.0
 11
467.8420301050225
 21
682.7230876381823
 31
0.0
  0
LINE
  5
4D1
330
4BC
100
AcDbEntity
  8
NO2
 48
0.15
100
AcDbLine
 10
467.8420301050225
 20
682.7230876381823
 30
0.0
 11
432.8420301050227
 21
662.7230876381823
 31
0.0
  0
LINE
  5
4D2
330
4BC
100
AcDbEntity
  8
NO2
 48
0.15
100
AcDbLine
 10
432.8420301050227
 20
1052.723087638182
 30
0.0
 11
467.8420301050228
 21
1032.723087638182
 31
0.0
  0
LWPOLYLINE
  5
4D3
330
4BC
100
AcDbEntity
  8
DASHED
 48
0.15
100
AcDbPolyline
 90
        4
 70
     1
 43
0.0
 10
1535.342030105023
 20
642.7230876381822
 10
1545.342030105023
 20
642.7230876381822
 10
1545.342030105023
 20
592.7230876381822
 10
1535.342030105023
 20
592.7230876381822
  0
LWPOLYLINE
  5
4D4
330
4BC
100
AcDbEntity
  8
DASHED
 48
0.15
100
AcDbPolyline
 90
        4
 70
     1
 43
0.0
 10
745.3420301050227
 20
642.7230876381822
 10
735.3420301050228
 20
642.7230876381822
 10
735.3420301050228
 20
592.7230876381822
 10
745.3420301050227
 20
592.7230876381822
  0
CIRCLE
  5
4D5
330
4BC
100
AcDbEntity
  8
DASHED
 48
0.15
100
AcDbCircle
 10
940.3420301050228
 20
1192.723087638182
 30
0.0
 40
8.0
  0
LINE
  5
4D6
330
4BC
100
AcDbEntity
  8
DASHED
 48
0.15
100
AcDbLine
 10
920.3420301050227
 20
1192.723087638182
 30
0.0
 11
960.3420301050228
 21
1192.723087638182
 31
0.0
  0
LINE
  5
4D7
330
4BC
100
AcDbEntity
  8
DASHED
 48
0.15
100
AcDbLine
 10
940.3420301050228
 20
1172.723087638182
 30
0.0
 11
940.3420301050228
 21
1212.723087638182
 31
0.0
  0
LINE
  5
4D8
330
4BC
100
AcDbEntity
  8
DASHED
 48
0.15
100
AcDbLine
 10
1340.342030105023
 20
1172.723087638182
 30
0.0
 11
1340.342030105023
 21
1212.723087638182
 31
0.0
  0
CIRCLE
  5
4D9
330
4BC
100
AcDbEntity
  8
DASHED
 48
0.15
100
AcDbCircle
 10
1340.342030105023
 20
1192.723087638182
 30
0.0
 40
8.0
  0
LINE
  5
4DA
330
4BC
100
AcDbEntity
  8
DASHED
 48
0.15
100
AcDbLine
 10
1320.342030105023
 20
1192.723087638182
 30
0.0
 11
1360.342030105023
 21
1192.723087638182
 31
0.0
  0
LWPOLYLINE
  5
4DB
330
4BC
100
AcDbEntity
  8
DASHED
 48
0.15
100
AcDbPolyline
 90
        4
 70
     1
 43
0.0
 10
504.4491729621657
 20
1184.723087638182
 10
534.4491729621656
 20
1184.723087638182
 10
534.4491729621656
 20
1200.723087638182
 10
504.4491729621657
 20
1200.723087638182
  0
LWPOLYLINE
  5
4DC
330
4BC
100
AcDbEntity
  8
DASHED
 48
0.15
100
AcDbPolyline
 90
        4
 70
     1
 43
0.0
 10
1776.23488724788
 20
1184.723087638182
 10
1746.23488724788
 20
1184.723087638182
 10
1746.23488724788
 20
1200.723087638182
 10
1776.23488724788
 20
1200.723087638182
  0
DIMENSION
  5
4DD
330
4BC
100
AcDbEntity
  8
NO
100
AcDbDimension
  2
*D16
 10
1997.842030105022
 20
1132.723087638182
 30
0.0
 11
1962.838093097148
 21
1237.723087638182
 31
0.0
 70
    32
 71
     5
 42
210.0
  3
Standerd
100
AcDbAlignedDimension
 13
1837.842030105022
 23
1342.723087638182
 33
0.0
 14
1812.842030105023
 24
1132.723087638182
 34
0.0
 50
90.0
100
AcDbRotatedDimension
  0
DIMENSION
  5
4DE
330
4BC
100
AcDbEntity
  8
NO
100
AcDbDimension
  2
*D17
 10
1590.342030105023
 20
342.7230876381823
 30
0.0
 11
1140.342030105023
 21
377.7230876381823
 31
0.0
 70
    32
 71
     5
 42
900.0
  3
Standerd
100
AcDbAlignedDimension
 13
690.3420301050227
 23
682.7230876381823
 33
0.0
 14
1590.342030105023
 24
682.7230876381823
 34
0.0
100
AcDbRotatedDimension
  0
DIMENSION
  5
4DF
330
4BC
100
AcDbEntity
  8
DIM
100
AcDbDimension
  2
*D18
 10
1740.342030105023
 20
192.7230876381823
 30
0.0
 11
1140.342030105023
 21
227.7270246460563
 31
0.0
 70
    32
 71
     5
 42
1200.0
  3
Standerd
100
AcDbAlignedDimension
 13
540.3420301050227
 23
642.7230876381822
 33
0.0
 14
1740.342030105023
 24
642.7230876381822
 34
0.0
100
AcDbRotatedDimension
  0
DIMENSION
  5
4E0
330
4BC
100
AcDbEntity
  8
DIM
100
AcDbDimension
  2
*D19
 10
1847.842030105023
 20
42.72308763818227
 30
0.0
 11
1140.342030105023
 21
77.72308763818227
 31
0.0
 70
    32
 71
     5
 42
1415.0
  3
Standerd
100
AcDbAlignedDimension
 13
432.8420301050227
 23
502.7230876381822
 33
0.0
 14
1847.842030105023
 24
502.7230876381822
 34
0.0
100
AcDbRotatedDimension
  0
DIMENSION
  5
4E1
330
4BC
100
AcDbEntity
  8
NO
100
AcDbDimension
  2
*D20
 10
1997.842030105022
 20
682.7230876381823
 30
0.0
 11
1962.842030105022
 21
907.7230876381825
 31
0.0
 70
    32
 71
     5
 42
450.0
  3
Standerd
100
AcDbAlignedDimension
 13
1812.842030105023
 23
1132.723087638182
 33
0.0
 14
1812.842030105023
 24
682.7230876381823
 34
0.0
 50
90.0
100
AcDbRotatedDimension
  0
DIMENSION
  5
4E2
330
4BC
100
AcDbEntity
  8
DIM
100
AcDbDimension
  2
*D21
 10
2147.842030105023
 20
592.7230876381822
 30
0.0
 11
2112.842030105023
 21
967.7230876381825
 31
0.0
 70
    32
 71
     5
 42
750.0
  3
Standerd
100
AcDbAlignedDimension
 13
1837.842030105022
 23
1342.723087638182
 33
0.0
 14
1690.342030105023
 24
592.7230876381822
 34
0.0
 50
90.0
100
AcDbRotatedDimension
  0
DIMENSION
  5
4E3
330
4BC
100
AcDbEntity
  8
DIM
100
AcDbDimension
  2
*D22
 10
2297.842030105023
 20
1342.723087638182
 30
0.0
 11
2262.842030105022
 21
917.7230876381825
 31
0.0
 70
    32
 71
     5
 42
850.0
  3
Standerd
100
AcDbAlignedDimension
 13
1837.842030105022
 23
492.7230876381822
 33
0.0
 14
1837.842030105022
 24
1342.723087638182
 34
0.0
 50
90.0
100
AcDbRotatedDimension
  0
DIMENSION
  5
4E4
330
4BC
100
AcDbEntity
  8
NO
100
AcDbDimension
  2
*D23
 10
282.8420301050226
 20
682.7230876381823
 30
0.0
 11
247.8420301050225
 21
857.7230876381822
 31
0.0
 70
    32
 71
     5
 42
349.9999999999999
  3
Standerd
100
AcDbAlignedDimension
 13
467.8420301050228
 23
1032.723087638182
 33
0.0
 14
467.8420301050225
 24
682.7230876381823
 34
0.0
 50
90.0
100
AcDbRotatedDimension
  0
DIMENSION
  5
4E5
330
4BC
100
AcDbEntity
  8
DIM
100
AcDbDimension
  2
*D24
 10
2147.842030105023
 20
492.7230876381822
 30
0.0
 11
2112.842030105023
 21
542.7230876381825
 31
0.0
 70
    32
 71
     5
 42
99.99999999999994
  3
Standerd
100
AcDbAlignedDimension
 13
1690.342030105023
 23
592.7230876381822
 33
0.0
 14
1837.842030105022
 24
492.7230876381822
 34
0.0
 50
90.0
100
AcDbRotatedDimension
  0
DIMENSION
  5
4E6
330
4BC
100
AcDbEntity
  8
DIM
100
AcDbDimension
  2
*D25
 10
1735.49914145543
 20
1412.723087638182
 30
0.0
 11
1784.617506551888
 21
1447.723087638182
 31
0.0
 70
    32
 71
     5
 42
100.0
  3
Standerd2
100
AcDbAlignedDimension
 13
1847.842030105023
 23
1332.723087638182
 33
0.0
 14
1747.842030105022
 24
1342.723087638182
 34
0.0
100
AcDbRotatedDimension
  0
DIMENSION
  5
4E7
330
4BC
100
AcDbEntity
  8
DIM
100
AcDbDimension
  2
*D26
 10
520.4991414554302
 20
1412.723087638182
 30
0.0
 11
1127.99914145543
 21
1447.727024646056
 31
0.0
 70
    32
 71
     5
 42
1215.0
  3
Standerd2
100
AcDbAlignedDimension
 13
1747.842030105022
 23
1342.723087638182
 33
0.0
 14
532.8420301050227
 24
1342.723087638182
 34
0.0
100
AcDbRotatedDimension
  0
DIMENSION
  5
4E8
330
4BC
100
AcDbEntity
  8
DIM
100
AcDbDimension
  2
*D27
 10
418.7358716483456
 20
1412.723087638182
 30
0.0
 11
469.6175065518879
 21
1447.723087638182
 31
0.0
 70
    32
 71
     5
 42
100.0
  3
Standerd2
100
AcDbAlignedDimension
 13
532.8420301050227
 23
1342.723087638182
 33
0.0
 14
432.8420301050227
 24
1332.723087638182
 34
0.0
100
AcDbRotatedDimension
  0
LEADER
  5
4E9
330
4BC
100
AcDbEntity
  8
TXT
100
AcDbLeader
  3
Standerd1
 73
     0
 74
     0
 75
     1
 40
40.00787401574803
 41
190.0
 76
     3
 10
940.3420301050228
 20
1184.723087638182
 30
0.0
 10
1009.592914220828
 20
1085.957825467037
 30
0.0
 10
1009.772914220828
 20
1085.957825467037
 30
0.0
340
4EA
213
0.0
223
-20.0
233
0.0
1001
ACAD
1000
DSTYLE
1002
{
1070
   147
1040
15.0
1070
    77
1070
     0
1002
}
  0
MTEXT
  5
4EA
102
{ACAD_REACTORS
330
4E9
102
}
330
4BC
100
AcDbEntity
  8
TXT
100
AcDbMText
 10
1024.772914220828
 20
1105.957825467037
 30
0.0
 40
40.0
 41
0.0
 71
     1
 72
     1
  1
M12ｲﾝｻｰﾄ
 73
     1
 44
1.0
  0
LEADER
  5
4EB
330
4BC
100
AcDbEntity
  8
TXT
100
AcDbLeader
  3
Standerd1
 73
     0
 74
     0
 75
     1
 40
40.00000000000001
 41
456.7830808016392
 76
     3
 10
1545.342030105023
 20
617.7230876381822
 30
0.0
 10
1911.35541194788
 20
289.1838736420695
 30
0.0
 10
1911.53541194788
 20
289.1838736420695
 30
0.0
340
4EC
213
0.0
223
-20.0
233
0.0
1001
ACAD
1000
DSTYLE
1002
{
1070
   147
1040
15.0
1070
    77
1070
     0
1002
}
  0
MTEXT
  5
4EC
102
{ACAD_REACTORS
330
4EB
102
}
330
4BC
100
AcDbEntity
  8
TXT
100
AcDbMText
 10
1926.535411947879
 20
309.1838736420696
 30
0.0
 40
40.0
 41
0.0
 71
     1
 72
     1
  1
吊りﾌｯｸ引込用ﾌｯｸ兼用
 73
     1
 44
1.0
  0
LEADER
  5
4ED
330
4BC
100
AcDbEntity
  8
NO
100
AcDbLeader
  3
Standerd1
 73
     0
 75
     1
 40
40.0
 41
170.6666666666666
 76
     3
 10
432.8420301050227
 20
662.7230876381823
 30
0.0
 10
331.2996038678718
 20
553.7206213703875
 30
0.0
 10
331.1196038678718
 20
553.7206213703875
 30
0.0
340
4EE
213
0.0
223
20.0
233
0.0
1001
ACAD
1000
DSTYLE
1002
{
1070
   147
1040
15.0
1070
    77
1070
     0
1002
}
  0
MTEXT
  5
4EE
102
{ACAD_REACTORS
330
4ED
102
}
330
4BC
100
AcDbEntity
  8
NO
100
AcDbMText
 10
316.1196038678718
 20
533.7206213703876
 30
0.0
 40
40.0
 41
0.0
 71
     9
 72
     1
  1
１面のみ
 73
     1
 44
1.0
  0
TEXT
  5
4EF
330
4BC
100
AcDbEntity
  8
TXT
100
AcDbText
 10
-17.15796989497721
 20
1262.723087638182
 30
0.0
 40
60.0
  1
B1-750
 41
1.5
100
AcDbText
  0
DIMENSION
  5
4F0
330
4BC
100
AcDbEntity
  8
DIM
100
AcDbDimension
  2
*D28
 10
1340.342030105023
 20
1270.577769325613
 30
0.0
 11
1140.342030105023
 21
1305.577769325613
 31
0.0
 70
    32
 71
     5
 42
400.0
  3
Standerd1
100
AcDbAlignedDimension
 13
940.3420301050228
 23
1172.723087638182
 33
0.0
 14
1340.342030105023
 24
1172.723087638182
 34
0.0
100
AcDbRotatedDimension
  0
DIMENSION
  5
4F1
330
4BC
100
AcDbEntity
  8
DIM
100
AcDbDimension
  2
*D29
 10
622.8420301050228
 20
1342.723087638182
 30
0.0
 11
587.8420301050225
 21
1267.723087638182
 31
0.0
 70
    32
 71
     5
 42
150.0000000000002
  3
Standerd1
100
AcDbAlignedDimension
 13
504.4491729621657
 23
1192.723087638182
 33
0.0
 14
532.8420301050227
 24
1342.723087638182
 34
0.0
 50
90.0
100
AcDbRotatedDimension
  0
ENDBLK
  5
4F3
330
4BC
100
AcDbEntity
  8
0
100
AcDbBlockEnd
  0
BLOCK
  5
4F7
330
4F6
100
AcDbEntity
  8
0
100
AcDbBlockBegin
  2
*D31
 70
     1
 10
0.0
 20
0.0
 30
0.0
  3
*D31
  1

  0
LINE
  5
4F8
330
4F6
100
AcDbEntity
  8
DIM
 62
     0
370
    -2
100
AcDbLine
 10
1475.0
 20
1415.0
 30
0.0
 11
1595.0
 21
1415.0
 31
0.0
  0
LINE
  5
4F9
330
4F6
100
AcDbEntity
  8
DIM
 62
     0
370
    -2
100
AcDbLine
 10
1475.0
 20
-0.0000000000000198
 30
0.0
 11
1595.0
 21
-0.0000000000000538
 31
0.0
  0
LINE
  5
4FA
330
4F6
100
AcDbEntity
  8
DIM
 62
     0
370
    -2
100
AcDbLine
 10
1565.0
 20
1375.0
 30
0.0
 11
1565.0
 21
39.99999999999996
 31
0.0
  0
SOLID
  5
4FB
330
4F6
100
AcDbEntity
  8
DIM
 62
     0
100
AcDbTrace
 10
1558.333333333334
 20
1375.0
 30
0.0
 11
1571.666666666667
 21
1375.0
 31
0.0
 12
1565.0
 22
1415.0
 32
0.0
 13
1565.0
 23
1415.0
 33
0.0
  0
SOLID
  5
4FC
330
4F6
100
AcDbEntity
  8
DIM
 62
     0
100
AcDbTrace
 10
1558.333333333333
 20
39.99999999999996
 30
0.0
 11
1571.666666666667
 21
39.99999999999996
 31
0.0
 12
1565.0
 22
-0.0000000000000453
 32
0.0
 13
1565.0
 23
-0.0000000000000453
 33
0.0
  0
MTEXT
  5
4FD
330
4F6
100
AcDbEntity
  8
DIM
 62
     0
100
AcDbMText
 10
1530.0
 20
707.5000000000001
 30
0.0
 40
40.0
 41
0.0
 71
     5
 72
     1
  1
1415
 11
0.0000000000000001
 21
1.0
 31
0.0
 73
     1
 44
1.0
  0
POINT
  5
4FE
330
4F6
100
AcDbEntity
  8
Defpoints
 62
     0
100
AcDbPoint
 10
1405.0
 20
1415.0
 30
0.0
  0
POINT
  5
4FF
330
4F6
100
AcDbEntity
  8
Defpoints
 62
     0
100
AcDbPoint
 10
1405.0
 20
0.0
 30
0.0
  0
POINT
  5
500
330
4F6
100
AcDbEntity
  8
Defpoints
 62
     0
100
AcDbPoint
 10
1565.0
 20
-0.0000000000000453
 30
0.0
  0
ENDBLK
  5
501
330
4F6
100
AcDbEntity
  8
0
100
AcDbBlockEnd
  0
BLOCK
  5
503
330
502
100
AcDbEntity
  8
0
100
AcDbBlockBegin
  2
*D32
 70
     1
 10
0.0
 20
0.0
 30
0.0
  3
*D32
  1

  0
LINE
  5
504
330
502
100
AcDbEntity
  8
DIM
 62
     0
370
    -2
100
AcDbLine
 10
1415.0
 20
1475.0
 30
0.0
 11
1415.0
 21
1595.0
 31
0.0
  0
LINE
  5
505
330
502
100
AcDbEntity
  8
DIM
 62
     0
370
    -2
100
AcDbLine
 10
0.0000000000000043
 20
1475.0
 30
0.0
 11
0.0000000000000116
 21
1595.0
 31
0.0
  0
LINE
  5
506
330
502
100
AcDbEntity
  8
DIM
 62
     0
370
    -2
100
AcDbLine
 10
1375.0
 20
1565.0
 30
0.0
 11
40.0
 21
1565.0
 31
0.0
  0
SOLID
  5
507
330
502
100
AcDbEntity
  8
DIM
 62
     0
100
AcDbTrace
 10
1375.0
 20
1571.666666666667
 30
0.0
 11
1375.0
 21
1558.333333333333
 31
0.0
 12
1415.0
 22
1565.0
 32
0.0
 13
1415.0
 23
1565.0
 33
0.0
  0
SOLID
  5
508
330
502
100
AcDbEntity
  8
DIM
 62
     0
100
AcDbTrace
 10
40.0
 20
1571.666666666667
 30
0.0
 11
40.0
 21
1558.333333333333
 31
0.0
 12
0.0000000000000098
 22
1565.0
 32
0.0
 13
0.0000000000000098
 23
1565.0
 33
0.0
  0
MTEXT
  5
509
330
502
100
AcDbEntity
  8
DIM
 62
     0
100
AcDbMText
 10
707.5
 20
1600.0
 30
0.0
 40
40.0
 41
0.0
 71
     5
 72
     1
  1
1415
 73
     1
 44
1.0
  0
POINT
  5
50A
330
502
100
AcDbEntity
  8
Defpoints
 62
     0
100
AcDbPoint
 10
1415.0
 20
1405.0
 30
0.0
  0
POINT
  5
50B
330
502
100
AcDbEntity
  8
Defpoints
 62
     0
100
AcDbPoint
 10
0.0
 20
1405.0
 30
0.0
  0
POINT
  5
50C
330
502
100
AcDbEntity
  8
Defpoints
 62
     0
100
AcDbPoint
 10
0.0000000000000098
 20
1565.0
 30
0.0
  0
ENDBLK
  5
50D
330
502
100
AcDbEntity
  8
0
100
AcDbBlockEnd
  0
BLOCK
  5
536
330
50F
100
AcDbEntity
  8
0
100
AcDbBlockBegin
  2
B2-top
 70
     0
 10
0.0
 20
0.0
 30
0.0
  3
B2-top
  1

  0
LWPOLYLINE
  5
510
330
50F
100
AcDbEntity
  8
LATER
100
AcDbPolyline
 90
        8
 70
     1
 43
0.0
 10
10.0
 20
0.0
 10
1405.0
 20
0.0
 10
1415.0
 20
10.0
 10
1415.0
 20
1405.0
 10
1405.0
 20
1415.0
 10
10.0
 20
1415.0
 10
0.0
 20
1405.0
 10
0.0
 20
10.0
  0
LWPOLYLINE
  5
511
330
50F
100
AcDbEntity
  8
DASHED
 48
0.15
100
AcDbPolyline
 90
        8
 70
     1
 43
0.0
 10
150.0
 20
100.0
 10
1265.0
 20
100.0
 10
1315.0
 20
150.0
 10
1315.0
 20
1265.0
 10
1265.0
 20
1315.0
 10
150.0
 20
1315.0
 10
100.0
 20
1265.0
 10
100.0
 20
150.0
  0
LINE
  5
512
330
50F
100
AcDbEntity
  8
CENTER
 48
0.2
100
AcDbLine
 10
-50.0
 20
707.5
 30
0.0
 11
1465.0
 21
707.5
 31
0.0
  0
LINE
  5
513
330
50F
100
AcDbEntity
  8
CENTER
 48
0.2
100
AcDbLine
 10
707.5
 20
1465.0
 30
0.0
 11
707.5
 21
-50.0
 31
0.0
  0
LINE
  5
514
330
50F
100
AcDbEntity
  8
NO2
 48
0.15
100
AcDbLine
 10
-0.0000000000000071
 20
1192.5
 30
0.0
 11
35.0
 21
1157.5
 31
0.0
  0
LINE
  5
515
330
50F
100
AcDbEntity
  8
NO2
 48
0.15
100
AcDbLine
 10
35.0
 20
1157.5
 30
0.0
 11
35.0
 21
257.5
 31
0.0
  0
LINE
  5
516
330
50F
100
AcDbEntity
  8
NO2
 48
0.15
100
AcDbLine
 10
35.0
 20
257.5
 30
0.0
 11
-0.0000000000000071
 21
222.5
 31
0.0
  0
LINE
  5
517
330
50F
100
AcDbEntity
  8
NO2
 48
0.15
100
AcDbLine
 10
257.5
 20
35.00000000000011
 30
0.0
 11
1157.5
 21
35.0
 31
0.0
  0
LINE
  5
518
330
50F
100
AcDbEntity
  8
NO2
 48
0.15
100
AcDbLine
 10
1157.5
 20
35.0
 30
0.0
 11
1192.5
 21
0.0
 31
0.0
  0
LINE
  5
519
330
50F
100
AcDbEntity
  8
NO2
 48
0.15
100
AcDbLine
 10
222.5
 20
0.0000000000001137
 30
0.0
 11
257.5
 21
35.00000000000011
 31
0.0
  0
LINE
  5
51A
330
50F
100
AcDbEntity
  8
NO2
 48
0.15
100
AcDbLine
 10
1380.0
 20
257.5
 30
0.0
 11
1380.0
 21
1157.5
 31
0.0
  0
LINE
  5
51B
330
50F
100
AcDbEntity
  8
NO2
 48
0.15
100
AcDbLine
 10
1380.0
 20
1157.5
 30
0.0
 11
1415.0
 21
1192.5
 31
0.0
  0
LINE
  5
51C
330
50F
100
AcDbEntity
  8
NO2
 48
0.15
100
AcDbLine
 10
1415.0
 20
222.5
 30
0.0
 11
1380.0
 21
257.5
 31
0.0
  0
LINE
  5
51D
330
50F
100
AcDbEntity
  8
NO2
 48
0.15
100
AcDbLine
 10
1157.5
 20
1380.0
 30
0.0
 11
257.5000000000001
 21
1380.0
 31
0.0
  0
LINE
  5
51E
330
50F
100
AcDbEntity
  8
NO2
 48
0.15
100
AcDbLine
 10
257.5000000000001
 20
1380.0
 30
0.0
 11
222.5000000000001
 21
1415.0
 31
0.0
  0
LINE
  5
51F
330
50F
100
AcDbEntity
  8
NO2
 48
0.15
100
AcDbLine
 10
1192.5
 20
1415.0
 30
0.0
 11
1157.5
 21
1380.0
 31
0.0
  0
MTEXT
  5
520
102
{ACAD_REACTORS
330
523
102
}
330
50F
100
AcDbEntity
  8
TXT
100
AcDbMText
 10
370.8425749179428
 20
-83.05784908482792
 30
0.0
 40
40.0
 41
0.0
 71
     1
 72
     1
  1
ＣＲズレ止め
 73
     1
 44
1.0
  0
CIRCLE
  5
521
330
50F
100
AcDbEntity
  8
LATER
100
AcDbCircle
 10
510.0
 20
707.5
 30
0.0
 40
300.0
  0
CIRCLE
  5
522
330
50F
100
AcDbEntity
  8
CR
100
AcDbCircle
 10
510.0
 20
707.5
 30
0.0
 40
435.0
  0
LEADER
  5
523
330
50F
100
AcDbEntity
  8
TXT
100
AcDbLeader
  3
Standerd
 73
     0
 74
     0
 75
     1
 40
40.0
 41
261.3333333333334
 76
     3
 10
209.4796179957171
 20
371.6242789363898
 30
0.0
 10
355.6625749179428
 20
-103.0578490848279
 30
0.0
 10
355.8425749179428
 20
-103.0578490848279
 30
0.0
340
520
213
0.0
223
-20.0
233
0.0
1001
ACAD
1000
DSTYLE
1002
{
1070
   147
1040
15.0
1070
    77
1070
     0
1002
}
  0
LWPOLYLINE
  5
524
330
50F
100
AcDbEntity
  8
LATER
100
AcDbPolyline
 90
        4
 70
     1
 43
0.0
 10
181.1953467482553
 20
414.0506858075828
 10
174.1242789363898
 20
406.9796179957172
 10
209.4796179957171
 20
371.6242789363898
 10
216.5506858075826
 20
378.6953467482554
  0
LINE
  5
525
330
50F
100
AcDbEntity
  8
DIM
100
AcDbLine
 10
510.0
 20
687.5
 30
0.0
 11
510.0
 21
727.5
 31
0.0
  0
LINE
  5
526
330
50F
100
AcDbEntity
  8
DIM
100
AcDbLine
 10
490.0
 20
707.5
 30
0.0
 11
530.0
 21
707.5
 31
0.0
  0
LWPOLYLINE
  5
527
330
50F
100
AcDbEntity
  8
LATER
100
AcDbPolyline
 90
        4
 70
     1
 43
0.0
 10
216.5506858075828
 20
1036.304653251744
 10
209.4796179957173
 20
1043.37572106361
 10
174.1242789363898
 20
1008.020382004283
 10
181.1953467482553
 20
1000.949314192417
  0
LWPOLYLINE
  5
528
330
50F
100
AcDbEntity
  8
LATER
100
AcDbPolyline
 90
        4
 70
     1
 43
0.0
 10
803.4493141924171
 20
378.6953467482553
 10
810.5203820042827
 20
371.6242789363897
 10
845.87572106361
 20
406.979617995717
 10
838.8046532517446
 20
414.0506858075825
  0
LWPOLYLINE
  5
529
330
50F
100
AcDbEntity
  8
LATER
100
AcDbPolyline
 90
        4
 70
     1
 43
0.0
 10
838.8046532517446
 20
1000.949314192417
 10
845.8757210636102
 20
1008.020382004283
 10
810.5203820042827
 20
1043.37572106361
 10
803.4493141924174
 20
1036.304653251744
  0
DIMENSION
  5
52A
330
50F
100
AcDbEntity
  8
DIM
100
AcDbDimension
  2
*D31
 10
1565.0
 20
-0.0000000000000453
 30
0.0
 11
1530.0
 21
707.5000000000001
 31
0.0
 70
    32
 71
     5
 42
1415.0
  3
Standerd
100
AcDbAlignedDimension
 13
1405.0
 23
1415.0
 33
0.0
 14
1405.0
 24
0.0
 34
0.0
 50
90.0
100
AcDbRotatedDimension
  0
DIMENSION
  5
52B
330
50F
100
AcDbEntity
  8
DIM
100
AcDbDimension
  2
*D32
 10
0.0000000000000098
 20
1565.0
 30
0.0
 11
707.5
 21
1600.0
 31
0.0
 70
    32
 71
     5
 42
1415.0
  3
Standerd
100
AcDbAlignedDimension
 13
1415.0
 23
1405.0
 33
0.0
 14
0.0
 24
1405.0
 34
0.0
100
AcDbRotatedDimension
  0
LEADER
  5
52C
330
50F
100
AcDbEntity
  8
TXT
100
AcDbLeader
  3
Standerd1
 73
     0
 74
     0
 75
     1
 40
40.00787401574803
 41
190.0
 76
     3
 10
915.4999999999986
 20
70.0
 30
0.0
 10
1023.508867102142
 20
-68.63899398743615
 30
0.0
 10
1023.688867102142
 20
-68.63899398743615
 30
0.0
340
52D
213
0.0
223
-20.0
233
0.0
1001
ACAD
1000
DSTYLE
1002
{
1070
   147
1040
15.0
1070
    77
1070
     0
1002
}
  0
MTEXT
  5
52D
102
{ACAD_REACTORS
330
52C
102
}
330
50F
100
AcDbEntity
  8
TXT
100
AcDbMText
 10
1038.688867102142
 20
-48.63899398743615
 30
0.0
 40
40.0
 41
0.0
 71
     1
 72
     1
  1
M12ｲﾝｻｰﾄ
 73
     1
 44
1.0
  0
LWPOLYLINE
  5
52E
330
50F
100
AcDbEntity
  8
DASHED
 48
0.15
100
AcDbPolyline
 90
        4
 70
     1
 43
0.0
 10
515.5
 20
70.0
 10
515.5
 20
100.0
 10
499.5
 20
100.0
 10
499.5
 20
70.0
  0
LWPOLYLINE
  5
52F
330
50F
100
AcDbEntity
  8
DASHED
 48
0.15
100
AcDbPolyline
 90
        4
 70
     1
 43
0.0
 10
915.4999999999986
 20
70.0
 10
915.4999999999986
 20
100.0
 10
899.4999999999986
 20
100.0
 10
899.4999999999986
 20
70.0
  0
LWPOLYLINE
  5
530
330
50F
100
AcDbEntity
  8
DASHED
 48
0.15
100
AcDbPolyline
 90
        4
 70
     1
 43
0.0
 10
1345.0
 20
515.5
 10
1315.0
 20
515.5
 10
1315.0
 20
499.5
 10
1345.0
 20
499.5
  0
LWPOLYLINE
  5
531
330
50F
100
AcDbEntity
  8
DASHED
 48
0.15
100
AcDbPolyline
 90
        4
 70
     1
 43
0.0
 10
1345.0
 20
915.4999999999986
 10
1315.0
 20
915.4999999999986
 10
1315.0
 20
899.4999999999986
 10
1345.0
 20
899.4999999999986
  0
LWPOLYLINE
  5
532
330
50F
100
AcDbEntity
  8
DASHED
 48
0.15
100
AcDbPolyline
 90
        4
 70
     1
 43
0.0
 10
899.5
 20
1345.0
 10
899.5
 20
1315.0
 10
915.4999999999999
 20
1315.0
 10
915.4999999999999
 20
1345.0
  0
LWPOLYLINE
  5
533
330
50F
100
AcDbEntity
  8
DASHED
 48
0.15
100
AcDbPolyline
 90
        4
 70
     1
 43
0.0
 10
499.5000000000013
 20
1345.0
 10
499.5000000000013
 20
1315.0
 10
515.5000000000013
 20
1315.0
 10
515.5000000000013
 20
1345.0
  0
LWPOLYLINE
  5
534
330
50F
100
AcDbEntity
  8
DASHED
 48
0.15
100
AcDbPolyline
 90
        4
 70
     1
 43
0.0
 10
70.0
 20
499.5000000000013
 10
100.0
 20
499.5000000000013
 10
100.0
 20
515.5000000000013
 10
70.0
 20
515.5000000000013
  0
LWPOLYLINE
  5
535
330
50F
100
AcDbEntity
  8
DASHED
 48
0.15
100
AcDbPolyline
 90
        4
 70
     1
 43
0.0
 10
70.0
 20
899.5
 10
100.0
 20
899.5
 10
100.0
 20
915.4999999999999
 10
70.0
 20
915.4999999999999
  0
ENDBLK
  5
537
330
50F
100
AcDbEntity
  8
0
100
AcDbBlockEnd
  0
BLOCK
  5
CA9
330
CA8
100
AcDbEntity
  8
0
100
AcDbBlockBegin
  2
A4
 70
     0
 10
0.0
 20
0.0
 30
0.0
  3
A4
  1

  0
LWPOLYLINE
  5
CAA
330
CA8
100
AcDbEntity
  8
FLAM
100
AcDbPolyline
 90
        4
 70
     1
 43
0.0
 10
0.0
 20
0.0
 10
0.0
 20
210.0
 10
297.0
 20
210.0
 10
297.0
 20
0.0
  0
LWPOLYLINE
  5
CAB
330
CA8
100
AcDbEntity
  8
LAYER
100
AcDbPolyline
 90
        4
 70
     1
 43
0.0
 10
15.0
 20
3.0
 10
15.0
 20
198.0
 10
295.0
 20
198.0
 10
295.0
 20
3.0
  0
LINE
  5
CAC
330
CA8
100
AcDbEntity
  8
LAYER
100
AcDbLine
 10
15.0
 20
18.0
 30
0.0
 11
295.0
 21
18.0
 31
0.0
  0
LINE
  5
CAD
330
CA8
100
AcDbEntity
  8
LAYER
100
AcDbLine
 10
50.0
 20
18.0
 30
0.0
 11
50.0
 21
3.0
 31
0.0
  0
LINE
  5
CAE
330
CA8
100
AcDbEntity
  8
LAYER
100
AcDbLine
 10
142.0
 20
18.0
 30
0.0
 11
142.0
 21
3.0
 31
0.0
  0
LINE
  5
CAF
330
CA8
100
AcDbEntity
  8
LAYER
100
AcDbLine
 10
149.0
 20
18.0
 30
0.0
 11
149.0
 21
3.0
 31
0.0
  0
LINE
  5
CB0
330
CA8
100
AcDbEntity
  8
LAYER
100
AcDbLine
 10
199.0
 20
18.0
 30
0.0
 11
199.0
 21
3.0
 31
0.0
  0
LINE
  5
CB1
330
CA8
100
AcDbEntity
  8
LAYER
100
AcDbLine
 10
211.0
 20
18.0
 30
0.0
 11
211.0
 21
3.0
 31
0.0
  0
LINE
  5
CB2
330
CA8
100
AcDbEntity
  8
LAYER
100
AcDbLine
 10
223.0
 20
18.0
 30
0.0
 11
223.0
 21
3.0
 31
0.0
  0
LINE
  5
CB3
330
CA8
100
AcDbEntity
  8
LAYER
100
AcDbLine
 10
235.0
 20
18.0
 30
0.0
 11
235.0
 21
3.0
 31
0.0
  0
LINE
  5
CB4
330
CA8
100
AcDbEntity
  8
LAYER
100
AcDbLine
 10
235.0
 20
18.0
 30
0.0
 11
235.0
 21
33.0
 31
0.0
  0
LINE
  5
CB5
330
CA8
100
AcDbEntity
  8
LAYER
100
AcDbLine
 10
235.0
 20
33.0
 30
0.0
 11
295.0
 21
33.0
 31
0.0
  0
LINE
  5
CB6
330
CA8
100
AcDbEntity
  8
LAYER
100
AcDbLine
 10
50.0
 20
10.5
 30
0.0
 11
142.0
 21
10.5
 31
0.0
  0
LINE
  5
CB7
330
CA8
100
AcDbEntity
  8
LAYER
100
AcDbLine
 10
199.0
 20
13.0
 30
0.0
 11
235.0
 21
13.0
 31
0.0
  0
LINE
  5
CB8
330
CA8
100
AcDbEntity
  8
LAYER
100
AcDbLine
 10
235.0
 20
25.5
 30
0.0
 11
295.0
 21
25.5
 31
0.0
  0
LINE
  5
CB9
330
CA8
100
AcDbEntity
  8
LAYER
100
AcDbLine
 10
235.0
 20
10.5
 30
0.0
 11
295.0
 21
10.5
 31
0.0
  0
LINE
  5
CBA
330
CA8
100
AcDbEntity
  8
LAYER
100
AcDbLine
 10
253.0
 20
33.0
 30
0.0
 11
253.0
 21
10.5
 31
0.0
  0
LINE
  5
CBB
330
CA8
100
AcDbEntity
  8
FLAM
100
AcDbLine
 10
96.0
 20
10.5
 30
0.0
 11
96.0
 21
18.0
 31
0.0
  0
LINE
  5
CBC
330
CA8
100
AcDbEntity
  8
FLAM
100
AcDbLine
 10
96.0
 20
10.5
 30
0.0
 11
96.0
 21
3.0
 31
0.0
  0
LINE
  5
CBD
330
CA8
100
AcDbEntity
  8
FLAM
100
AcDbLine
 10
50.0
 20
6.75
 30
0.0
 11
142.0
 21
6.75
 31
0.0
  0
LINE
  5
CBE
330
CA8
100
AcDbEntity
  8
FLAM
100
AcDbLine
 10
50.0
 20
14.25
 30
0.0
 11
142.0
 21
14.25
 31
0.0
  0
LINE
  5
CBF
330
CA8
100
AcDbEntity
  8
FLAM
100
AcDbLine
 10
149.0
 20
10.5
 30
0.0
 11
199.0
 21
10.5
 31
0.0
  0
LINE
  5
CC0
330
CA8
100
AcDbEntity
  8
FLAM
100
AcDbLine
 10
174.0
 20
10.5
 30
0.0
 11
174.0
 21
18.0
 31
0.0
  0
LINE
  5
CC1
330
CA8
100
AcDbEntity
  8
FLAM
100
AcDbLine
 10
174.0
 20
10.5
 30
0.0
 11
174.0
 21
3.0
 31
0.0
  0
LINE
  5
CC2
330
CA8
100
AcDbEntity
  8
FLAM
100
AcDbLine
 10
253.0
 20
21.75
 30
0.0
 11
295.0
 21
21.75
 31
0.0
  0
LINE
  5
CC3
330
CA8
100
AcDbEntity
  8
FLAM
100
AcDbLine
 10
253.0
 20
29.25
 30
0.0
 11
295.0
 21
29.25
 31
0.0
  0
LINE
  5
CC4
330
CA8
100
AcDbEntity
  8
FLAM
100
AcDbLine
 10
253.0
 20
14.25
 30
0.0
 11
295.0
 21
14.25
 31
0.0
  0
LINE
  5
CC5
330
CA8
100
AcDbEntity
  8
FLAM
100
AcDbLine
 10
149.0
 20
6.75
 30
0.0
 11
199.0
 21
6.75
 31
0.0
  0
LINE
  5
CC6
330
CA8
100
AcDbEntity
  8
FLAM
100
AcDbLine
 10
149.0
 20
14.25
 30
0.0
 11
199.0
 21
14.25
 31
0.0
  0
LINE
  5
CC7
330
CA8
100
AcDbEntity
  8
FLAM
100
AcDbLine
 10
274.0
 20
29.25
 30
0.0
 11
274.0
 21
10.5
 31
0.0
  0
LINE
  5
CC8
330
CA8
100
AcDbEntity
  8
FLAM
100
AcDbLine
 10
274.0
 20
29.25
 30
0.0
 11
274.0
 21
33.0
 31
0.0
  0
TEXT
  5
CC9
330
CA8
100
AcDbEntity
  8
LAYER
100
AcDbText
 10
17.05
 20
8.0
 30
0.0
 40
5.0
  1
種類・呼び名
 41
0.9
 72
     4
 11
32.5
 21
10.5
 31
0.0
100
AcDbText
  0
TEXT
  5
CCA
330
CA8
100
AcDbEntity
  8
LAYER
100
AcDbText
 10
143.5952380952381
 20
12.25
 30
0.0
 40
4.0
  1
摘
 72
     4
 11
145.5
 21
14.25
 31
0.0
100
AcDbText
  0
TEXT
  5
CCB
330
CA8
100
AcDbEntity
  8
LAYER
100
AcDbText
 10
143.6333333333333
 20
4.883333333333332
 30
0.0
 40
4.0
  1
要
 72
     4
 11
145.5
 21
6.75
 31
0.0
100
AcDbText
  0
TEXT
  5
CCC
330
CA8
100
AcDbEntity
  8
LAYER
100
AcDbText
 10
200.0
 20
14.0
 30
0.0
 40
3.0
  1
工場長
 72
     4
 11
205.0
 21
15.5
 31
0.0
100
AcDbText
  0
TEXT
  5
CCD
330
CA8
100
AcDbEntity
  8
LAYER
100
AcDbText
 10
212.1
 20
14.0
 30
0.0
 40
3.0
  1
検　図
 72
     4
 11
217.0
 21
15.5
 31
0.0
100
AcDbText
  0
TEXT
  5
CCE
330
CA8
100
AcDbEntity
  8
LAYER
100
AcDbText
 10
224.1
 20
14.0
 30
0.0
 40
3.0
  1
製　図
 72
     4
 11
229.0
 21
15.5
 31
0.0
100
AcDbText
  0
TEXT
  5
CCF
330
CA8
100
AcDbEntity
  8
LAYER
100
AcDbText
 10
238.1666666666667
 20
27.5
 30
0.0
 40
3.5
  1
縮　尺
 72
     4
 11
244.0
 21
29.25
 31
0.0
100
AcDbText
  0
TEXT
  5
CD0
330
CA8
100
AcDbEntity
  8
LAYER
100
AcDbText
 10
237.9333333333333
 20
20.0
 30
0.0
 40
3.5
  1
日　付
 72
     4
 11
244.0
 21
21.75
 31
0.0
100
AcDbText
  0
TEXT
  5
CD1
330
CA8
100
AcDbEntity
  8
LAYER
100
AcDbText
 10
236.0666666666666
 20
5.0
 30
0.0
 40
3.5
  1
阿賀コンクリート工業株式会社
 72
     4
 11
265.0
 21
6.75
 31
0.0
100
AcDbText
  0
TEXT
  5
CD2
330
CA8
100
AcDbEntity
  8
LAYER
100
AcDbText
 10
238.05
 20
12.5
 30
0.0
 40
3.5
  1
図　番
 72
     4
 11
244.0
 21
14.25
 31
0.0
100
AcDbText
  0
TEXT
  5
CD3
330
CA8
100
AcDbEntity
  8
LAYER
100
AcDbText
 10
256.7625
 20
20.0
 30
0.0
 40
3.5
  1
H.   年   月   日
 72
     4
 11
274.0
 21
21.75
 31
0.0
100
AcDbText
  0
ENDBLK
  5
CD4
330
CA8
100
AcDbEntity
  8
0
100
AcDbBlockEnd
  0
BLOCK
  5
CF9
330
CD7
100
AcDbEntity
  8
0
100
AcDbBlockBegin
  2
A3展開図dwg
 70
     0
 10
0.0
 20
0.0
 30
0.0
  3
A3展開図dwg
  1

  0
LINE
  5
CD8
330
CD7
100
AcDbEntity
  8
LAYER
100
AcDbLine
 10
279.9999999999999
 20
15.0
 30
0.0
 11
279.9999999999999
 21
0.0
 31
0.0
  0
LINE
  5
CD9
330
CD7
100
AcDbEntity
  8
LAYER
100
AcDbLine
 10
298.0
 20
15.0
 30
0.0
 11
298.0
 21
0.0
 31
0.0
  0
TEXT
  5
CDA
330
CD7
100
AcDbEntity
  8
LAYER
100
AcDbText
 10
300.1125
 20
5.75
 30
0.0
 40
3.5
  1
H.    年    月    日
 72
     4
 11
320.5
 21
7.5
 31
0.0
100
AcDbText
  0
TEXT
  5
CDB
330
CD7
100
AcDbEntity
  8
LAYER
100
AcDbText
 10
346.05
 20
9.5
 30
0.0
 40
3.5
  1
図　番
 72
     4
 11
352.0
 21
11.25
 31
0.0
100
AcDbText
  0
TEXT
  5
CDC
330
CD7
100
AcDbEntity
  8
LAYER
100
AcDbText
 10
347.0666666666666
 20
2.0
 30
0.0
 40
3.5
  1
阿賀コンクリート工業株式会社
 72
     4
 11
375.9999999999999
 21
3.75
 31
0.0
100
AcDbText
  0
TEXT
  5
CDD
330
CD7
100
AcDbEntity
  8
LAYER
100
AcDbText
 10
282.9333333333333
 20
5.75
 30
0.0
 40
3.5
  1
日　付
 72
     4
 11
289.0
 21
7.5
 31
0.0
100
AcDbText
  0
TEXT
  5
CDE
330
CD7
100
AcDbEntity
  8
LAYER
100
AcDbText
 10
211.6333333333332
 20
1.883333333333333
 30
0.0
 40
4.0
  1
要
 72
     4
 11
213.4999999999999
 21
3.75
 31
0.0
100
AcDbText
  0
TEXT
  5
CDF
330
CD7
100
AcDbEntity
  8
LAYER
100
AcDbText
 10
211.595238095238
 20
9.25
 30
0.0
 40
4.0
  1
摘
 72
     4
 11
213.4999999999999
 21
11.25
 31
0.0
100
AcDbText
  0
TEXT
  5
CE0
330
CD7
100
AcDbEntity
  8
LAYER
100
AcDbText
 10
2.049999999999998
 20
5.0
 30
0.0
 40
5.0
  1
種類・呼び名
 41
0.9
 72
     4
 11
17.5
 21
7.5
 31
0.0
100
AcDbText
  0
LINE
  5
CE1
330
CD7
100
AcDbEntity
  8
FLAM
100
AcDbLine
 10
383.4999999999999
 20
15.0
 30
0.0
 11
383.4999999999999
 21
7.5
 31
0.0
  0
LINE
  5
CE2
330
CD7
100
AcDbEntity
  8
FLAM
100
AcDbLine
 10
216.9999999999999
 20
11.25
 30
0.0
 11
279.9999999999999
 21
11.25
 31
0.0
  0
LINE
  5
CE3
330
CD7
100
AcDbEntity
  8
FLAM
100
AcDbLine
 10
216.9999999999999
 20
3.75
 30
0.0
 11
279.9999999999999
 21
3.75
 31
0.0
  0
LINE
  5
CE4
330
CD7
100
AcDbEntity
  8
FLAM
100
AcDbLine
 10
360.9999999999999
 20
11.25
 30
0.0
 11
405.9999999999998
 21
11.25
 31
0.0
  0
LINE
  5
CE5
330
CD7
100
AcDbEntity
  8
FLAM
100
AcDbLine
 10
298.0
 20
7.5
 30
0.0
 11
343.0
 21
7.5
 31
0.0
  0
LINE
  5
CE6
330
CD7
100
AcDbEntity
  8
FLAM
100
AcDbLine
 10
248.4999999999999
 20
7.5
 30
0.0
 11
248.4999999999999
 21
0.0
 31
0.0
  0
LINE
  5
CE7
330
CD7
100
AcDbEntity
  8
FLAM
100
AcDbLine
 10
248.4999999999999
 20
7.5
 30
0.0
 11
248.4999999999999
 21
15.0
 31
0.0
  0
LINE
  5
CE8
330
CD7
100
AcDbEntity
  8
FLAM
100
AcDbLine
 10
216.9999999999999
 20
7.5
 30
0.0
 11
279.9999999999999
 21
7.5
 31
0.0
  0
LINE
  5
CE9
330
CD7
100
AcDbEntity
  8
FLAM
100
AcDbLine
 10
35.0
 20
11.25
 30
0.0
 11
210.0
 21
11.25
 31
0.0
  0
LINE
  5
CEA
330
CD7
100
AcDbEntity
  8
FLAM
100
AcDbLine
 10
35.0
 20
3.75
 30
0.0
 11
210.0
 21
3.75
 31
0.0
  0
LINE
  5
CEB
330
CD7
100
AcDbEntity
  8
FLAM
100
AcDbLine
 10
122.4999999999999
 20
7.5
 30
0.0
 11
122.4999999999999
 21
0.0
 31
0.0
  0
LINE
  5
CEC
330
CD7
100
AcDbEntity
  8
FLAM
100
AcDbLine
 10
122.4999999999999
 20
7.5
 30
0.0
 11
122.4999999999999
 21
15.0
 31
0.0
  0
LINE
  5
CED
330
CD7
100
AcDbEntity
  8
LAYER
100
AcDbLine
 10
360.9999999999999
 20
15.0
 30
0.0
 11
360.9999999999999
 21
7.5
 31
0.0
  0
LINE
  5
CEE
330
CD7
100
AcDbEntity
  8
LAYER
100
AcDbLine
 10
343.0
 20
7.5
 30
0.0
 11
405.9999999999998
 21
7.5
 31
0.0
  0
LINE
  5
CEF
330
CD7
100
AcDbEntity
  8
LAYER
100
AcDbLine
 10
35.0
 20
7.5
 30
0.0
 11
210.0
 21
7.5
 31
0.0
  0
LINE
  5
CF0
330
CD7
100
AcDbEntity
  8
LAYER
100
AcDbLine
 10
343.0
 20
15.0
 30
0.0
 11
343.0
 21
15.0
 31
0.0
  0
LINE
  5
CF1
330
CD7
100
AcDbEntity
  8
LAYER
100
AcDbLine
 10
343.0
 20
15.0
 30
0.0
 11
343.0
 21
0.0
 31
0.0
  0
LINE
  5
CF2
330
CD7
100
AcDbEntity
  8
LAYER
100
AcDbLine
 10
216.9999999999999
 20
15.0
 30
0.0
 11
216.9999999999999
 21
0.0
 31
0.0
  0
LINE
  5
CF3
330
CD7
100
AcDbEntity
  8
LAYER
100
AcDbLine
 10
210.0
 20
15.0
 30
0.0
 11
210.0
 21
0.0
 31
0.0
  0
LINE
  5
CF4
330
CD7
100
AcDbEntity
  8
LAYER
100
AcDbLine
 10
35.0
 20
15.0
 30
0.0
 11
35.0
 21
0.0
 31
0.0
  0
LINE
  5
CF5
330
CD7
100
AcDbEntity
  8
LAYER
100
AcDbLine
 10
0.0
 20
15.0
 30
0.0
 11
405.9999999999998
 21
15.0
 31
0.0
  0
LWPOLYLINE
  5
CF6
330
CD7
100
AcDbEntity
  8
LAYER
100
AcDbPolyline
 90
        4
 70
     1
 43
0.0
 10
0.0
 20
0.0
 10
0.0
 20
282.75
 10
405.9999999999998
 20
282.75
 10
405.9999999999998
 20
0.0
  0
VIEWPORT
  5
CF7
330
CD7
100
AcDbEntity
  8
0
100
AcDbViewport
 10
203.0
 20
148.875
 30
0.0
 40
405.9999999999999
 41
267.75
 69
     0
 12
228.1209015211101
 22
160.8176196896051
 13
0.0
 23
0.0
 14
10.0
 24
10.0
 15
10.0
 25
10.0
 16
0.0
 26
0.0
 36
1.0
 17
0.0
 27
0.0
 37
0.0
 42
50.0
 43
0.0
 44
0.0
 45
267.75
 50
0.0
 51
0.0
 72
   100
 90
    32864
  1

281
     0
 71
     1
 74
     0
110
0.0
120
0.0
130
0.0
111
1.0
121
0.0
131
0.0
112
0.0
122
1.0
132
0.0
 79
     0
146
0.0
170
     0
  0
LWPOLYLINE
  5
CF8
330
CD7
100
AcDbEntity
  8
LAYER
100
AcDbPolyline
 90
        4
 70
     1
 43
0.0
 10
405.9999999999998
 20
0.0
 10
0.0000000000000284
 20
0.0
 10
0.0000000000000284
 20
282.75
 10
405.9999999999998
 20
282.75
  0
ENDBLK
  5
CFA
330
CD7
100
AcDbEntity
  8
0
100
AcDbBlockEnd
  0
BLOCK
  5
1D00
330
1CF6
100
AcDbEntity
  8
0
100
AcDbBlockBegin
  2
*D37
 70
     1
 10
0.0
 20
0.0
 30
0.0
  3
*D37
  1

  0
LINE
  5
2372
330
1CF6
100
AcDbEntity
  8
DIM
 62
     0
370
    -2
100
AcDbLine
 10
6469.911307402253
 20
3406.919954121019
 30
0.0
 11
6469.911307402253
 21
3186.91995412102
 31
0.0
  0
LINE
  5
2373
330
1CF6
100
AcDbEntity
  8
DIM
 62
     0
370
    -2
100
AcDbLine
 10
7389.911307402254
 20
3406.919954121019
 30
0.0
 11
7389.911307402254
 21
3186.91995412102
 31
0.0
  0
LINE
  5
2374
330
1CF6
100
AcDbEntity
  8
DIM
 62
     0
370
    -2
100
AcDbLine
 10
6509.911307402254
 20
3216.919954121019
 30
0.0
 11
7349.911307402253
 21
3216.919954121019
 31
0.0
  0
SOLID
  5
2375
330
1CF6
100
AcDbEntity
  8
DIM
 62
     0
100
AcDbTrace
 10
6509.911307402254
 20
3223.586620787686
 30
0.0
 11
6509.911307402254
 21
3210.253287454353
 31
0.0
 12
6469.911307402253
 22
3216.919954121019
 32
0.0
 13
6469.911307402253
 23
3216.919954121019
 33
0.0
  0
SOLID
  5
2376
330
1CF6
100
AcDbEntity
  8
DIM
 62
     0
100
AcDbTrace
 10
7349.911307402253
 20
3223.586620787686
 30
0.0
 11
7349.911307402253
 21
3210.253287454353
 31
0.0
 12
7389.911307402254
 22
3216.919954121019
 32
0.0
 13
7389.911307402254
 23
3216.919954121019
 33
0.0
  0
MTEXT
  5
2377
330
1CF6
100
AcDbEntity
  8
DIM
 62
     0
100
AcDbMText
 10
6929.911307402254
 20
3251.933558309287
 30
0.0
 40
40.0
 41
0.0
 71
     5
 72
     1
  1
920
 73
     1
 44
1.0
  0
POINT
  5
2378
330
1CF6
100
AcDbEntity
  8
Defpoints
 62
     0
100
AcDbPoint
 10
6469.911307402253
 20
3476.919954121019
 30
0.0
  0
POINT
  5
2379
330
1CF6
100
AcDbEntity
  8
Defpoints
 62
     0
100
AcDbPoint
 10
7389.911307402254
 20
3476.919954121019
 30
0.0
  0
POINT
  5
237A
330
1CF6
100
AcDbEntity
  8
Defpoints
 62
     0
100
AcDbPoint
 10
7389.911307402254
 20
3216.919954121019
 30
0.0
  0
ENDBLK
  5
1D01
330
1CF6
100
AcDbEntity
  8
0
100
AcDbBlockEnd
  0
BLOCK
  5
1D0C
330
1D02
100
AcDbEntity
  8
0
100
AcDbBlockBegin
  2
*D38
 70
     1
 10
0.0
 20
0.0
 30
0.0
  3
*D38
  1

  0
LINE
  5
2369
330
1D02
100
AcDbEntity
  8
DIM
 62
     0
370
    -2
100
AcDbLine
 10
7257.411307402254
 20
3956.919954121019
 30
0.0
 11
7179.911307402254
 21
3956.919954121019
 31
0.0
  0
LINE
  5
236A
330
1D02
100
AcDbEntity
  8
DIM
 62
     0
370
    -2
100
AcDbLine
 10
7259.911307402254
 20
4156.919954121018
 30
0.0
 11
7179.911307402254
 21
4156.919954121018
 31
0.0
  0
LINE
  5
236B
330
1D02
100
AcDbEntity
  8
DIM
 62
     0
370
    -2
100
AcDbLine
 10
7209.911307402254
 20
3996.91995412102
 30
0.0
 11
7209.911307402254
 21
4116.919954121018
 31
0.0
  0
SOLID
  5
236C
330
1D02
100
AcDbEntity
  8
DIM
 62
     0
100
AcDbTrace
 10
7203.244640735587
 20
3996.91995412102
 30
0.0
 11
7216.57797406892
 21
3996.91995412102
 31
0.0
 12
7209.911307402254
 22
3956.919954121019
 32
0.0
 13
7209.911307402254
 23
3956.919954121019
 33
0.0
  0
SOLID
  5
236D
330
1D02
100
AcDbEntity
  8
DIM
 62
     0
100
AcDbTrace
 10
7203.244640735587
 20
4116.919954121018
 30
0.0
 11
7216.57797406892
 21
4116.919954121018
 31
0.0
 12
7209.911307402254
 22
4156.919954121018
 32
0.0
 13
7209.911307402254
 23
4156.919954121018
 33
0.0
  0
MTEXT
  5
236E
330
1D02
100
AcDbEntity
  8
DIM
 62
     0
100
AcDbMText
 10
7174.907370394379
 20
4056.91995412102
 30
0.0
 40
40.0
 41
0.0
 71
     5
 72
     1
  1
200
 11
0.0000000000000001
 21
1.0
 31
0.0
 73
     1
 44
1.0
  0
POINT
  5
236F
330
1D02
100
AcDbEntity
  8
Defpoints
 62
     0
100
AcDbPoint
 10
7327.411307402254
 20
3956.919954121019
 30
0.0
  0
POINT
  5
2370
330
1D02
100
AcDbEntity
  8
Defpoints
 62
     0
100
AcDbPoint
 10
7329.911307402254
 20
4156.919954121018
 30
0.0
  0
POINT
  5
2371
330
1D02
100
AcDbEntity
  8
Defpoints
 62
     0
100
AcDbPoint
 10
7209.911307402254
 20
4156.919954121018
 30
0.0
  0
ENDBLK
  5
1D0D
330
1D02
100
AcDbEntity
  8
0
100
AcDbBlockEnd
  0
BLOCK
  5
1D18
330
1D0E
100
AcDbEntity
  8
0
100
AcDbBlockBegin
  2
*D39
 70
     1
 10
0.0
 20
0.0
 30
0.0
  3
*D39
  1

  0
LINE
  5
2360
330
1D0E
100
AcDbEntity
  8
DIM
 62
     0
370
    -2
100
AcDbLine
 10
6729.911307402253
 20
4034.919954121019
 30
0.0
 11
6729.911307402253
 21
4125.369835714653
 31
0.0
  0
LINE
  5
2361
330
1D0E
100
AcDbEntity
  8
DIM
 62
     0
370
    -2
100
AcDbLine
 10
7129.911307402254
 20
4034.919954121019
 30
0.0
 11
7129.911307402254
 21
4125.369835714653
 31
0.0
  0
LINE
  5
2362
330
1D0E
100
AcDbEntity
  8
DIM
 62
     0
370
    -2
100
AcDbLine
 10
6769.911307402253
 20
4095.369835714652
 30
0.0
 11
7089.911307402253
 21
4095.369835714652
 31
0.0
  0
SOLID
  5
2363
330
1D0E
100
AcDbEntity
  8
DIM
 62
     0
100
AcDbTrace
 10
6769.911307402253
 20
4102.036502381319
 30
0.0
 11
6769.911307402253
 21
4088.703169047986
 31
0.0
 12
6729.911307402253
 22
4095.369835714652
 32
0.0
 13
6729.911307402253
 23
4095.369835714652
 33
0.0
  0
SOLID
  5
2364
330
1D0E
100
AcDbEntity
  8
DIM
 62
     0
100
AcDbTrace
 10
7089.911307402253
 20
4102.036502381319
 30
0.0
 11
7089.911307402253
 21
4088.703169047986
 31
0.0
 12
7129.911307402254
 22
4095.369835714652
 32
0.0
 13
7129.911307402254
 23
4095.369835714652
 33
0.0
  0
MTEXT
  5
2365
330
1D0E
100
AcDbEntity
  8
DIM
 62
     0
100
AcDbMText
 10
6929.911307402254
 20
4130.369835714652
 30
0.0
 40
40.0
 41
0.0
 71
     5
 72
     1
  1
400
 73
     1
 44
1.0
  0
POINT
  5
2366
330
1D0E
100
AcDbEntity
  8
Defpoints
 62
     0
100
AcDbPoint
 10
6729.911307402253
 20
3964.91995412102
 30
0.0
  0
POINT
  5
2367
330
1D0E
100
AcDbEntity
  8
Defpoints
 62
     0
100
AcDbPoint
 10
7129.911307402254
 20
3964.91995412102
 30
0.0
  0
POINT
  5
2368
330
1D0E
100
AcDbEntity
  8
Defpoints
 62
     0
100
AcDbPoint
 10
7129.911307402254
 20
4095.369835714652
 30
0.0
  0
ENDBLK
  5
1D19
330
1D0E
100
AcDbEntity
  8
0
100
AcDbBlockEnd
  0
BLOCK
  5
1D25
330
1D1A
100
AcDbEntity
  8
0
100
AcDbBlockBegin
  2
*D40
 70
     1
 10
0.0
 20
0.0
 30
0.0
  3
*D40
  1

  0
LINE
  5
2356
330
1D1A
100
AcDbEntity
  8
DIM
 62
     0
370
    -2
100
AcDbLine
 10
6540.830414430239
 20
4186.919954121019
 30
0.0
 11
6570.165185629068
 21
4267.516575594669
 31
0.0
  0
LINE
  5
2357
330
1D1A
100
AcDbEntity
  8
DIM
 62
     0
370
    -2
100
AcDbLine
 10
6480.83041443024
 20
4186.919954121019
 30
0.0
 11
6510.165185629069
 21
4267.516575594669
 31
0.0
  0
LINE
  5
2358
330
1D1A
100
AcDbEntity
  8
DIM
 62
     0
370
    -2
100
AcDbLine
 10
6599.246078601082
 20
4237.516575594669
 30
0.0
 11
6639.246078601082
 21
4237.516575594669
 31
0.0
  0
LINE
  5
2359
330
1D1A
100
AcDbEntity
  8
DIM
 62
     0
370
    -2
100
AcDbLine
 10
6459.246078601083
 20
4237.516575594669
 30
0.0
 11
6342.820881750689
 21
4237.516575594669
 31
0.0
  0
SOLID
  5
235A
330
1D1A
100
AcDbEntity
  8
DIM
 62
     0
100
AcDbTrace
 10
6599.246078601082
 20
4244.183242261335
 30
0.0
 11
6599.246078601082
 21
4230.849908928002
 31
0.0
 12
6559.246078601083
 22
4237.516575594669
 32
0.0
 13
6559.246078601083
 23
4237.516575594669
 33
0.0
  0
SOLID
  5
235B
330
1D1A
100
AcDbEntity
  8
DIM
 62
     0
100
AcDbTrace
 10
6459.246078601083
 20
4244.183242261335
 30
0.0
 11
6459.246078601083
 21
4230.849908928002
 31
0.0
 12
6499.246078601082
 22
4237.516575594669
 32
0.0
 13
6499.246078601082
 23
4237.516575594669
 33
0.0
  0
MTEXT
  5
235C
330
1D1A
100
AcDbEntity
  8
DIM
 62
     0
100
AcDbMText
 10
6381.033480175886
 20
4272.516575594669
 30
0.0
 40
40.0
 41
0.0
 71
     5
 72
     1
  1
60
 73
     1
 44
1.0
  0
POINT
  5
235D
330
1D1A
100
AcDbEntity
  8
Defpoints
 62
     0
100
AcDbPoint
 10
6529.911307402253
 20
4156.919954121018
 30
0.0
  0
POINT
  5
235E
330
1D1A
100
AcDbEntity
  8
Defpoints
 62
     0
100
AcDbPoint
 10
6469.911307402253
 20
4156.919954121018
 30
0.0
  0
POINT
  5
235F
330
1D1A
100
AcDbEntity
  8
Defpoints
 62
     0
100
AcDbPoint
 10
6499.246078601082
 20
4237.516575594669
 30
0.0
  0
ENDBLK
  5
1D26
330
1D1A
100
AcDbEntity
  8
0
100
AcDbBlockEnd
  0
BLOCK
  5
1D31
330
1D27
100
AcDbEntity
  8
0
100
AcDbBlockBegin
  2
*D41
 70
     1
 10
0.0
 20
0.0
 30
0.0
  3
*D41
  1

  0
LINE
  5
234D
330
1D27
100
AcDbEntity
  8
DIM
 62
     0
370
    -2
100
AcDbLine
 10
7340.830414430239
 20
4186.919954121019
 30
0.0
 11
7370.165185629068
 21
4267.516575594669
 31
0.0
  0
LINE
  5
234E
330
1D27
100
AcDbEntity
  8
DIM
 62
     0
370
    -2
100
AcDbLine
 10
6540.830414430239
 20
4186.919954121019
 30
0.0
 11
6570.165185629068
 21
4267.516575594669
 31
0.0
  0
LINE
  5
234F
330
1D27
100
AcDbEntity
  8
DIM
 62
     0
370
    -2
100
AcDbLine
 10
7319.246078601082
 20
4237.516575594669
 30
0.0
 11
6599.246078601082
 21
4237.516575594669
 31
0.0
  0
SOLID
  5
2350
330
1D27
100
AcDbEntity
  8
DIM
 62
     0
100
AcDbTrace
 10
7319.246078601082
 20
4244.183242261335
 30
0.0
 11
7319.246078601082
 21
4230.849908928002
 31
0.0
 12
7359.246078601083
 22
4237.516575594669
 32
0.0
 13
7359.246078601083
 23
4237.516575594669
 33
0.0
  0
SOLID
  5
2351
330
1D27
100
AcDbEntity
  8
DIM
 62
     0
100
AcDbTrace
 10
6599.246078601082
 20
4244.183242261335
 30
0.0
 11
6599.246078601082
 21
4230.849908928002
 31
0.0
 12
6559.246078601083
 22
4237.516575594669
 32
0.0
 13
6559.246078601083
 23
4237.516575594669
 33
0.0
  0
MTEXT
  5
2352
330
1D27
100
AcDbEntity
  8
DIM
 62
     0
100
AcDbMText
 10
6959.246078601083
 20
4272.516575594669
 30
0.0
 40
40.0
 41
0.0
 71
     5
 72
     1
  1
800
 73
     1
 44
1.0
  0
POINT
  5
2353
330
1D27
100
AcDbEntity
  8
Defpoints
 62
     0
100
AcDbPoint
 10
7329.911307402254
 20
4156.919954121018
 30
0.0
  0
POINT
  5
2354
330
1D27
100
AcDbEntity
  8
Defpoints
 62
     0
100
AcDbPoint
 10
6529.911307402253
 20
4156.919954121018
 30
0.0
  0
POINT
  5
2355
330
1D27
100
AcDbEntity
  8
Defpoints
 62
     0
100
AcDbPoint
 10
6559.246078601083
 20
4237.516575594669
 30
0.0
  0
ENDBLK
  5
1D32
330
1D27
100
AcDbEntity
  8
0
100
AcDbBlockEnd
  0
BLOCK
  5
1D3E
330
1D33
100
AcDbEntity
  8
0
100
AcDbBlockBegin
  2
*D42
 70
     1
 10
0.0
 20
0.0
 30
0.0
  3
*D42
  1

  0
LINE
  5
2343
330
1D33
100
AcDbEntity
  8
DIM
 62
     0
370
    -2
100
AcDbLine
 10
7340.830414430239
 20
4186.919954121019
 30
0.0
 11
7370.165185629068
 21
4267.516575594669
 31
0.0
  0
LINE
  5
2344
330
1D33
100
AcDbEntity
  8
DIM
 62
     0
370
    -2
100
AcDbLine
 10
7400.83041443024
 20
4186.919954121019
 30
0.0
 11
7430.165185629069
 21
4267.516575594669
 31
0.0
  0
LINE
  5
2345
330
1D33
100
AcDbEntity
  8
DIM
 62
     0
370
    -2
100
AcDbLine
 10
7319.246078601082
 20
4237.516575594669
 30
0.0
 11
7279.246078601082
 21
4237.516575594669
 31
0.0
  0
LINE
  5
2346
330
1D33
100
AcDbEntity
  8
DIM
 62
     0
370
    -2
100
AcDbLine
 10
7459.246078601083
 20
4237.516575594669
 30
0.0
 11
7575.671275451476
 21
4237.516575594669
 31
0.0
  0
SOLID
  5
2347
330
1D33
100
AcDbEntity
  8
DIM
 62
     0
100
AcDbTrace
 10
7319.246078601082
 20
4244.183242261335
 30
0.0
 11
7319.246078601082
 21
4230.849908928002
 31
0.0
 12
7359.246078601083
 22
4237.516575594669
 32
0.0
 13
7359.246078601083
 23
4237.516575594669
 33
0.0
  0
SOLID
  5
2348
330
1D33
100
AcDbEntity
  8
DIM
 62
     0
100
AcDbTrace
 10
7459.246078601083
 20
4244.183242261335
 30
0.0
 11
7459.246078601083
 21
4230.849908928002
 31
0.0
 12
7419.246078601083
 22
4237.516575594669
 32
0.0
 13
7419.246078601083
 23
4237.516575594669
 33
0.0
  0
MTEXT
  5
2349
330
1D33
100
AcDbEntity
  8
DIM
 62
     0
100
AcDbMText
 10
7537.458677026279
 20
4272.516575594669
 30
0.0
 40
40.0
 41
0.0
 71
     5
 72
     1
  1
60
 73
     1
 44
1.0
  0
POINT
  5
234A
330
1D33
100
AcDbEntity
  8
Defpoints
 62
     0
100
AcDbPoint
 10
7329.911307402254
 20
4156.919954121018
 30
0.0
  0
POINT
  5
234B
330
1D33
100
AcDbEntity
  8
Defpoints
 62
     0
100
AcDbPoint
 10
7389.911307402254
 20
4156.919954121018
 30
0.0
  0
POINT
  5
234C
330
1D33
100
AcDbEntity
  8
Defpoints
 62
     0
100
AcDbPoint
 10
7419.246078601083
 20
4237.516575594669
 30
0.0
  0
ENDBLK
  5
1D3F
330
1D33
100
AcDbEntity
  8
0
100
AcDbBlockEnd
  0
BLOCK
  5
1D4A
330
1D40
100
AcDbEntity
  8
0
100
AcDbBlockBegin
  2
*D43
 70
     1
 10
0.0
 20
0.0
 30
0.0
  3
*D43
  1

  0
LINE
  5
233A
330
1D40
100
AcDbEntity
  8
NO
 62
     0
370
    -2
100
AcDbLine
 10
6629.911307402252
 20
3546.919954121019
 30
0.0
 11
6629.911307402252
 21
3336.919954121019
 31
0.0
  0
LINE
  5
233B
330
1D40
100
AcDbEntity
  8
NO
 62
     0
370
    -2
100
AcDbLine
 10
7229.911307402254
 20
3546.919954121019
 30
0.0
 11
7229.911307402254
 21
3336.919954121019
 31
0.0
  0
LINE
  5
233C
330
1D40
100
AcDbEntity
  8
NO
 62
     0
370
    -2
100
AcDbLine
 10
6669.911307402253
 20
3366.919954121019
 30
0.0
 11
7189.911307402254
 21
3366.919954121019
 31
0.0
  0
SOLID
  5
233D
330
1D40
100
AcDbEntity
  8
NO
 62
     0
100
AcDbTrace
 10
6669.911307402253
 20
3373.586620787686
 30
0.0
 11
6669.911307402253
 21
3360.253287454353
 31
0.0
 12
6629.911307402252
 22
3366.919954121019
 32
0.0
 13
6629.911307402252
 23
3366.919954121019
 33
0.0
  0
SOLID
  5
233E
330
1D40
100
AcDbEntity
  8
NO
 62
     0
100
AcDbTrace
 10
7189.911307402254
 20
3373.586620787686
 30
0.0
 11
7189.911307402254
 21
3360.253287454353
 31
0.0
 12
7229.911307402254
 22
3366.919954121019
 32
0.0
 13
7229.911307402254
 23
3366.919954121019
 33
0.0
  0
MTEXT
  5
233F
330
1D40
100
AcDbEntity
  8
NO
 62
     0
100
AcDbMText
 10
6929.911307402254
 20
3401.919954121019
 30
0.0
 40
40.0
 41
0.0
 71
     5
 72
     1
  1
600
 73
     1
 44
1.0
  0
POINT
  5
2340
330
1D40
100
AcDbEntity
  8
Defpoints
 62
     0
100
AcDbPoint
 10
6629.911307402252
 20
3616.919954121019
 30
0.0
  0
POINT
  5
2341
330
1D40
100
AcDbEntity
  8
Defpoints
 62
     0
100
AcDbPoint
 10
7229.911307402254
 20
3616.919954121019
 30
0.0
  0
POINT
  5
2342
330
1D40
100
AcDbEntity
  8
Defpoints
 62
     0
100
AcDbPoint
 10
7229.911307402254
 20
3366.919954121019
 30
0.0
  0
ENDBLK
  5
1D4B
330
1D40
100
AcDbEntity
  8
0
100
AcDbBlockEnd
  0
BLOCK
  5
1D56
330
1D4C
100
AcDbEntity
  8
0
100
AcDbBlockBegin
  2
*D44
 70
     1
 10
0.0
 20
0.0
 30
0.0
  3
*D44
  1

  0
LINE
  5
240C
330
1D4C
100
AcDbEntity
  8
DIM
 62
     0
370
    -2
100
AcDbLine
 10
7449.911307402253
 20
3466.919954121019
 30
0.0
 11
7937.411307402253
 21
3466.919954121019
 31
0.0
  0
LINE
  5
240D
330
1D4C
100
AcDbEntity
  8
DIM
 62
     0
370
    -2
100
AcDbLine
 10
7459.911307402254
 20
4156.919954121018
 30
0.0
 11
7937.411307402253
 21
4156.919954121018
 31
0.0
  0
LINE
  5
240E
330
1D4C
100
AcDbEntity
  8
DIM
 62
     0
370
    -2
100
AcDbLine
 10
7907.411307402253
 20
3506.919954121019
 30
0.0
 11
7907.411307402253
 21
4116.919954121018
 31
0.0
  0
SOLID
  5
240F
330
1D4C
100
AcDbEntity
  8
DIM
 62
     0
100
AcDbTrace
 10
7900.744640735587
 20
3506.919954121019
 30
0.0
 11
7914.077974068921
 21
3506.919954121019
 31
0.0
 12
7907.411307402253
 22
3466.919954121019
 32
0.0
 13
7907.411307402253
 23
3466.919954121019
 33
0.0
  0
SOLID
  5
2410
330
1D4C
100
AcDbEntity
  8
DIM
 62
     0
100
AcDbTrace
 10
7900.744640735587
 20
4116.919954121018
 30
0.0
 11
7914.077974068921
 21
4116.919954121018
 31
0.0
 12
7907.411307402253
 22
4156.919954121018
 32
0.0
 13
7907.411307402253
 23
4156.919954121018
 33
0.0
  0
MTEXT
  5
2411
330
1D4C
100
AcDbEntity
  8
DIM
 62
     0
100
AcDbMText
 10
7872.411307402252
 20
3811.919954121021
 30
0.0
 40
40.0
 41
0.0
 71
     5
 72
     1
  1
690
 11
0.0000000000000001
 21
1.0
 31
0.0
 73
     1
 44
1.0
  0
POINT
  5
2412
330
1D4C
100
AcDbEntity
  8
Defpoints
 62
     0
100
AcDbPoint
 10
7379.911307402254
 20
3466.919954121019
 30
0.0
  0
POINT
  5
2413
330
1D4C
100
AcDbEntity
  8
Defpoints
 62
     0
100
AcDbPoint
 10
7389.911307402254
 20
4156.919954121018
 30
0.0
  0
POINT
  5
2414
330
1D4C
100
AcDbEntity
  8
Defpoints
 62
     0
100
AcDbPoint
 10
7907.411307402253
 20
4156.919954121018
 30
0.0
  0
ENDBLK
  5
1D57
330
1D4C
100
AcDbEntity
  8
0
100
AcDbBlockEnd
  0
BLOCK
  5
1D63
330
1D58
100
AcDbEntity
  8
0
100
AcDbBlockBegin
  2
*D45
 70
     1
 10
0.0
 20
0.0
 30
0.0
  3
*D45
  1

  0
LINE
  5
2402
330
1D58
100
AcDbEntity
  8
DIM
 62
     0
370
    -2
100
AcDbLine
 10
7362.411307402253
 20
3556.919954121019
 30
0.0
 11
7787.411307402253
 21
3556.919954121019
 31
0.0
  0
LINE
  5
2403
330
1D58
100
AcDbEntity
  8
DIM
 62
     0
370
    -2
100
AcDbLine
 10
7449.911307402253
 20
3466.919954121019
 30
0.0
 11
7787.411307402253
 21
3466.919954121019
 31
0.0
  0
LINE
  5
2404
330
1D58
100
AcDbEntity
  8
DIM
 62
     0
370
    -2
100
AcDbLine
 10
7757.411307402254
 20
3596.91995412102
 30
0.0
 11
7757.411307402254
 21
3636.919954121019
 31
0.0
  0
LINE
  5
2405
330
1D58
100
AcDbEntity
  8
DIM
 62
     0
370
    -2
100
AcDbLine
 10
7757.411307402254
 20
3426.919954121019
 30
0.0
 11
7757.411307402254
 21
3386.919954121019
 31
0.0
  0
SOLID
  5
2406
330
1D58
100
AcDbEntity
  8
DIM
 62
     0
100
AcDbTrace
 10
7750.744640735587
 20
3596.91995412102
 30
0.0
 11
7764.077974068921
 21
3596.91995412102
 31
0.0
 12
7757.411307402254
 22
3556.919954121019
 32
0.0
 13
7757.411307402254
 23
3556.919954121019
 33
0.0
  0
SOLID
  5
2407
330
1D58
100
AcDbEntity
  8
DIM
 62
     0
100
AcDbTrace
 10
7750.744640735587
 20
3426.919954121019
 30
0.0
 11
7764.077974068921
 21
3426.919954121019
 31
0.0
 12
7757.411307402254
 22
3466.919954121019
 32
0.0
 13
7757.411307402254
 23
3466.919954121019
 33
0.0
  0
MTEXT
  5
2408
330
1D58
100
AcDbEntity
  8
DIM
 62
     0
100
AcDbMText
 10
7722.411307402253
 20
3511.919954121021
 30
0.0
 40
40.0
 41
0.0
 71
     5
 72
     1
  1
90
 11
0.0000000000000001
 21
1.0
 31
0.0
 73
     1
 44
1.0
  0
POINT
  5
2409
330
1D58
100
AcDbEntity
  8
Defpoints
 62
     0
100
AcDbPoint
 10
7292.411307402254
 20
3556.919954121019
 30
0.0
  0
POINT
  5
240A
330
1D58
100
AcDbEntity
  8
Defpoints
 62
     0
100
AcDbPoint
 10
7379.911307402254
 20
3466.919954121019
 30
0.0
  0
POINT
  5
240B
330
1D58
100
AcDbEntity
  8
Defpoints
 62
     0
100
AcDbPoint
 10
7757.411307402254
 20
3466.919954121019
 30
0.0
  0
ENDBLK
  5
1D64
330
1D58
100
AcDbEntity
  8
0
100
AcDbBlockEnd
  0
BLOCK
  5
1D6F
330
1D65
100
AcDbEntity
  8
0
100
AcDbBlockBegin
  2
*D46
 70
     1
 10
0.0
 20
0.0
 30
0.0
  3
*D46
  1

  0
LINE
  5
23E7
330
1D65
100
AcDbEntity
  8
DIM
 62
     0
370
    -2
100
AcDbLine
 10
7362.411307402253
 20
3556.919954121019
 30
0.0
 11
7787.411307402253
 21
3556.919954121019
 31
0.0
  0
LINE
  5
23E8
330
1D65
100
AcDbEntity
  8
DIM
 62
     0
370
    -2
100
AcDbLine
 10
7459.911307402254
 20
4156.919954121018
 30
0.0
 11
7787.411307402253
 21
4156.919954121018
 31
0.0
  0
LINE
  5
23E9
330
1D65
100
AcDbEntity
  8
DIM
 62
     0
370
    -2
100
AcDbLine
 10
7757.411307402254
 20
3596.91995412102
 30
0.0
 11
7757.411307402254
 21
4116.919954121018
 31
0.0
  0
SOLID
  5
23EA
330
1D65
100
AcDbEntity
  8
DIM
 62
     0
100
AcDbTrace
 10
7750.744640735587
 20
3596.91995412102
 30
0.0
 11
7764.077974068921
 21
3596.91995412102
 31
0.0
 12
7757.411307402254
 22
3556.919954121019
 32
0.0
 13
7757.411307402254
 23
3556.919954121019
 33
0.0
  0
SOLID
  5
23EB
330
1D65
100
AcDbEntity
  8
DIM
 62
     0
100
AcDbTrace
 10
7750.744640735587
 20
4116.919954121018
 30
0.0
 11
7764.077974068921
 21
4116.919954121018
 31
0.0
 12
7757.411307402254
 22
4156.919954121018
 32
0.0
 13
7757.411307402254
 23
4156.919954121018
 33
0.0
  0
MTEXT
  5
23EC
330
1D65
100
AcDbEntity
  8
DIM
 62
     0
100
AcDbMText
 10
7722.411307402253
 20
3856.91995412102
 30
0.0
 40
40.0
 41
0.0
 71
     5
 72
     1
  1
600
 11
0.0000000000000001
 21
1.0
 31
0.0
 73
     1
 44
1.0
  0
POINT
  5
23ED
330
1D65
100
AcDbEntity
  8
Defpoints
 62
     0
100
AcDbPoint
 10
7292.411307402254
 20
3556.919954121019
 30
0.0
  0
POINT
  5
23EE
330
1D65
100
AcDbEntity
  8
Defpoints
 62
     0
100
AcDbPoint
 10
7389.911307402254
 20
4156.919954121018
 30
0.0
  0
POINT
  5
23EF
330
1D65
100
AcDbEntity
  8
Defpoints
 62
     0
100
AcDbPoint
 10
7757.411307402254
 20
4156.919954121018
 30
0.0
  0
ENDBLK
  5
1D70
330
1D65
100
AcDbEntity
  8
0
100
AcDbBlockEnd
  0
BLOCK
  5
1D7B
330
1D71
100
AcDbEntity
  8
0
100
AcDbBlockBegin
  2
*D47
 70
     1
 10
0.0
 20
0.0
 30
0.0
  3
*D47
  1

  0
LINE
  5
23F9
330
1D71
100
AcDbEntity
  8
NO
 62
     0
370
    -2
100
AcDbLine
 10
7439.911307402254
 20
3616.919954121019
 30
0.0
 11
7637.411307402254
 21
3616.919954121019
 31
0.0
  0
LINE
  5
23FA
330
1D71
100
AcDbEntity
  8
NO
 62
     0
370
    -2
100
AcDbLine
 10
7449.911307402253
 20
3466.919954121019
 30
0.0
 11
7637.411307402254
 21
3466.919954121019
 31
0.0
  0
LINE
  5
23FB
330
1D71
100
AcDbEntity
  8
NO
 62
     0
370
    -2
100
AcDbLine
 10
7607.411307402255
 20
3576.919954121019
 30
0.0
 11
7607.411307402255
 21
3506.919954121019
 31
0.0
  0
SOLID
  5
23FC
330
1D71
100
AcDbEntity
  8
NO
 62
     0
100
AcDbTrace
 10
7600.744640735587
 20
3576.919954121019
 30
0.0
 11
7614.077974068921
 21
3576.919954121019
 31
0.0
 12
7607.411307402255
 22
3616.919954121019
 32
0.0
 13
7607.411307402255
 23
3616.919954121019
 33
0.0
  0
SOLID
  5
23FD
330
1D71
100
AcDbEntity
  8
NO
 62
     0
100
AcDbTrace
 10
7600.744640735587
 20
3506.919954121019
 30
0.0
 11
7614.077974068921
 21
3506.919954121019
 31
0.0
 12
7607.411307402255
 22
3466.919954121019
 32
0.0
 13
7607.411307402255
 23
3466.919954121019
 33
0.0
  0
MTEXT
  5
23FE
330
1D71
100
AcDbEntity
  8
NO
 62
     0
100
AcDbMText
 10
7572.411307402254
 20
3541.919954121019
 30
0.0
 40
40.0
 41
0.0
 71
     5
 72
     1
  1
150
 11
0.0000000000000001
 21
1.0
 31
0.0
 73
     1
 44
1.0
  0
POINT
  5
23FF
330
1D71
100
AcDbEntity
  8
Defpoints
 62
     0
100
AcDbPoint
 10
7369.911307402253
 20
3616.919954121019
 30
0.0
  0
POINT
  5
2400
330
1D71
100
AcDbEntity
  8
Defpoints
 62
     0
100
AcDbPoint
 10
7379.911307402254
 20
3466.919954121019
 30
0.0
  0
POINT
  5
2401
330
1D71
100
AcDbEntity
  8
Defpoints
 62
     0
100
AcDbPoint
 10
7607.411307402255
 20
3466.919954121019
 30
0.0
  0
ENDBLK
  5
1D7C
330
1D71
100
AcDbEntity
  8
0
100
AcDbBlockEnd
  0
BLOCK
  5
1D87
330
1D7D
100
AcDbEntity
  8
0
100
AcDbBlockBegin
  2
*D48
 70
     1
 10
0.0
 20
0.0
 30
0.0
  3
*D48
  1

  0
LINE
  5
23D5
330
1D7D
100
AcDbEntity
  8
NO
 62
     0
370
    -2
100
AcDbLine
 10
7439.911307402254
 20
3916.919954121019
 30
0.0
 11
7637.411307402253
 21
3916.919954121019
 31
0.0
  0
LINE
  5
23D6
330
1D7D
100
AcDbEntity
  8
NO
 62
     0
370
    -2
100
AcDbLine
 10
7439.911307402254
 20
3616.919954121019
 30
0.0
 11
7637.411307402253
 21
3616.919954121019
 31
0.0
  0
LINE
  5
23D7
330
1D7D
100
AcDbEntity
  8
NO
 62
     0
370
    -2
100
AcDbLine
 10
7607.411307402253
 20
3876.919954121019
 30
0.0
 11
7607.411307402253
 21
3656.919954121019
 31
0.0
  0
SOLID
  5
23D8
330
1D7D
100
AcDbEntity
  8
NO
 62
     0
100
AcDbTrace
 10
7600.744640735587
 20
3876.919954121019
 30
0.0
 11
7614.077974068921
 21
3876.919954121019
 31
0.0
 12
7607.411307402253
 22
3916.919954121019
 32
0.0
 13
7607.411307402253
 23
3916.919954121019
 33
0.0
  0
SOLID
  5
23D9
330
1D7D
100
AcDbEntity
  8
NO
 62
     0
100
AcDbTrace
 10
7600.744640735587
 20
3656.919954121019
 30
0.0
 11
7614.077974068921
 21
3656.919954121019
 31
0.0
 12
7607.411307402253
 22
3616.919954121019
 32
0.0
 13
7607.411307402253
 23
3616.919954121019
 33
0.0
  0
MTEXT
  5
23DA
330
1D7D
100
AcDbEntity
  8
NO
 62
     0
100
AcDbMText
 10
7572.411307402252
 20
3766.91995412102
 30
0.0
 40
40.0
 41
0.0
 71
     5
 72
     1
  1
300
 11
0.0000000000000001
 21
1.0
 31
0.0
 73
     1
 44
1.0
  0
POINT
  5
23DB
330
1D7D
100
AcDbEntity
  8
Defpoints
 62
     0
100
AcDbPoint
 10
7369.911307402253
 20
3916.919954121019
 30
0.0
  0
POINT
  5
23DC
330
1D7D
100
AcDbEntity
  8
Defpoints
 62
     0
100
AcDbPoint
 10
7369.911307402253
 20
3616.919954121019
 30
0.0
  0
POINT
  5
23DD
330
1D7D
100
AcDbEntity
  8
Defpoints
 62
     0
100
AcDbPoint
 10
7607.411307402253
 20
3616.919954121019
 30
0.0
  0
ENDBLK
  5
1D88
330
1D7D
100
AcDbEntity
  8
0
100
AcDbBlockEnd
  0
BLOCK
  5
1D93
330
1D89
100
AcDbEntity
  8
0
100
AcDbBlockBegin
  2
*D49
 70
     1
 10
0.0
 20
0.0
 30
0.0
  3
*D49
  1

  0
LINE
  5
23DE
330
1D89
100
AcDbEntity
  8
NO
 62
     0
370
    -2
100
AcDbLine
 10
7439.911307402254
 20
3916.919954121019
 30
0.0
 11
7637.411307402253
 21
3916.919954121019
 31
0.0
  0
LINE
  5
23DF
330
1D89
100
AcDbEntity
  8
NO
 62
     0
370
    -2
100
AcDbLine
 10
7459.911307402254
 20
4156.919954121018
 30
0.0
 11
7637.411307402253
 21
4156.919954121018
 31
0.0
  0
LINE
  5
23E0
330
1D89
100
AcDbEntity
  8
NO
 62
     0
370
    -2
100
AcDbLine
 10
7607.411307402253
 20
3956.919954121019
 30
0.0
 11
7607.411307402253
 21
4116.919954121018
 31
0.0
  0
SOLID
  5
23E1
330
1D89
100
AcDbEntity
  8
NO
 62
     0
100
AcDbTrace
 10
7600.744640735587
 20
3956.919954121019
 30
0.0
 11
7614.077974068921
 21
3956.919954121019
 31
0.0
 12
7607.411307402253
 22
3916.919954121019
 32
0.0
 13
7607.411307402253
 23
3916.919954121019
 33
0.0
  0
SOLID
  5
23E2
330
1D89
100
AcDbEntity
  8
NO
 62
     0
100
AcDbTrace
 10
7600.744640735587
 20
4116.919954121018
 30
0.0
 11
7614.077974068921
 21
4116.919954121018
 31
0.0
 12
7607.411307402253
 22
4156.919954121018
 32
0.0
 13
7607.411307402253
 23
4156.919954121018
 33
0.0
  0
MTEXT
  5
23E3
330
1D89
100
AcDbEntity
  8
NO
 62
     0
100
AcDbMText
 10
7572.407370394379
 20
4036.91995412102
 30
0.0
 40
40.0
 41
0.0
 71
     5
 72
     1
  1
240
 11
0.0000000000000001
 21
1.0
 31
0.0
 73
     1
 44
1.0
  0
POINT
  5
23E4
330
1D89
100
AcDbEntity
  8
Defpoints
 62
     0
100
AcDbPoint
 10
7369.911307402253
 20
3916.919954121019
 30
0.0
  0
POINT
  5
23E5
330
1D89
100
AcDbEntity
  8
Defpoints
 62
     0
100
AcDbPoint
 10
7389.911307402254
 20
4156.919954121018
 30
0.0
  0
POINT
  5
23E6
330
1D89
100
AcDbEntity
  8
Defpoints
 62
     0
100
AcDbPoint
 10
7607.411307402253
 20
4156.919954121018
 30
0.0
  0
ENDBLK
  5
1D94
330
1D89
100
AcDbEntity
  8
0
100
AcDbBlockEnd
  0
BLOCK
  5
1ED7
330
1ECC
100
AcDbEntity
  8
0
100
AcDbBlockBegin
  2
*D50
 70
     1
 10
0.0
 20
0.0
 30
0.0
  3
*D50
  1

  0
LINE
  5
22F9
330
1ECC
100
AcDbEntity
  8
DIM
 62
     0
370
    -2
100
AcDbLine
 10
7199.911307402253
 20
4356.919954121019
 30
0.0
 11
7239.911307402254
 21
4356.919954121019
 31
0.0
  0
LINE
  5
22FA
330
1ECC
100
AcDbEntity
  8
DIM
 62
     0
370
    -2
100
AcDbLine
 10
6999.911307402253
 20
4456.919954121018
 30
0.0
 11
7239.911307402254
 21
4456.919954121018
 31
0.0
  0
LINE
  5
22FB
330
1ECC
100
AcDbEntity
  8
DIM
 62
     0
370
    -2
100
AcDbLine
 10
7209.911307402254
 20
4316.919954121019
 30
0.0
 11
7209.911307402254
 21
4276.919954121018
 31
0.0
  0
LINE
  5
22FC
330
1ECC
100
AcDbEntity
  8
DIM
 62
     0
370
    -2
100
AcDbLine
 10
7209.911307402254
 20
4496.919954121019
 30
0.0
 11
7209.911307402254
 21
4536.919954121019
 31
0.0
  0
SOLID
  5
22FD
330
1ECC
100
AcDbEntity
  8
DIM
 62
     0
100
AcDbTrace
 10
7203.244640735587
 20
4316.919954121019
 30
0.0
 11
7216.57797406892
 21
4316.919954121019
 31
0.0
 12
7209.911307402254
 22
4356.919954121019
 32
0.0
 13
7209.911307402254
 23
4356.919954121019
 33
0.0
  0
SOLID
  5
22FE
330
1ECC
100
AcDbEntity
  8
DIM
 62
     0
100
AcDbTrace
 10
7203.244640735587
 20
4496.919954121019
 30
0.0
 11
7216.57797406892
 21
4496.919954121019
 31
0.0
 12
7209.911307402254
 22
4456.919954121018
 32
0.0
 13
7209.911307402254
 23
4456.919954121018
 33
0.0
  0
MTEXT
  5
22FF
330
1ECC
100
AcDbEntity
  8
DIM
 62
     0
100
AcDbMText
 10
7174.911307402253
 20
4406.919954121021
 30
0.0
 40
40.0
 41
0.0
 71
     5
 72
     1
  1
100
 11
0.0000000000000001
 21
1.0
 31
0.0
 73
     1
 44
1.0
  0
POINT
  5
2300
330
1ECC
100
AcDbEntity
  8
Defpoints
 62
     0
100
AcDbPoint
 10
7129.911307402254
 20
4356.919954121019
 30
0.0
  0
POINT
  5
2301
330
1ECC
100
AcDbEntity
  8
Defpoints
 62
     0
100
AcDbPoint
 10
6929.911307402254
 20
4456.919954121018
 30
0.0
  0
POINT
  5
2302
330
1ECC
100
AcDbEntity
  8
Defpoints
 62
     0
100
AcDbPoint
 10
7209.911307402254
 20
4456.919954121018
 30
0.0
  0
ENDBLK
  5
1ED8
330
1ECC
100
AcDbEntity
  8
0
100
AcDbBlockEnd
  0
BLOCK
  5
1EE3
330
1ED9
100
AcDbEntity
  8
0
100
AcDbBlockBegin
  2
*D51
 70
     1
 10
0.0
 20
0.0
 30
0.0
  3
*D51
  1

  0
LINE
  5
22F0
330
1ED9
100
AcDbEntity
  8
DIM
 62
     0
370
    -2
100
AcDbLine
 10
7257.411307402254
 20
4356.919954121019
 30
0.0
 11
7179.911307402254
 21
4356.919954121019
 31
0.0
  0
LINE
  5
22F1
330
1ED9
100
AcDbEntity
  8
DIM
 62
     0
370
    -2
100
AcDbLine
 10
7139.911307402254
 20
4156.919954121018
 30
0.0
 11
7179.911307402254
 21
4156.919954121018
 31
0.0
  0
LINE
  5
22F2
330
1ED9
100
AcDbEntity
  8
DIM
 62
     0
370
    -2
100
AcDbLine
 10
7209.911307402254
 20
4316.919954121019
 30
0.0
 11
7209.911307402254
 21
4196.919954121019
 31
0.0
  0
SOLID
  5
22F3
330
1ED9
100
AcDbEntity
  8
DIM
 62
     0
100
AcDbTrace
 10
7203.244640735587
 20
4316.919954121019
 30
0.0
 11
7216.57797406892
 21
4316.919954121019
 31
0.0
 12
7209.911307402254
 22
4356.919954121019
 32
0.0
 13
7209.911307402254
 23
4356.919954121019
 33
0.0
  0
SOLID
  5
22F4
330
1ED9
100
AcDbEntity
  8
DIM
 62
     0
100
AcDbTrace
 10
7203.244640735587
 20
4196.919954121019
 30
0.0
 11
7216.57797406892
 21
4196.919954121019
 31
0.0
 12
7209.911307402254
 22
4156.919954121018
 32
0.0
 13
7209.911307402254
 23
4156.919954121018
 33
0.0
  0
MTEXT
  5
22F5
330
1ED9
100
AcDbEntity
  8
DIM
 62
     0
100
AcDbMText
 10
7174.907370394379
 20
4256.919954121021
 30
0.0
 40
40.0
 41
0.0
 71
     5
 72
     1
  1
200
 11
0.0000000000000001
 21
1.0
 31
0.0
 73
     1
 44
1.0
  0
POINT
  5
22F6
330
1ED9
100
AcDbEntity
  8
Defpoints
 62
     0
100
AcDbPoint
 10
7327.411307402254
 20
4356.919954121019
 30
0.0
  0
POINT
  5
22F7
330
1ED9
100
AcDbEntity
  8
Defpoints
 62
     0
100
AcDbPoint
 10
7209.911307402254
 20
4156.919954121018
 30
0.0
  0
POINT
  5
22F8
330
1ED9
100
AcDbEntity
  8
Defpoints
 62
     0
100
AcDbPoint
 10
7209.911307402254
 20
4156.919954121018
 30
0.0
  0
ENDBLK
  5
1EE4
330
1ED9
100
AcDbEntity
  8
0
100
AcDbBlockEnd
  0
BLOCK
  5
1EEF
330
1EE5
100
AcDbEntity
  8
0
100
AcDbBlockBegin
  2
*D52
 70
     1
 10
0.0
 20
0.0
 30
0.0
  3
*D52
  1

  0
LINE
  5
22E7
330
1EE5
100
AcDbEntity
  8
DIM
 62
     0
370
    -2
100
AcDbLine
 10
7459.911307402254
 20
4456.919954121018
 30
0.0
 11
7937.411307402253
 21
4456.919954121018
 31
0.0
  0
LINE
  5
22E8
330
1EE5
100
AcDbEntity
  8
DIM
 62
     0
370
    -2
100
AcDbLine
 10
7459.911307402254
 20
4156.919954121018
 30
0.0
 11
7937.411307402253
 21
4156.919954121018
 31
0.0
  0
LINE
  5
22E9
330
1EE5
100
AcDbEntity
  8
DIM
 62
     0
370
    -2
100
AcDbLine
 10
7907.411307402253
 20
4416.919954121019
 30
0.0
 11
7907.411307402253
 21
4196.919954121019
 31
0.0
  0
SOLID
  5
22EA
330
1EE5
100
AcDbEntity
  8
DIM
 62
     0
100
AcDbTrace
 10
7900.744640735587
 20
4416.919954121019
 30
0.0
 11
7914.077974068921
 21
4416.919954121019
 31
0.0
 12
7907.411307402253
 22
4456.919954121018
 32
0.0
 13
7907.411307402253
 23
4456.919954121018
 33
0.0
  0
SOLID
  5
22EB
330
1EE5
100
AcDbEntity
  8
DIM
 62
     0
100
AcDbTrace
 10
7900.744640735587
 20
4196.919954121019
 30
0.0
 11
7914.077974068921
 21
4196.919954121019
 31
0.0
 12
7907.411307402253
 22
4156.919954121018
 32
0.0
 13
7907.411307402253
 23
4156.919954121018
 33
0.0
  0
MTEXT
  5
22EC
330
1EE5
100
AcDbEntity
  8
DIM
 62
     0
100
AcDbMText
 10
7872.411307402252
 20
4306.91995412102
 30
0.0
 40
40.0
 41
0.0
 71
     5
 72
     1
  1
300
 11
0.0000000000000001
 21
1.0
 31
0.0
 73
     1
 44
1.0
  0
POINT
  5
22ED
330
1EE5
100
AcDbEntity
  8
Defpoints
 62
     0
100
AcDbPoint
 10
7389.911307402254
 20
4456.919954121018
 30
0.0
  0
POINT
  5
22EE
330
1EE5
100
AcDbEntity
  8
Defpoints
 62
     0
100
AcDbPoint
 10
7389.911307402254
 20
4156.919954121018
 30
0.0
  0
POINT
  5
22EF
330
1EE5
100
AcDbEntity
  8
Defpoints
 62
     0
100
AcDbPoint
 10
7907.411307402253
 20
4156.919954121018
 30
0.0
  0
ENDBLK
  5
1EF0
330
1EE5
100
AcDbEntity
  8
0
100
AcDbBlockEnd
  0
BLOCK
  5
265D
330
2652
100
AcDbEntity
  8
0
100
AcDbBlockBegin
  2
*D73
 70
     1
 10
0.0
 20
0.0
 30
0.0
  3
*D73
  1

  0
LINE
  5
275C
330
2652
100
AcDbEntity
  8
DIM
 62
     0
370
    -2
100
AcDbLine
 10
7434.911307402254
 20
4946.919954121019
 30
0.0
 11
7937.411307402253
 21
4946.919954121019
 31
0.0
  0
LINE
  5
275D
330
2652
100
AcDbEntity
  8
DIM
 62
     0
370
    -2
100
AcDbLine
 10
7419.911307402253
 20
5046.919954121019
 30
0.0
 11
7937.411307402253
 21
5046.919954121019
 31
0.0
  0
LINE
  5
275E
330
2652
100
AcDbEntity
  8
DIM
 62
     0
370
    -2
100
AcDbLine
 10
7907.411307402253
 20
4906.919954121019
 30
0.0
 11
7907.411307402253
 21
4866.919954121019
 31
0.0
  0
LINE
  5
275F
330
2652
100
AcDbEntity
  8
DIM
 62
     0
370
    -2
100
AcDbLine
 10
7907.411307402253
 20
5086.919954121019
 30
0.0
 11
7907.411307402253
 21
5126.919954121019
 31
0.0
  0
SOLID
  5
2760
330
2652
100
AcDbEntity
  8
DIM
 62
     0
100
AcDbTrace
 10
7900.744640735587
 20
4906.919954121019
 30
0.0
 11
7914.077974068921
 21
4906.919954121019
 31
0.0
 12
7907.411307402253
 22
4946.919954121019
 32
0.0
 13
7907.411307402253
 23
4946.919954121019
 33
0.0
  0
SOLID
  5
2761
330
2652
100
AcDbEntity
  8
DIM
 62
     0
100
AcDbTrace
 10
7900.744640735587
 20
5086.919954121019
 30
0.0
 11
7914.077974068921
 21
5086.919954121019
 31
0.0
 12
7907.411307402253
 22
5046.919954121019
 32
0.0
 13
7907.411307402253
 23
5046.919954121019
 33
0.0
  0
MTEXT
  5
2762
330
2652
100
AcDbEntity
  8
DIM
 62
     0
100
AcDbMText
 10
7872.411307402252
 20
4996.91995412102
 30
0.0
 40
40.0
 41
0.0
 71
     5
 72
     1
  1
100
 11
0.0000000000000001
 21
1.0
 31
0.0
 73
     1
 44
1.0
  0
POINT
  5
2763
330
2652
100
AcDbEntity
  8
Defpoints
 62
     0
100
AcDbPoint
 10
7364.911307402254
 20
4946.919954121019
 30
0.0
  0
POINT
  5
2764
330
2652
100
AcDbEntity
  8
Defpoints
 62
     0
100
AcDbPoint
 10
7349.911307402253
 20
5046.919954121019
 30
0.0
  0
POINT
  5
2765
330
2652
100
AcDbEntity
  8
Defpoints
 62
     0
100
AcDbPoint
 10
7907.411307402253
 20
5046.919954121019
 30
0.0
  0
ENDBLK
  5
265E
330
2652
100
AcDbEntity
  8
0
100
AcDbBlockEnd
  0
BLOCK
  5
2669
330
265F
100
AcDbEntity
  8
0
100
AcDbBlockBegin
  2
*D74
 70
     1
 10
0.0
 20
0.0
 30
0.0
  3
*D74
  1

  0
LINE
  5
2753
330
265F
100
AcDbEntity
  8
DIM
 62
     0
370
    -2
100
AcDbLine
 10
6612.172349202936
 20
4911.919954121019
 30
0.0
 11
6590.204655776388
 21
4851.564212474075
 31
0.0
  0
LINE
  5
2754
330
265F
100
AcDbEntity
  8
DIM
 62
     0
370
    -2
100
AcDbLine
 10
7222.172349202935
 20
4911.919954121019
 30
0.0
 11
7200.204655776388
 21
4851.564212474075
 31
0.0
  0
LINE
  5
2755
330
265F
100
AcDbEntity
  8
DIM
 62
     0
370
    -2
100
AcDbLine
 10
6641.123762804373
 20
4881.564212474075
 30
0.0
 11
7171.123762804374
 21
4881.564212474075
 31
0.0
  0
SOLID
  5
2756
330
265F
100
AcDbEntity
  8
DIM
 62
     0
100
AcDbTrace
 10
6641.123762804373
 20
4888.230879140742
 30
0.0
 11
6641.123762804373
 21
4874.897545807408
 31
0.0
 12
6601.123762804374
 22
4881.564212474075
 32
0.0
 13
6601.123762804374
 23
4881.564212474075
 33
0.0
  0
SOLID
  5
2757
330
265F
100
AcDbEntity
  8
DIM
 62
     0
100
AcDbTrace
 10
7171.123762804374
 20
4888.230879140742
 30
0.0
 11
7171.123762804374
 21
4874.897545807408
 31
0.0
 12
7211.123762804374
 22
4881.564212474075
 32
0.0
 13
7211.123762804374
 23
4881.564212474075
 33
0.0
  0
MTEXT
  5
2758
330
265F
100
AcDbEntity
  8
DIM
 62
     0
100
AcDbMText
 10
6906.123762804374
 20
4916.564212474075
 30
0.0
 40
40.0
 41
0.0
 71
     5
 72
     1
  1
610
 73
     1
 44
1.0
  0
POINT
  5
2759
330
265F
100
AcDbEntity
  8
Defpoints
 62
     0
100
AcDbPoint
 10
6624.911307402253
 20
4946.919954121019
 30
0.0
  0
POINT
  5
275A
330
265F
100
AcDbEntity
  8
Defpoints
 62
     0
100
AcDbPoint
 10
7234.911307402254
 20
4946.919954121019
 30
0.0
  0
POINT
  5
275B
330
265F
100
AcDbEntity
  8
Defpoints
 62
     0
100
AcDbPoint
 10
7211.123762804374
 20
4881.564212474075
 30
0.0
  0
ENDBLK
  5
266A
330
265F
100
AcDbEntity
  8
0
100
AcDbBlockEnd
  0
BLOCK
  5
2675
330
266B
100
AcDbEntity
  8
0
100
AcDbBlockBegin
  2
*D75
 70
     1
 10
0.0
 20
0.0
 30
0.0
  3
*D75
  1

  0
LINE
  5
274A
330
266B
100
AcDbEntity
  8
DIM
 62
     0
370
    -2
100
AcDbLine
 10
6629.911307402252
 20
5116.919954121019
 30
0.0
 11
6629.911307402252
 21
5226.919954121019
 31
0.0
  0
LINE
  5
274B
330
266B
100
AcDbEntity
  8
DIM
 62
     0
370
    -2
100
AcDbLine
 10
6494.911307402253
 20
5101.919954121019
 30
0.0
 11
6494.911307402253
 21
5226.919954121019
 31
0.0
  0
LINE
  5
274C
330
266B
100
AcDbEntity
  8
DIM
 62
     0
370
    -2
100
AcDbLine
 10
6589.911307402253
 20
5196.919954121019
 30
0.0
 11
6534.911307402254
 21
5196.919954121019
 31
0.0
  0
SOLID
  5
274D
330
266B
100
AcDbEntity
  8
DIM
 62
     0
100
AcDbTrace
 10
6589.911307402253
 20
5203.586620787686
 30
0.0
 11
6589.911307402253
 21
5190.253287454352
 31
0.0
 12
6629.911307402252
 22
5196.919954121019
 32
0.0
 13
6629.911307402252
 23
5196.919954121019
 33
0.0
  0
SOLID
  5
274E
330
266B
100
AcDbEntity
  8
DIM
 62
     0
100
AcDbTrace
 10
6534.911307402254
 20
5203.586620787686
 30
0.0
 11
6534.911307402254
 21
5190.253287454352
 31
0.0
 12
6494.911307402253
 22
5196.919954121019
 32
0.0
 13
6494.911307402253
 23
5196.919954121019
 33
0.0
  0
MTEXT
  5
274F
330
266B
100
AcDbEntity
  8
DIM
 62
     0
100
AcDbMText
 10
6562.411307402253
 20
5231.919954121019
 30
0.0
 40
40.0
 41
0.0
 71
     5
 72
     1
  1
135
 73
     1
 44
1.0
  0
POINT
  5
2750
330
266B
100
AcDbEntity
  8
Defpoints
 62
     0
100
AcDbPoint
 10
6629.911307402252
 20
5046.919954121019
 30
0.0
  0
POINT
  5
2751
330
266B
100
AcDbEntity
  8
Defpoints
 62
     0
100
AcDbPoint
 10
6494.911307402253
 20
5031.919954121019
 30
0.0
  0
POINT
  5
2752
330
266B
100
AcDbEntity
  8
Defpoints
 62
     0
100
AcDbPoint
 10
6494.911307402253
 20
5196.919954121019
 30
0.0
  0
ENDBLK
  5
2676
330
266B
100
AcDbEntity
  8
0
100
AcDbBlockEnd
  0
BLOCK
  5
2681
330
2677
100
AcDbEntity
  8
0
100
AcDbBlockBegin
  2
*D76
 70
     1
 10
0.0
 20
0.0
 30
0.0
  3
*D76
  1

  0
LINE
  5
2741
330
2677
100
AcDbEntity
  8
DIM
 62
     0
370
    -2
100
AcDbLine
 10
6629.911307402252
 20
5116.919954121019
 30
0.0
 11
6629.911307402252
 21
5226.919954121019
 31
0.0
  0
LINE
  5
2742
330
2677
100
AcDbEntity
  8
DIM
 62
     0
370
    -2
100
AcDbLine
 10
7229.911307402254
 20
5116.919954121019
 30
0.0
 11
7229.911307402254
 21
5226.919954121019
 31
0.0
  0
LINE
  5
2743
330
2677
100
AcDbEntity
  8
DIM
 62
     0
370
    -2
100
AcDbLine
 10
6669.911307402253
 20
5196.919954121019
 30
0.0
 11
7189.911307402254
 21
5196.919954121019
 31
0.0
  0
SOLID
  5
2744
330
2677
100
AcDbEntity
  8
DIM
 62
     0
100
AcDbTrace
 10
6669.911307402253
 20
5203.586620787686
 30
0.0
 11
6669.911307402253
 21
5190.253287454352
 31
0.0
 12
6629.911307402252
 22
5196.919954121019
 32
0.0
 13
6629.911307402252
 23
5196.919954121019
 33
0.0
  0
SOLID
  5
2745
330
2677
100
AcDbEntity
  8
DIM
 62
     0
100
AcDbTrace
 10
7189.911307402254
 20
5203.586620787686
 30
0.0
 11
7189.911307402254
 21
5190.253287454352
 31
0.0
 12
7229.911307402254
 22
5196.919954121019
 32
0.0
 13
7229.911307402254
 23
5196.919954121019
 33
0.0
  0
MTEXT
  5
2746
330
2677
100
AcDbEntity
  8
DIM
 62
     0
100
AcDbMText
 10
6941.666436884208
 20
5231.919954121019
 30
0.0
 40
40.0
 41
0.0
 71
     5
 72
     1
  1
600
 73
     1
 44
1.0
  0
POINT
  5
2747
330
2677
100
AcDbEntity
  8
Defpoints
 62
     0
100
AcDbPoint
 10
6629.911307402252
 20
5046.919954121019
 30
0.0
  0
POINT
  5
2748
330
2677
100
AcDbEntity
  8
Defpoints
 62
     0
100
AcDbPoint
 10
7229.911307402254
 20
5046.919954121019
 30
0.0
  0
POINT
  5
2749
330
2677
100
AcDbEntity
  8
Defpoints
 62
     0
100
AcDbPoint
 10
7229.911307402254
 20
5196.919954121019
 30
0.0
  0
ENDBLK
  5
2682
330
2677
100
AcDbEntity
  8
0
100
AcDbBlockEnd
  0
BLOCK
  5
268D
330
2683
100
AcDbEntity
  8
0
100
AcDbBlockBegin
  2
*D77
 70
     1
 10
0.0
 20
0.0
 30
0.0
  3
*D77
  1

  0
LINE
  5
2738
330
2683
100
AcDbEntity
  8
DIM
 62
     0
370
    -2
100
AcDbLine
 10
7229.911307402254
 20
5116.919954121019
 30
0.0
 11
7229.911307402254
 21
5226.919954121019
 31
0.0
  0
LINE
  5
2739
330
2683
100
AcDbEntity
  8
DIM
 62
     0
370
    -2
100
AcDbLine
 10
7364.911307402254
 20
5101.919954121019
 30
0.0
 11
7364.911307402254
 21
5226.919954121019
 31
0.0
  0
LINE
  5
273A
330
2683
100
AcDbEntity
  8
DIM
 62
     0
370
    -2
100
AcDbLine
 10
7269.911307402253
 20
5196.919954121019
 30
0.0
 11
7324.911307402253
 21
5196.919954121019
 31
0.0
  0
SOLID
  5
273B
330
2683
100
AcDbEntity
  8
DIM
 62
     0
100
AcDbTrace
 10
7269.911307402253
 20
5203.586620787686
 30
0.0
 11
7269.911307402253
 21
5190.253287454352
 31
0.0
 12
7229.911307402254
 22
5196.919954121019
 32
0.0
 13
7229.911307402254
 23
5196.919954121019
 33
0.0
  0
SOLID
  5
273C
330
2683
100
AcDbEntity
  8
DIM
 62
     0
100
AcDbTrace
 10
7324.911307402253
 20
5203.586620787686
 30
0.0
 11
7324.911307402253
 21
5190.253287454352
 31
0.0
 12
7364.911307402254
 22
5196.919954121019
 32
0.0
 13
7364.911307402254
 23
5196.919954121019
 33
0.0
  0
MTEXT
  5
273D
330
2683
100
AcDbEntity
  8
DIM
 62
     0
100
AcDbMText
 10
7297.411307402254
 20
5231.919954121019
 30
0.0
 40
40.0
 41
0.0
 71
     5
 72
     1
  1
135
 73
     1
 44
1.0
  0
POINT
  5
273E
330
2683
100
AcDbEntity
  8
Defpoints
 62
     0
100
AcDbPoint
 10
7229.911307402254
 20
5046.919954121019
 30
0.0
  0
POINT
  5
273F
330
2683
100
AcDbEntity
  8
Defpoints
 62
     0
100
AcDbPoint
 10
7364.911307402254
 20
5031.919954121019
 30
0.0
  0
POINT
  5
2740
330
2683
100
AcDbEntity
  8
Defpoints
 62
     0
100
AcDbPoint
 10
7364.911307402254
 20
5196.919954121019
 30
0.0
  0
ENDBLK
  5
268E
330
2683
100
AcDbEntity
  8
0
100
AcDbBlockEnd
  0
BLOCK
  5
2699
330
268F
100
AcDbEntity
  8
0
100
AcDbBlockBegin
  2
*D78
 70
     1
 10
0.0
 20
0.0
 30
0.0
  3
*D78
  1

  0
LINE
  5
272F
330
268F
100
AcDbEntity
  8
DIM
 62
     0
370
    -2
100
AcDbLine
 10
7389.911307402254
 20
5006.91995412102
 30
0.0
 11
7389.911307402254
 21
5376.919954121019
 31
0.0
  0
LINE
  5
2730
330
268F
100
AcDbEntity
  8
DIM
 62
     0
370
    -2
100
AcDbLine
 10
6469.911307402253
 20
5006.91995412102
 30
0.0
 11
6469.911307402253
 21
5376.919954121019
 31
0.0
  0
LINE
  5
2731
330
268F
100
AcDbEntity
  8
DIM
 62
     0
370
    -2
100
AcDbLine
 10
7349.911307402253
 20
5346.91995412102
 30
0.0
 11
6509.911307402254
 21
5346.91995412102
 31
0.0
  0
SOLID
  5
2732
330
268F
100
AcDbEntity
  8
DIM
 62
     0
100
AcDbTrace
 10
7349.911307402253
 20
5353.586620787686
 30
0.0
 11
7349.911307402253
 21
5340.253287454352
 31
0.0
 12
7389.911307402254
 22
5346.91995412102
 32
0.0
 13
7389.911307402254
 23
5346.91995412102
 33
0.0
  0
SOLID
  5
2733
330
268F
100
AcDbEntity
  8
DIM
 62
     0
100
AcDbTrace
 10
6509.911307402254
 20
5353.586620787686
 30
0.0
 11
6509.911307402254
 21
5340.253287454352
 31
0.0
 12
6469.911307402253
 22
5346.91995412102
 32
0.0
 13
6469.911307402253
 23
5346.91995412102
 33
0.0
  0
MTEXT
  5
2734
330
268F
100
AcDbEntity
  8
DIM
 62
     0
100
AcDbMText
 10
6929.911307402254
 20
5381.933558309287
 30
0.0
 40
40.0
 41
0.0
 71
     5
 72
     1
  1
920
 73
     1
 44
1.0
  0
POINT
  5
2735
330
268F
100
AcDbEntity
  8
Defpoints
 62
     0
100
AcDbPoint
 10
7389.911307402254
 20
4936.91995412102
 30
0.0
  0
POINT
  5
2736
330
268F
100
AcDbEntity
  8
Defpoints
 62
     0
100
AcDbPoint
 10
6469.911307402253
 20
4936.91995412102
 30
0.0
  0
POINT
  5
2737
330
268F
100
AcDbEntity
  8
Defpoints
 62
     0
100
AcDbPoint
 10
6469.911307402253
 20
5346.91995412102
 30
0.0
  0
ENDBLK
  5
269A
330
268F
100
AcDbEntity
  8
0
100
AcDbBlockEnd
  0
BLOCK
  5
26A5
330
269B
100
AcDbEntity
  8
0
100
AcDbBlockBegin
  2
*D79
 70
     1
 10
0.0
 20
0.0
 30
0.0
  3
*D79
  1

  0
LINE
  5
2726
330
269B
100
AcDbEntity
  8
DIM
 62
     0
370
    -2
100
AcDbLine
 10
7434.911307402254
 20
4946.919954121019
 30
0.0
 11
7937.411307402253
 21
4946.919954121019
 31
0.0
  0
LINE
  5
2727
330
269B
100
AcDbEntity
  8
DIM
 62
     0
370
    -2
100
AcDbLine
 10
7459.911307402254
 20
4456.919954121018
 30
0.0
 11
7937.411307402253
 21
4456.919954121018
 31
0.0
  0
LINE
  5
2728
330
269B
100
AcDbEntity
  8
DIM
 62
     0
370
    -2
100
AcDbLine
 10
7907.411307402253
 20
4906.919954121019
 30
0.0
 11
7907.411307402253
 21
4496.919954121019
 31
0.0
  0
SOLID
  5
2729
330
269B
100
AcDbEntity
  8
DIM
 62
     0
100
AcDbTrace
 10
7900.744640735587
 20
4906.919954121019
 30
0.0
 11
7914.077974068921
 21
4906.919954121019
 31
0.0
 12
7907.411307402253
 22
4946.919954121019
 32
0.0
 13
7907.411307402253
 23
4946.919954121019
 33
0.0
  0
SOLID
  5
272A
330
269B
100
AcDbEntity
  8
DIM
 62
     0
100
AcDbTrace
 10
7900.744640735587
 20
4496.919954121019
 30
0.0
 11
7914.077974068921
 21
4496.919954121019
 31
0.0
 12
7907.411307402253
 22
4456.919954121018
 32
0.0
 13
7907.411307402253
 23
4456.919954121018
 33
0.0
  0
MTEXT
  5
272B
330
269B
100
AcDbEntity
  8
DIM
 62
     0
100
AcDbMText
 10
7872.411307402252
 20
4701.919954121019
 30
0.0
 40
40.0
 41
0.0
 71
     5
 72
     1
  1
490
 11
0.0000000000000001
 21
1.0
 31
0.0
 73
     1
 44
1.0
  0
POINT
  5
272C
330
269B
100
AcDbEntity
  8
Defpoints
 62
     0
100
AcDbPoint
 10
7364.911307402254
 20
4946.919954121019
 30
0.0
  0
POINT
  5
272D
330
269B
100
AcDbEntity
  8
Defpoints
 62
     0
100
AcDbPoint
 10
7389.911307402254
 20
4456.919954121018
 30
0.0
  0
POINT
  5
272E
330
269B
100
AcDbEntity
  8
Defpoints
 62
     0
100
AcDbPoint
 10
7907.411307402253
 20
4456.919954121018
 30
0.0
  0
ENDBLK
  5
26A6
330
269B
100
AcDbEntity
  8
0
100
AcDbBlockEnd
  0
BLOCK
  5
26B2
330
26A7
100
AcDbEntity
  8
0
100
AcDbBlockBegin
  2
*D80
 70
     1
 10
0.0
 20
0.0
 30
0.0
  3
*D80
  1

  0
LINE
  5
271C
330
26A7
100
AcDbEntity
  8
DIM
 62
     0
370
    -2
100
AcDbLine
 10
7434.911307402254
 20
4946.919954121019
 30
0.0
 11
7787.411307402253
 21
4946.919954121019
 31
0.0
  0
LINE
  5
271D
330
26A7
100
AcDbEntity
  8
DIM
 62
     0
370
    -2
100
AcDbLine
 10
7362.411307402253
 20
4856.919954121019
 30
0.0
 11
7787.411307402253
 21
4856.919954121019
 31
0.0
  0
LINE
  5
271E
330
26A7
100
AcDbEntity
  8
DIM
 62
     0
370
    -2
100
AcDbLine
 10
7757.411307402254
 20
4986.919954121019
 30
0.0
 11
7757.411307402254
 21
5026.919954121019
 31
0.0
  0
LINE
  5
271F
330
26A7
100
AcDbEntity
  8
DIM
 62
     0
370
    -2
100
AcDbLine
 10
7757.411307402254
 20
4816.919954121019
 30
0.0
 11
7757.411307402254
 21
4776.919954121018
 31
0.0
  0
SOLID
  5
2720
330
26A7
100
AcDbEntity
  8
DIM
 62
     0
100
AcDbTrace
 10
7750.744640735587
 20
4986.919954121019
 30
0.0
 11
7764.077974068921
 21
4986.919954121019
 31
0.0
 12
7757.411307402254
 22
4946.919954121019
 32
0.0
 13
7757.411307402254
 23
4946.919954121019
 33
0.0
  0
SOLID
  5
2721
330
26A7
100
AcDbEntity
  8
DIM
 62
     0
100
AcDbTrace
 10
7750.744640735587
 20
4816.919954121019
 30
0.0
 11
7764.077974068921
 21
4816.919954121019
 31
0.0
 12
7757.411307402254
 22
4856.919954121019
 32
0.0
 13
7757.411307402254
 23
4856.919954121019
 33
0.0
  0
MTEXT
  5
2722
330
26A7
100
AcDbEntity
  8
DIM
 62
     0
100
AcDbMText
 10
7722.411307402253
 20
4901.919954121019
 30
0.0
 40
40.0
 41
0.0
 71
     5
 72
     1
  1
90
 11
0.0000000000000001
 21
1.0
 31
0.0
 73
     1
 44
1.0
  0
POINT
  5
2723
330
26A7
100
AcDbEntity
  8
Defpoints
 62
     0
100
AcDbPoint
 10
7364.911307402254
 20
4946.919954121019
 30
0.0
  0
POINT
  5
2724
330
26A7
100
AcDbEntity
  8
Defpoints
 62
     0
100
AcDbPoint
 10
7292.411307402254
 20
4856.919954121019
 30
0.0
  0
POINT
  5
2725
330
26A7
100
AcDbEntity
  8
Defpoints
 62
     0
100
AcDbPoint
 10
7757.411307402254
 20
4856.919954121019
 30
0.0
  0
ENDBLK
  5
26B3
330
26A7
100
AcDbEntity
  8
0
100
AcDbBlockEnd
  0
BLOCK
  5
26BE
330
26B4
100
AcDbEntity
  8
0
100
AcDbBlockBegin
  2
*D81
 70
     1
 10
0.0
 20
0.0
 30
0.0
  3
*D81
  1

  0
LINE
  5
2713
330
26B4
100
AcDbEntity
  8
DIM
 62
     0
370
    -2
100
AcDbLine
 10
7362.411307402253
 20
4856.919954121019
 30
0.0
 11
7787.411307402253
 21
4856.919954121019
 31
0.0
  0
LINE
  5
2714
330
26B4
100
AcDbEntity
  8
DIM
 62
     0
370
    -2
100
AcDbLine
 10
7459.911307402254
 20
4456.919954121018
 30
0.0
 11
7787.411307402253
 21
4456.919954121018
 31
0.0
  0
LINE
  5
2715
330
26B4
100
AcDbEntity
  8
DIM
 62
     0
370
    -2
100
AcDbLine
 10
7757.411307402254
 20
4816.919954121019
 30
0.0
 11
7757.411307402254
 21
4496.919954121019
 31
0.0
  0
SOLID
  5
2716
330
26B4
100
AcDbEntity
  8
DIM
 62
     0
100
AcDbTrace
 10
7750.744640735587
 20
4816.919954121019
 30
0.0
 11
7764.077974068921
 21
4816.919954121019
 31
0.0
 12
7757.411307402254
 22
4856.919954121019
 32
0.0
 13
7757.411307402254
 23
4856.919954121019
 33
0.0
  0
SOLID
  5
2717
330
26B4
100
AcDbEntity
  8
DIM
 62
     0
100
AcDbTrace
 10
7750.744640735587
 20
4496.919954121019
 30
0.0
 11
7764.077974068921
 21
4496.919954121019
 31
0.0
 12
7757.411307402254
 22
4456.919954121018
 32
0.0
 13
7757.411307402254
 23
4456.919954121018
 33
0.0
  0
MTEXT
  5
2718
330
26B4
100
AcDbEntity
  8
DIM
 62
     0
100
AcDbMText
 10
7722.411307402253
 20
4656.91995412102
 30
0.0
 40
40.0
 41
0.0
 71
     5
 72
     1
  1
400
 11
0.0000000000000001
 21
1.0
 31
0.0
 73
     1
 44
1.0
  0
POINT
  5
2719
330
26B4
100
AcDbEntity
  8
Defpoints
 62
     0
100
AcDbPoint
 10
7292.411307402254
 20
4856.919954121019
 30
0.0
  0
POINT
  5
271A
330
26B4
100
AcDbEntity
  8
Defpoints
 62
     0
100
AcDbPoint
 10
7389.911307402254
 20
4456.919954121018
 30
0.0
  0
POINT
  5
271B
330
26B4
100
AcDbEntity
  8
Defpoints
 62
     0
100
AcDbPoint
 10
7757.411307402254
 20
4456.919954121018
 30
0.0
  0
ENDBLK
  5
26BF
330
26B4
100
AcDbEntity
  8
0
100
AcDbBlockEnd
  0
ENDSEC
  0
SECTION
  2
ENTITIES
  0
LINE
  5
5BF
330
1F
100
AcDbEntity
  8
CENTER
 48
5.0
100
AcDbLine
 10
697.2440349961698
 20
2975.031741326355
 30
0.0
 11
4892.24403499617
 21
2975.031741326355
 31
0.0
  0
LINE
  5
5C0
330
1F
100
AcDbEntity
  8
CENTER
 48
5.0
100
AcDbLine
 10
2794.74403499617
 20
5072.531741326354
 30
0.0
 11
2794.74403499617
 21
877.5317413263547
 31
0.0
  0
TEXT
  5
658
330
1F
100
AcDbEntity
  8
TXT
 48
5.0
100
AcDbText
 10
5973.333333333333
 20
1270.0
 30
0.0
 40
100.0
  1
削孔数
 72
     4
 11
6140.0
 21
1320.0
 31
0.0
100
AcDbText
  0
TEXT
  5
659
330
1F
100
AcDbEntity
  8
TXT
 48
5.0
100
AcDbText
 10
5952.5
 20
1830.0
 30
0.0
 40
100.0
  1
製品No
 72
     4
 11
6140.0
 21
1880.0
 31
0.0
100
AcDbText
  0
TEXT
  5
65A
330
1F
100
AcDbEntity
  8
TXT
 48
5.0
100
AcDbText
 10
5976.666666666667
 20
1970.0
 30
0.0
 40
100.0
  1
工事名
 72
     4
 11
6140.0
 21
2020.0
 31
0.0
100
AcDbText
  0
TEXT
  5
65B
330
1F
100
AcDbEntity
  8
TXT
 48
5.0
100
AcDbText
 10
5976.666666666667
 20
2110.0
 30
0.0
 40
100.0
  1
業者名
 72
     4
 11
6140.0
 21
2160.0
 31
0.0
100
AcDbText
  0
TEXT
  5
65F
330
1F
100
AcDbEntity
  8
TXT
 48
5.0
100
AcDbText
 10
5973.333333333333
 20
1690.0
 30
0.0
 40
100.0
  1
蓋荷重
 72
     4
 11
6140.0
 21
1740.0
 31
0.0
100
AcDbText
  0
LWPOLYLINE
  5
660
330
1F
100
AcDbEntity
  8
TXT
100
AcDbPolyline
 90
        2
 70
     0
 43
0.0
 10
5890.0
 20
830.0
 10
5890.0
 20
690.0
  0
LWPOLYLINE
  5
661
330
1F
100
AcDbEntity
  8
TXT
100
AcDbPolyline
 90
        3
 70
     0
 43
0.0
 10
5890.0
 20
970.0
 10
5890.0
 20
970.0
 10
5890.0
 20
830.0
  0
TEXT
  5
662
330
1F
100
AcDbEntity
  8
TXT
 48
5.0
100
AcDbText
 10
7159.688653826011
 20
1129.975832049015
 30
0.0
 40
100.0
  1
φ 90　　　　個
 72
     4
 11
7616.53003701739
 21
1180.0
 31
0.0
100
AcDbText
  0
TEXT
  5
663
330
1F
100
AcDbEntity
  8
TXT
 48
5.0
100
AcDbText
 10
7164.863370350724
 20
990.0
 30
0.0
 40
100.0
  1
φ100　　　　個
 72
     4
 11
7616.53003701739
 21
1040.0
 31
0.0
100
AcDbText
  0
TEXT
  5
664
330
1F
100
AcDbEntity
  8
TXT
 48
5.0
100
AcDbText
 10
7164.863370350724
 20
849.990157480315
 30
0.0
 40
100.0
  1
φ120　　　　個
 72
     4
 11
7616.53003701739
 21
900.0
 31
0.0
100
AcDbText
  0
TEXT
  5
665
330
1F
100
AcDbEntity
  8
TXT
 48
5.0
100
AcDbText
 10
7164.863370350724
 20
710.0
 30
0.0
 40
100.0
  1
φ150　　　　個
 72
     4
 11
7616.53003701739
 21
760.0
 31
0.0
100
AcDbText
  0
TEXT
  5
666
330
1F
100
AcDbEntity
  8
TXT
 48
5.0
100
AcDbText
 10
7154.863370350724
 20
569.990157480315
 30
0.0
 40
100.0
  1
φ206　　　　個
 72
     4
 11
7616.53003701739
 21
620.0
 31
0.0
100
AcDbText
  0
LINE
  5
667
330
1F
100
AcDbEntity
  8
TXT
100
AcDbLine
 10
6650.0
 20
1390.0
 30
0.0
 11
7650.0
 21
1390.0
 31
0.0
  0
LINE
  5
669
330
1F
100
AcDbEntity
  8
TXT
100
AcDbLine
 10
7650.0
 20
1810.0
 30
0.0
 11
5890.0
 21
1810.0
 31
0.0
  0
LINE
  5
66A
330
1F
100
AcDbEntity
  8
TXT
100
AcDbLine
 10
5890.0
 20
1810.0
 30
0.0
 11
5890.0
 21
1390.0
 31
0.0
  0
LINE
  5
66B
330
1F
100
AcDbEntity
  8
TXT
100
AcDbLine
 10
6650.0
 20
1250.0
 30
0.0
 11
7650.0
 21
1250.0
 31
0.0
  0
LINE
  5
66D
330
1F
100
AcDbEntity
  8
TXT
100
AcDbLine
 10
8150.0
 20
1390.0
 30
0.0
 11
6390.0
 21
1390.0
 31
0.0
  0
LINE
  5
66E
330
1F
100
AcDbEntity
  8
TXT
100
AcDbLine
 10
5890.0
 20
1390.0
 30
0.0
 11
5890.0
 21
1250.0
 31
0.0
  0
LINE
  5
66F
330
1F
100
AcDbEntity
  8
TXT
100
AcDbLine
 10
6650.0
 20
1110.0
 30
0.0
 11
7650.0
 21
1110.0
 31
0.0
  0
LINE
  5
671
330
1F
100
AcDbEntity
  8
TXT
100
AcDbLine
 10
8150.0
 20
1250.0
 30
0.0
 11
6390.0
 21
1250.0
 31
0.0
  0
LINE
  5
672
330
1F
100
AcDbEntity
  8
TXT
100
AcDbLine
 10
5890.0
 20
1250.0
 30
0.0
 11
5890.0
 21
1110.0
 31
0.0
  0
LINE
  5
673
330
1F
100
AcDbEntity
  8
TXT
100
AcDbLine
 10
6390.0
 20
970.0
 30
0.0
 11
7650.0
 21
970.0
 31
0.0
  0
LINE
  5
675
330
1F
100
AcDbEntity
  8
TXT
100
AcDbLine
 10
8150.0
 20
1110.0
 30
0.0
 11
6390.0
 21
1110.0
 31
0.0
  0
LINE
  5
676
330
1F
100
AcDbEntity
  8
TXT
100
AcDbLine
 10
5890.0
 20
1110.0
 30
0.0
 11
5890.0
 21
970.0
 31
0.0
  0
LINE
  5
677
330
1F
100
AcDbEntity
  8
TXT
100
AcDbLine
 10
5890.0
 20
690.0
 30
0.0
 11
5890.0
 21
550.0
 31
0.0
  0
LINE
  5
678
330
1F
100
AcDbEntity
  8
TXT
100
AcDbLine
 10
5890.0
 20
550.0
 30
0.0
 11
7650.0
 21
550.0
 31
0.0
  0
LINE
  5
67A
330
1F
100
AcDbEntity
  8
TXT
100
AcDbLine
 10
7650.0
 20
690.0
 30
0.0
 11
6390.0
 21
690.0
 31
0.0
  0
LINE
  5
67B
330
1F
100
AcDbEntity
  8
TXT
100
AcDbLine
 10
6390.0
 20
690.0
 30
0.0
 11
8150.0
 21
690.0
 31
0.0
  0
LINE
  5
67D
330
1F
100
AcDbEntity
  8
TXT
100
AcDbLine
 10
7650.0
 20
830.0
 30
0.0
 11
6390.0
 21
830.0
 31
0.0
  0
CIRCLE
  5
67F
330
1F
100
AcDbEntity
  8
TXT
 48
5.0
100
AcDbCircle
 10
7820.0
 20
440.0
 30
0.0
 40
75.0
  0
TEXT
  5
680
330
1F
100
AcDbEntity
  8
TXT
 48
5.0
100
AcDbText
 10
7756.984251968503
 20
416.2401574803149
 30
0.0
 40
50.0
  1
φ150
 41
0.8
 72
     4
 11
7820.0
 21
440.0
 31
0.0
100
AcDbText
  0
CIRCLE
  5
687
330
1F
100
AcDbEntity
  8
TXT
 48
5.0
100
AcDbCircle
 10
7600.0
 20
440.0
 30
0.0
 40
60.0
  0
TEXT
  5
688
330
1F
100
AcDbEntity
  8
TXT
 48
5.0
100
AcDbText
 10
7536.984251968504
 20
419.9960629921259
 30
0.0
 40
40.0
  1
φ120
 72
     4
 11
7600.0
 21
440.0
 31
0.0
100
AcDbText
  0
CIRCLE
  5
689
330
1F
100
AcDbEntity
  8
TXT
 48
5.0
100
AcDbCircle
 10
7380.0
 20
440.0
 30
0.0
 40
50.0
  0
TEXT
  5
68A
330
1F
100
AcDbEntity
  8
TXT
 48
5.0
100
AcDbText
 10
7330.375098425196
 20
418.6161417322834
 30
0.0
 40
45.0
  1
φ100
 41
0.7
 72
     4
 11
7380.0
 21
440.0
 31
0.0
100
AcDbText
  0
TEXT
  5
68B
330
1F
100
AcDbEntity
  8
TXT
 48
5.0
100
AcDbText
 10
7118.195062719912
 20
418.6052661543404
 30
0.0
 40
45.0
  1
φ90
 41
0.7
 72
     4
 11
7160.0
 21
440.0
 31
0.0
100
AcDbText
  0
CIRCLE
  5
68C
330
1F
100
AcDbEntity
  8
TXT
 48
5.0
100
AcDbCircle
 10
7160.0
 20
440.0
 30
0.0
 40
45.0
  0
TEXT
  5
68D
330
1F
100
AcDbEntity
  8
TXT
 48
5.0
100
AcDbText
 10
6917.937598425196
 20
417.4999999999999
 30
0.0
 40
45.0
  1
80
 41
0.7
 72
     4
 11
6940.0
 21
440.0
 31
0.0
100
AcDbText
  0
CIRCLE
  5
68E
330
1F
100
AcDbEntity
  8
TXT
 48
5.0
100
AcDbCircle
 10
6940.0
 20
440.0
 30
0.0
 40
40.0
  0
CIRCLE
  5
68F
330
1F
100
AcDbEntity
  8
TXT
 48
5.0
100
AcDbCircle
 10
6720.0
 20
440.0
 30
0.0
 40
35.0
  0
TEXT
  5
690
330
1F
100
AcDbEntity
  8
TXT
 48
5.0
100
AcDbText
 10
6697.937598425196
 20
417.4999999999999
 30
0.0
 40
45.0
  1
70
 41
0.7
 72
     4
 11
6720.0
 21
440.0
 31
0.0
100
AcDbText
  0
CIRCLE
  5
691
330
1F
100
AcDbEntity
  8
TXT
 48
5.0
100
AcDbCircle
 10
6500.0
 20
440.0
 30
0.0
 40
26.0
  0
TEXT
  5
692
330
1F
100
AcDbEntity
  8
TXT
 48
5.0
100
AcDbText
 10
6480.581214566929
 20
420.8332656110285
 30
0.0
 40
38.0
  1
52
 41
0.7
 72
     4
 11
6500.0
 21
440.0
 31
0.0
100
AcDbText
  0
LINE
  5
693
330
1F
100
AcDbEntity
  8
TXT
 48
5.0
100
AcDbLine
 10
6120.0
 20
550.0
 30
0.0
 11
5940.0
 21
550.0
 31
0.0
  0
LINE
  5
694
330
1F
100
AcDbEntity
  8
TXT
 48
5.0
100
AcDbLine
 10
5890.0
 20
550.0
 30
0.0
 11
5890.0
 21
330.0
 31
0.0
  0
LINE
  5
695
330
1F
100
AcDbEntity
  8
TXT
 48
5.0
100
AcDbLine
 10
6390.0
 20
370.0
 30
0.0
 11
6390.0
 21
550.0
 31
0.0
  0
LINE
  5
696
330
1F
100
AcDbEntity
  8
TXT
 48
5.0
100
AcDbLine
 10
6390.0
 20
550.0
 30
0.0
 11
6210.0
 21
550.0
 31
0.0
  0
LINE
  5
697
330
1F
100
AcDbEntity
  8
TXT
 48
5.0
100
AcDbLine
 10
6300.0
 20
550.0
 30
0.0
 11
6120.0
 21
550.0
 31
0.0
  0
TEXT
  5
698
330
1F
100
AcDbEntity
  8
TXT
 48
5.0
100
AcDbText
 10
5961.333333333333
 20
390.0
 30
0.0
 40
100.0
  1
削孔径図
 41
0.8
 72
     4
 11
6140.0
 21
440.0
 31
0.0
100
AcDbText
  0
LINE
  5
699
330
1F
100
AcDbEntity
  8
TXT
 48
5.0
100
AcDbLine
 10
5890.0
 20
330.0
 30
0.0
 11
6390.0
 21
330.0
 31
0.0
  0
LINE
  5
69A
330
1F
100
AcDbEntity
  8
TXT
 48
5.0
100
AcDbLine
 10
6390.0
 20
550.0
 30
0.0
 11
6390.0
 21
2230.0
 31
0.0
  0
MTEXT
  5
6A0
330
1F
100
AcDbEntity
  8
TXT
 48
5.0
100
AcDbMText
 10
77.50268399606375
 20
550.4111166203415
 30
0.0
 40
65.0
 41
2142.0
 71
     1
 72
     5
  1
\U+203B削孔位置は製品の外側から見た場合です。\P\U+203B削孔位置はなるべくノックアウト内で指定して下さい。
 73
     1
 44
1.0
  0
TEXT
  5
CFF
330
1F
100
AcDbEntity
  8
LAYER
100
AcDbText
 10
6921.0
 20
67.66666666666671
 30
0.0
 40
70.0
  1
ＦＡＸ：
 72
     4
 11
7070.0
 21
105.0
 31
0.0
100
AcDbText
  0
TEXT
  5
D00
330
1F
100
AcDbEntity
  8
LAYER
100
AcDbText
 10
6971.333333333332
 20
220.0
 30
0.0
 40
70.0
  1
阿賀コンクリート工業株式会社
 72
     4
 11
7549.999999999998
 21
255.0
 31
0.0
100
AcDbText
  0
TEXT
  5
D02
330
1F
100
AcDbEntity
  8
LAYER
100
AcDbText
 10
4262.666666666666
 20
67.66666666666667
 30
0.0
 40
80.0
  1
要
 72
     4
 11
4299.999999999999
 21
105.0
 31
0.0
100
AcDbText
  0
TEXT
  5
D03
330
1F
100
AcDbEntity
  8
LAYER
100
AcDbText
 10
4261.90476190476
 20
215.0
 30
0.0
 40
80.0
  1
摘
 72
     4
 11
4299.999999999999
 21
255.0
 31
0.0
100
AcDbText
  0
TEXT
  5
D04
330
1F
100
AcDbEntity
  8
LAYER
100
AcDbText
 10
71.00000000000034
 20
130.0
 30
0.0
 40
100.0
  1
種類・呼び名
 41
0.9
 72
     4
 11
380.0000000000003
 21
180.0
 31
0.0
100
AcDbText
  0
LINE
  5
D13
330
1F
100
AcDbEntity
  8
LAYER
100
AcDbLine
 10
730.0000000000003
 20
180.0
 30
0.0
 11
4229.999999999999
 21
180.0
 31
0.0
  0
LINE
  5
D14
330
1F
100
AcDbEntity
  8
LAYER
100
AcDbLine
 10
6390.000000000002
 20
370.0
 30
0.0
 11
6390.000000000002
 21
370.0
 31
0.0
  0
LINE
  5
D15
330
1F
100
AcDbEntity
  8
LAYER
100
AcDbLine
 10
6889.999999999999
 20
330.0
 30
0.0
 11
6889.999999999999
 21
30.0
 31
0.0
  0
LINE
  5
D16
330
1F
100
AcDbEntity
  8
LAYER
100
AcDbLine
 10
4369.999999999999
 20
330.0
 30
0.0
 11
4369.999999999999
 21
30.0
 31
0.0
  0
LINE
  5
D17
330
1F
100
AcDbEntity
  8
LAYER
100
AcDbLine
 10
4229.999999999999
 20
330.0
 30
0.0
 11
4229.999999999999
 21
30.0
 31
0.0
  0
LINE
  5
D18
330
1F
100
AcDbEntity
  8
LAYER
100
AcDbLine
 10
730.0000000000003
 20
330.0
 30
0.0
 11
730.0000000000003
 21
30.0
 31
0.0
  0
LINE
  5
D19
330
1F
100
AcDbEntity
  8
LAYER
100
AcDbLine
 10
30.00000000000037
 20
330.0
 30
0.0
 11
8149.999999999998
 21
330.0
 31
0.0
  0
LWPOLYLINE
  5
D1A
330
1F
100
AcDbEntity
  8
LAYER
100
AcDbPolyline
 90
        4
 70
     1
 43
0.0
 10
30.00000000000037
 20
30.0
 10
30.00000000000037
 20
5685.0
 10
8149.999999999998
 20
5685.0
 10
8149.999999999998
 20
30.0
  0
VIEWPORT
  5
D1B
330
1F
100
AcDbEntity
  8
0
100
AcDbViewport
 10
4090.0
 20
3007.5
 30
0.0
 40
8119.999999999999
 41
5355.0
 69
     0
 12
228.1209015211101
 22
160.8176196896051
 13
0.0
 23
0.0
 14
10.0
 24
10.0
 15
10.0
 25
10.0
 16
0.0
 26
0.0
 36
1.0
 17
0.0
 27
0.0
 37
0.0
 42
50.0
 43
0.0
 44
0.0
 45
267.75
 50
0.0
 51
0.0
 72
   100
 90
    32864
  1

281
     0
 71
     1
 74
     0
110
0.0
120
0.0
130
0.0
111
1.0
121
0.0
131
0.0
112
0.0
122
1.0
132
0.0
 79
     0
146
0.0
170
     0
  0
LWPOLYLINE
  5
D1C
330
1F
100
AcDbEntity
  8
LAYER
100
AcDbPolyline
 90
        4
 70
     1
 43
0.0
 10
8149.999999999998
 20
30.0
 10
30.00000000000094
 20
30.0
 10
30.00000000000094
 20
5685.0
 10
8149.999999999998
 20
5685.0
  0
TEXT
  5
FB1
330
1F
100
AcDbEntity
  8
TXT
  6
Continuous
 48
5.0
100
AcDbText
 10
1426.666666666666
 20
205.0
 30
0.0
 40
100.0
  1
ＦＫ式ハンドホール
 41
2.0
 72
     4
 11
2480.0
 21
255.0
 31
0.0
100
AcDbText
  0
TEXT
  5
FB2
330
1F
100
AcDbEntity
  8
TXT
  6
Continuous
 48
5.0
100
AcDbText
 10
2135.857864376269
 20
57.05138277249536
 30
0.0
 40
100.0
  1
H0813
 41
2.0
 72
     4
 11
2480.0
 21
105.0
 31
0.0
100
AcDbText
  0
TEXT
  5
FB3
330
1F
100
AcDbEntity
  8
TXT
 48
5.0
100
AcDbText
 10
7958.409448818898
 20
409.994094488189
 30
0.0
 40
60.0
  1
φ206
 41
0.8
 72
     4
 11
8040.0
 21
440.0
 31
0.0
100
AcDbText
  0
CIRCLE
  5
FB4
330
1F
100
AcDbEntity
  8
TXT
 48
5.0
100
AcDbCircle
 10
8040.0
 20
440.0
 30
0.0
 40
103.0
  0
LINE
  5
FB9
330
1F
100
AcDbEntity
  8
TXT
 48
5.0
100
AcDbLine
 10
6390.0
 20
550.0
 30
0.0
 11
6390.0
 21
370.0
 31
0.0
  0
LWPOLYLINE
  5
FD6
330
1F
100
AcDbEntity
  8
TXT
100
AcDbPolyline
 90
        4
 70
     1
 43
0.0
 10
6390.0
 20
330.0
 10
6610.0
 20
330.0
 10
6610.0
 20
550.0
 10
6390.0
 20
550.0
  0
LWPOLYLINE
  5
FD7
330
1F
100
AcDbEntity
  8
TXT
100
AcDbPolyline
 90
        4
 70
     1
 43
0.0
 10
6610.0
 20
330.0
 10
6830.0
 20
330.0
 10
6830.0
 20
550.0
 10
6610.0
 20
550.0
  0
LWPOLYLINE
  5
FD8
330
1F
100
AcDbEntity
  8
TXT
100
AcDbPolyline
 90
        4
 70
     1
 43
0.0
 10
6830.0
 20
330.0
 10
7050.0
 20
330.0
 10
7050.0
 20
550.0
 10
6830.0
 20
550.0
  0
LWPOLYLINE
  5
FD9
330
1F
100
AcDbEntity
  8
TXT
100
AcDbPolyline
 90
        4
 70
     1
 43
0.0
 10
7050.0
 20
330.0
 10
7270.0
 20
330.0
 10
7270.0
 20
550.0
 10
7050.0
 20
550.0
  0
LWPOLYLINE
  5
FDA
330
1F
100
AcDbEntity
  8
TXT
100
AcDbPolyline
 90
        4
 70
     1
 43
0.0
 10
7270.0
 20
330.0
 10
7490.0
 20
330.0
 10
7490.0
 20
550.0
 10
7270.0
 20
550.0
  0
LWPOLYLINE
  5
FDB
330
1F
100
AcDbEntity
  8
TXT
100
AcDbPolyline
 90
        4
 70
     1
 43
0.0
 10
7490.0
 20
330.0
 10
7710.0
 20
330.0
 10
7710.0
 20
550.0
 10
7490.0
 20
550.0
  0
LWPOLYLINE
  5
FDC
330
1F
100
AcDbEntity
  8
TXT
100
AcDbPolyline
 90
        4
 70
     1
 43
0.0
 10
7710.0
 20
330.0
 10
7930.0
 20
330.0
 10
7930.0
 20
550.0
 10
7710.0
 20
550.0
  0
LWPOLYLINE
  5
FDD
330
1F
100
AcDbEntity
  8
TXT
100
AcDbPolyline
 90
        4
 70
     1
 43
0.0
 10
7930.0
 20
330.0
 10
8150.0
 20
330.0
 10
8150.0
 20
550.0
 10
7930.0
 20
550.0
  0
LINE
  5
FE6
330
1F
100
AcDbEntity
  8
TXT
100
AcDbLine
 10
6650.0
 20
830.0
 30
0.0
 11
8150.0
 21
830.0
 31
0.0
  0
LINE
  5
FE8
330
1F
100
AcDbEntity
  8
TXT
100
AcDbLine
 10
8150.0
 20
970.0
 30
0.0
 11
6650.0
 21
970.0
 31
0.0
  0
LINE
  5
FE9
330
1F
100
AcDbEntity
  8
TXT
100
AcDbLine
 10
5890.0
 20
1810.0
 30
0.0
 11
8150.0
 21
1810.0
 31
0.0
  0
LINE
  5
FEB
330
1F
100
AcDbEntity
  8
TXT
100
AcDbLine
 10
7650.0
 20
1950.0
 30
0.0
 11
5890.0
 21
1950.0
 31
0.0
  0
LINE
  5
FEC
330
1F
100
AcDbEntity
  8
TXT
100
AcDbLine
 10
5890.0
 20
1950.0
 30
0.0
 11
5890.0
 21
1810.0
 31
0.0
  0
LINE
  5
FED
330
1F
100
AcDbEntity
  8
TXT
100
AcDbLine
 10
5890.0
 20
1950.0
 30
0.0
 11
8150.0
 21
1950.0
 31
0.0
  0
LINE
  5
FEF
330
1F
100
AcDbEntity
  8
TXT
100
AcDbLine
 10
7650.0
 20
2090.0
 30
0.0
 11
5890.0
 21
2090.0
 31
0.0
  0
LINE
  5
FF0
330
1F
100
AcDbEntity
  8
TXT
100
AcDbLine
 10
5890.0
 20
2090.0
 30
0.0
 11
5890.0
 21
1950.0
 31
0.0
  0
LINE
  5
FF1
330
1F
100
AcDbEntity
  8
TXT
100
AcDbLine
 10
5890.0
 20
2090.0
 30
0.0
 11
8150.0
 21
2090.0
 31
0.0
  0
LINE
  5
FF3
330
1F
100
AcDbEntity
  8
TXT
100
AcDbLine
 10
8150.0
 20
2230.0
 30
0.0
 11
5890.0
 21
2230.0
 31
0.0
  0
LINE
  5
FF4
330
1F
100
AcDbEntity
  8
TXT
100
AcDbLine
 10
5890.0
 20
2230.0
 30
0.0
 11
5890.0
 21
2090.0
 31
0.0
  0
LINE
  5
FF7
330
1F
100
AcDbEntity
  8
TXT
100
AcDbLine
 10
8150.0
 20
1950.0
 30
0.0
 11
8150.0
 21
330.0
 31
0.0
  0
TEXT
  5
FF9
330
1F
100
AcDbEntity
  8
LAYER
100
AcDbText
 10
7327.249999999999
 20
70.00000000000003
 30
0.0
 40
70.0
  1
０２５０（６２）５３９４
 41
0.75
 72
     4
 11
7699.999999999999
 21
105.0
 31
0.0
100
AcDbText
  0
TEXT
  5
FFA
330
1F
100
AcDbEntity
  8
TXT
 48
5.0
100
AcDbText
 10
7290.049671180106
 20
2258.252550022637
 30
0.0
 40
80.0
  1
年　　　月　　　日
 72
     4
 11
7706.049671180107
 21
2298.252550022636
 31
0.0
100
AcDbText
  0
TEXT
  5
1000
330
1F
100
AcDbEntity
  8
TXT
  6
Continuous
 48
5.0
100
AcDbText
 10
1762.49621813176
 20
4871.591343934092
 30
0.0
 40
100.0
  1
Ａ面
 41
2.0
 72
     4
 11
1989.162884798427
 21
4918.258010600759
 31
0.0
100
AcDbText
  0
TEXT
  5
1002
330
1F
100
AcDbEntity
  8
TXT
  6
Continuous
 48
5.0
100
AcDbText
 10
4372.564278314649
 20
3581.551167480795
 30
0.0
 40
100.0
  1
Ｂ面
 41
2.0
 72
     4
 11
4605.897611647981
 21
3628.217834147462
 31
0.0
100
AcDbText
  0
LINE
  5
1005
330
1F
100
AcDbEntity
  8
TXT
100
AcDbLine
 10
8150.0
 20
1390.0
 30
0.0
 11
6390.0
 21
1390.0
 31
0.0
  0
LINE
  5
1006
330
1F
100
AcDbEntity
  8
TXT
100
AcDbLine
 10
8150.0
 20
1530.0
 30
0.0
 11
6390.0
 21
1530.0
 31
0.0
  0
LINE
  5
1007
330
1F
100
AcDbEntity
  8
TXT
100
AcDbLine
 10
6650.0
 20
1390.0
 30
0.0
 11
7650.0
 21
1390.0
 31
0.0
  0
LINE
  5
1008
330
1F
100
AcDbEntity
  8
TXT
100
AcDbLine
 10
8150.0
 20
1670.0
 30
0.0
 11
5890.0
 21
1670.0
 31
0.0
  0
LINE
  5
1009
330
1F
100
AcDbEntity
  8
TXT
100
AcDbLine
 10
6650.0
 20
1530.0
 30
0.0
 11
7650.0
 21
1530.0
 31
0.0
  0
LINE
  5
100A
330
1F
100
AcDbEntity
  8
TXT
100
AcDbLine
 10
6650.0
 20
1670.0
 30
0.0
 11
7650.0
 21
1670.0
 31
0.0
  0
TEXT
  5
100B
330
1F
100
AcDbEntity
  8
TXT
 48
5.0
100
AcDbText
 10
7159.863370350724
 20
1270.0
 30
0.0
 40
100.0
  1
φ 80　　　　個
 72
     4
 11
7616.53003701739
 21
1320.0
 31
0.0
100
AcDbText
  0
TEXT
  5
100C
330
1F
100
AcDbEntity
  8
TXT
 48
5.0
100
AcDbText
 10
7159.863370350724
 20
1410.0
 30
0.0
 40
100.0
  1
φ 70　　　　個
 72
     4
 11
7616.53003701739
 21
1460.0
 31
0.0
100
AcDbText
  0
TEXT
  5
100D
330
1F
100
AcDbEntity
  8
TXT
 48
5.0
100
AcDbText
 10
7159.863370350724
 20
1549.990157480315
 30
0.0
 40
100.0
  1
φ 52　　　　個
 72
     4
 11
7616.53003701739
 21
1600.0
 31
0.0
100
AcDbText
  0
TEXT
  5
1AA3
330
1F
100
AcDbEntity
  8
TXT
  6
Continuous
 48
5.0
100
AcDbText
 10
750.2571250110235
 20
2275.178981838585
 30
0.0
 40
100.0
  1
Ｄ面
 41
2.0
 72
     4
 11
983.5904583443568
 21
2321.845648505251
 31
0.0
100
AcDbText
  0
TEXT
  5
1AA4
330
1F
100
AcDbEntity
  8
TXT
  6
Continuous
 48
5.0
100
AcDbText
 10
3373.658518527244
 20
985.1388053852851
 30
0.0
 40
100.0
  1
Ｃ面
 41
2.0
 72
     4
 11
3600.325185193911
 21
1031.805472051952
 31
0.0
100
AcDbText
  0
DIMENSION
  5
1CC4
330
1F
100
AcDbEntity
  8
DIM
100
AcDbDimension
  2
*D37
 10
7389.911307402254
 20
3216.919954121019
 30
0.0
 11
6929.911307402254
 21
3251.933558309287
 31
0.0
 70
    32
 71
     5
 42
920.0
  3
Standerd
100
AcDbAlignedDimension
 13
6469.911307402253
 23
3476.919954121019
 33
0.0
 14
7389.911307402254
 24
3476.919954121019
 34
0.0
100
AcDbRotatedDimension
  0
DIMENSION
  5
1CC5
330
1F
100
AcDbEntity
  8
DIM
100
AcDbDimension
  2
*D38
 10
7209.911307402254
 20
4156.919954121018
 30
0.0
 11
7174.907370394379
 21
4056.91995412102
 31
0.0
 70
    32
 71
     5
 42
200.0
  3
Standerd
100
AcDbAlignedDimension
 13
7327.411307402254
 23
3956.919954121019
 33
0.0
 14
7329.911307402254
 24
4156.919954121018
 34
0.0
 50
90.0
100
AcDbRotatedDimension
  0
LINE
  5
1CC6
330
1F
100
AcDbEntity
  8
DASHED
 48
2.0
100
AcDbLine
 10
7292.411307402254
 20
3556.919954121019
 30
0.0
 11
7322.786278108812
 21
3586.917610645642
 31
0.0
  0
LINE
  5
1CC7
330
1F
100
AcDbEntity
  8
DASHED
 48
2.0
100
AcDbLine
 10
6537.036336695696
 20
3586.917610645642
 30
0.0
 11
6567.411307402252
 21
3556.919954121019
 31
0.0
  0
DIMENSION
  5
1CC8
330
1F
100
AcDbEntity
  8
DIM
100
AcDbDimension
  2
*D39
 10
7129.911307402254
 20
4095.369835714652
 30
0.0
 11
6929.911307402254
 21
4130.369835714652
 31
0.0
 70
    32
 71
     5
 42
400.0
  3
Standerd
100
AcDbAlignedDimension
 13
6729.911307402253
 23
3964.91995412102
 33
0.0
 14
7129.911307402254
 24
3964.91995412102
 34
0.0
100
AcDbRotatedDimension
  0
TEXT
  5
1CC9
330
1F
100
AcDbEntity
  8
TXT
100
AcDbText
 10
6002.411307402254
 20
4076.919954121019
 30
0.0
 40
60.0
  1
B1-600
 41
1.5
100
AcDbText
  0
DIMENSION
  5
1CCA
330
1F
100
AcDbEntity
  8
DIM
100
AcDbDimension
  2
*D40
 10
6499.246078601082
 20
4237.516575594669
 30
0.0
 11
6381.033480175886
 21
4272.516575594669
 31
0.0
 70
    32
 71
     5
 42
60.0
  3
Standerd
100
AcDbAlignedDimension
 13
6529.911307402253
 23
4156.919954121018
 33
0.0
 14
6469.911307402253
 24
4156.919954121018
 34
0.0
100
AcDbRotatedDimension
1001
ACAD
1000
DSTYLE
1002
{
1070
    42
1040
30.0
1002
}
  0
DIMENSION
  5
1CCB
330
1F
100
AcDbEntity
  8
DIM
100
AcDbDimension
  2
*D41
 10
6559.246078601083
 20
4237.516575594669
 30
0.0
 11
6959.246078601083
 21
4272.516575594669
 31
0.0
 70
    32
 71
     5
 42
800.0
  3
Standerd
100
AcDbAlignedDimension
 13
7329.911307402254
 23
4156.919954121018
 33
0.0
 14
6529.911307402253
 24
4156.919954121018
 34
0.0
100
AcDbRotatedDimension
1001
ACAD
1000
DSTYLE
1002
{
1070
    42
1040
30.0
1002
}
  0
DIMENSION
  5
1CCC
330
1F
100
AcDbEntity
  8
DIM
100
AcDbDimension
  2
*D42
 10
7419.246078601083
 20
4237.516575594669
 30
0.0
 11
7537.458677026279
 21
4272.516575594669
 31
0.0
 70
    32
 71
     5
 42
60.0
  3
Standerd
100
AcDbAlignedDimension
 13
7329.911307402254
 23
4156.919954121018
 33
0.0
 14
7389.911307402254
 24
4156.919954121018
 34
0.0
100
AcDbRotatedDimension
1001
ACAD
1000
DSTYLE
1002
{
1070
    42
1040
30.0
1002
}
  0
DIMENSION
  5
1CCD
330
1F
100
AcDbEntity
  8
NO
100
AcDbDimension
  2
*D43
 10
7229.911307402254
 20
3366.919954121019
 30
0.0
 11
6929.911307402254
 21
3401.919954121019
 31
0.0
 70
    32
 71
     5
 42
600.0
  3
Standerd
100
AcDbAlignedDimension
 13
6629.911307402252
 23
3616.919954121019
 33
0.0
 14
7229.911307402254
 24
3616.919954121019
 34
0.0
100
AcDbRotatedDimension
  0
LINE
  5
1CCE
330
1F
100
AcDbEntity
  8
NO
100
AcDbLine
 10
7229.911307402254
 20
3616.919954121019
 30
0.0
 11
7239.911307402254
 21
3606.919954121019
 31
0.0
  0
LINE
  5
1CCF
330
1F
100
AcDbEntity
  8
NO
100
AcDbLine
 10
7229.911307402254
 20
3916.919954121019
 30
0.0
 11
7239.911307402254
 21
3926.919954121019
 31
0.0
  0
LINE
  5
1CD0
330
1F
100
AcDbEntity
  8
NO
100
AcDbLine
 10
6629.911307402252
 20
3916.919954121019
 30
0.0
 11
6619.911307402253
 21
3926.919954121019
 31
0.0
  0
LINE
  5
1CD1
330
1F
100
AcDbEntity
  8
NO
100
AcDbLine
 10
6629.911307402252
 20
3616.919954121019
 30
0.0
 11
6619.911307402253
 21
3606.919954121019
 31
0.0
  0
DIMENSION
  5
1CD2
330
1F
100
AcDbEntity
  8
DIM
100
AcDbDimension
  2
*D44
 10
7907.411307402253
 20
4156.919954121018
 30
0.0
 11
7872.411307402252
 21
3811.919954121021
 31
0.0
 70
    32
 71
     5
 42
690.0
  3
Standerd
100
AcDbAlignedDimension
 13
7379.911307402254
 23
3466.919954121019
 33
0.0
 14
7389.911307402254
 24
4156.919954121018
 34
0.0
 50
90.0
100
AcDbRotatedDimension
  0
DIMENSION
  5
1CD3
330
1F
100
AcDbEntity
  8
DIM
100
AcDbDimension
  2
*D45
 10
7757.411307402254
 20
3466.919954121019
 30
0.0
 11
7722.411307402253
 21
3511.919954121021
 31
0.0
 70
    32
 71
     5
 42
90.0
  3
Standerd
100
AcDbAlignedDimension
 13
7292.411307402254
 23
3556.919954121019
 33
0.0
 14
7379.911307402254
 24
3466.919954121019
 34
0.0
 50
90.0
100
AcDbRotatedDimension
  0
DIMENSION
  5
1CD4
330
1F
100
AcDbEntity
  8
DIM
100
AcDbDimension
  2
*D46
 10
7757.411307402254
 20
4156.919954121018
 30
0.0
 11
7722.411307402253
 21
3856.91995412102
 31
0.0
 70
    32
 71
     5
 42
600.0
  3
Standerd
100
AcDbAlignedDimension
 13
7292.411307402254
 23
3556.919954121019
 33
0.0
 14
7389.911307402254
 24
4156.919954121018
 34
0.0
 50
90.0
100
AcDbRotatedDimension
  0
DIMENSION
  5
1CD5
330
1F
100
AcDbEntity
  8
NO
100
AcDbDimension
  2
*D47
 10
7607.411307402255
 20
3466.919954121019
 30
0.0
 11
7607.411307402253
 21
3541.919954121019
 31
0.0
 70
   160
 71
     5
 42
150.0
  3
Standerd
100
AcDbAlignedDimension
 13
7369.911307402253
 23
3616.919954121019
 33
0.0
 14
7379.911307402254
 24
3466.919954121019
 34
0.0
 50
90.0
100
AcDbRotatedDimension
  0
DIMENSION
  5
1CD6
330
1F
100
AcDbEntity
  8
NO
100
AcDbDimension
  2
*D48
 10
7607.411307402253
 20
3616.919954121019
 30
0.0
 11
7572.411307402252
 21
3766.91995412102
 31
0.0
 70
    32
 71
     5
 42
300.0
  3
Standerd
100
AcDbAlignedDimension
 13
7369.911307402253
 23
3916.919954121019
 33
0.0
 14
7369.911307402253
 24
3616.919954121019
 34
0.0
 50
90.0
100
AcDbRotatedDimension
  0
DIMENSION
  5
1CD7
330
1F
100
AcDbEntity
  8
NO
100
AcDbDimension
  2
*D49
 10
7607.411307402253
 20
4156.919954121018
 30
0.0
 11
7572.407370394379
 21
4036.91995412102
 31
0.0
 70
    32
 71
     5
 42
240.0
  3
Standerd
100
AcDbAlignedDimension
 13
7369.911307402253
 23
3916.919954121019
 33
0.0
 14
7389.911307402254
 24
4156.919954121018
 34
0.0
 50
90.0
100
AcDbRotatedDimension
  0
LINE
  5
1CD8
330
1F
100
AcDbEntity
  8
DASHED
 48
0.15
100
AcDbLine
 10
6729.911307402253
 20
3936.91995412102
 30
0.0
 11
6729.911307402253
 21
3976.919954121019
 31
0.0
  0
MTEXT
  5
1CD9
102
{ACAD_REACTORS
330
1CDA
102
}
330
1F
100
AcDbEntity
  8
TXT
100
AcDbMText
 10
6814.342191518059
 20
3879.129372206402
 30
0.0
 40
40.0
 41
0.0
 71
     1
 72
     1
  1
M12ｲﾝｻｰﾄ
 73
     1
 44
1.0
  0
LEADER
  5
1CDA
330
1F
100
AcDbEntity
  8
TXT
100
AcDbLeader
  3
Standerd1
 73
     0
 74
     0
 75
     1
 40
40.00787401574803
 41
190.0
 76
     3
 10
6729.911307402253
 20
3948.919954121019
 30
0.0
 10
6759.342191518058
 20
3859.129372206402
 30
0.0
 10
6799.342191518059
 20
3859.129372206402
 30
0.0
340
1CD9
213
0.0
223
-20.0
233
0.0
1001
ACAD
1000
DSTYLE
1002
{
1070
   147
1040
15.0
1070
    77
1070
     0
1002
}
  0
LINE
  5
1CDB
330
1F
100
AcDbEntity
  8
DASHED
 48
0.15
100
AcDbLine
 10
6709.911307402254
 20
3956.919954121019
 30
0.0
 11
6749.911307402253
 21
3956.919954121019
 31
0.0
  0
CIRCLE
  5
1CDC
330
1F
100
AcDbEntity
  8
DASHED
 48
2.0
100
AcDbCircle
 10
6729.911307402253
 20
3956.919954121019
 30
0.0
 40
8.0
  0
LINE
  5
1CDD
330
1F
100
AcDbEntity
  8
DASHED
 48
0.15
100
AcDbLine
 10
7129.911307402254
 20
3936.91995412102
 30
0.0
 11
7129.911307402254
 21
3976.919954121019
 31
0.0
  0
LINE
  5
1CDE
330
1F
100
AcDbEntity
  8
DASHED
 48
0.15
100
AcDbLine
 10
7109.911307402254
 20
3956.919954121019
 30
0.0
 11
7149.911307402253
 21
3956.919954121019
 31
0.0
  0
CIRCLE
  5
1CDF
330
1F
100
AcDbEntity
  8
DASHED
 48
2.0
100
AcDbCircle
 10
7129.911307402254
 20
3956.919954121019
 30
0.0
 40
8.0
  0
LWPOLYLINE
  5
1CE0
330
1F
100
AcDbEntity
  8
DASHED
 48
2.0
100
AcDbPolyline
 90
        4
 70
     1
 43
0.0
 10
6502.411307402254
 20
3948.919954121019
 10
6532.411307402253
 20
3948.919954121019
 10
6532.411307402253
 20
3964.91995412102
 10
6502.411307402254
 20
3964.91995412102
  0
LWPOLYLINE
  5
1CE1
330
1F
100
AcDbEntity
  8
DASHED
 48
0.15
100
AcDbPolyline
 90
        4
 70
     1
 43
0.0
 10
7357.411307402253
 20
3948.919954121019
 10
7327.411307402254
 20
3948.919954121019
 10
7327.411307402254
 20
3964.91995412102
 10
7357.411307402253
 20
3964.91995412102
  0
LWPOLYLINE
  5
1CE2
330
1F
100
AcDbEntity
  8
DASHED
 48
2.0
100
AcDbPolyline
 90
        4
 70
     1
 43
0.0
 10
7224.911307402253
 20
3606.919954121019
 10
7234.911307402254
 20
3606.919954121019
 10
7234.911307402254
 20
3556.919954121019
 10
7224.911307402253
 20
3556.919954121019
  0
LWPOLYLINE
  5
1CE3
330
1F
100
AcDbEntity
  8
DASHED
 48
2.0
100
AcDbPolyline
 90
        4
 70
     1
 43
0.0
 10
6634.911307402254
 20
3606.919954121019
 10
6624.911307402253
 20
3606.919954121019
 10
6624.911307402253
 20
3556.919954121019
 10
6634.911307402254
 20
3556.919954121019
  0
LEADER
  5
1CE4
330
1F
100
AcDbEntity
  8
TXT
100
AcDbLeader
  3
Standerd1
 73
     0
 74
     0
 75
     1
 40
40.00000000000001
 41
456.7830808016392
 76
     3
 10
7234.911307402254
 20
3581.919954121019
 30
0.0
 10
7491.812624892223
 20
3334.297299695824
 30
0.0
 10
7531.812624892224
 20
3334.297299695824
 30
0.0
340
1CE5
213
0.0
223
-20.0
233
0.0
1001
ACAD
1000
DSTYLE
1002
{
1070
   147
1040
15.0
1070
    77
1070
     0
1002
}
  0
MTEXT
  5
1CE5
102
{ACAD_REACTORS
330
1CE4
102
}
330
1F
100
AcDbEntity
  8
TXT
100
AcDbMText
 10
7546.812624892223
 20
3354.297299695824
 30
0.0
 40
40.0
 41
0.0
 71
     1
 72
     1
  1
吊りﾌｯｸ引込用ﾌｯｸ兼用
 73
     1
 44
1.0
  0
LINE
  5
1CE6
330
1F
100
AcDbEntity
  8
NO2
 48
2.0
100
AcDbLine
 10
7389.911307402254
 20
3926.919954121019
 30
0.0
 11
7369.911307402253
 21
3916.919954121019
 31
0.0
  0
LINE
  5
1CE7
330
1F
100
AcDbEntity
  8
NO2
 48
2.0
100
AcDbLine
 10
7369.911307402253
 20
3616.919954121019
 30
0.0
 11
7389.911307402254
 21
3606.919954121019
 31
0.0
  0
LINE
  5
1CE8
330
1F
100
AcDbEntity
  8
NO2
 48
2.0
100
AcDbLine
 10
7369.911307402253
 20
3916.919954121019
 30
0.0
 11
7369.911307402253
 21
3616.919954121019
 31
0.0
  0
LINE
  5
1CE9
330
1F
100
AcDbEntity
  8
NO2
 48
2.0
100
AcDbLine
 10
6489.911307402254
 20
3616.919954121019
 30
0.0
 11
6469.911307402253
 21
3606.919954121019
 31
0.0
  0
LINE
  5
1CEA
330
1F
100
AcDbEntity
  8
NO2
 48
2.0
100
AcDbLine
 10
6489.911307402254
 20
3916.919954121019
 30
0.0
 11
6489.911307402254
 21
3616.919954121019
 31
0.0
  0
LINE
  5
1CEB
330
1F
100
AcDbEntity
  8
NO2
 48
2.0
100
AcDbLine
 10
6469.911307402253
 20
3926.919954121019
 30
0.0
 11
6489.911307402254
 21
3916.919954121019
 31
0.0
  0
LWPOLYLINE
  5
1CEC
330
1F
100
AcDbEntity
  8
NO
100
AcDbPolyline
 90
        4
 70
     1
 43
0.0
 10
6629.911307402252
 20
3916.919954121019
 10
7229.911307402254
 20
3916.919954121019
 10
7229.911307402254
 20
3616.919954121019
 10
6629.911307402252
 20
3616.919954121019
  0
LWPOLYLINE
  5
1CED
330
1F
100
AcDbEntity
  8
NO
100
AcDbPolyline
 90
        4
 70
     1
 43
0.0
 10
6619.911307402253
 20
3926.919954121019
 10
7239.911307402254
 20
3926.919954121019
 10
7239.911307402254
 20
3606.919954121019
 10
6619.911307402253
 20
3606.919954121019
  0
LINE
  5
1CEE
330
1F
100
AcDbEntity
  8
DASHED
 48
2.0
100
AcDbLine
 10
6829.911307402254
 20
3536.91995412102
 30
0.0
 11
7029.911307402255
 21
3536.91995412102
 31
0.0
  0
LINE
  5
1CEF
330
1F
100
AcDbEntity
  8
DASHED
 48
2.0
100
AcDbLine
 10
7329.911307402254
 20
4156.919954121018
 30
0.0
 11
7322.786278108812
 21
3586.917610645642
 31
0.0
  0
LINE
  5
1CF0
330
1F
100
AcDbEntity
  8
DASHED
 48
2.0
100
AcDbLine
 10
7039.911307402253
 20
3556.919954121019
 30
0.0
 11
7029.911307402255
 21
3536.91995412102
 31
0.0
  0
LINE
  5
1CF1
330
1F
100
AcDbEntity
  8
DASHED
 48
2.0
100
AcDbLine
 10
7292.411307402254
 20
3556.919954121019
 30
0.0
 11
7039.911307402253
 21
3556.919954121019
 31
0.0
  0
LINE
  5
1CF2
330
1F
100
AcDbEntity
  8
DASHED
 48
2.0
100
AcDbLine
 10
6819.911307402254
 20
3556.919954121019
 30
0.0
 11
6829.911307402254
 21
3536.91995412102
 31
0.0
  0
LINE
  5
1CF3
330
1F
100
AcDbEntity
  8
DASHED
 48
2.0
100
AcDbLine
 10
6567.411307402252
 20
3556.919954121019
 30
0.0
 11
6819.911307402254
 21
3556.919954121019
 31
0.0
  0
LINE
  5
1CF4
330
1F
100
AcDbEntity
  8
DASHED
 48
2.0
100
AcDbLine
 10
6529.911307402253
 20
4156.919954121018
 30
0.0
 11
6537.036336695696
 21
3586.917610645642
 31
0.0
  0
LWPOLYLINE
  5
1CF5
330
1F
100
AcDbEntity
  8
LAYER
100
AcDbPolyline
 90
        6
 70
     1
 43
0.0
 10
6479.911307402253
 20
3466.919954121019
 10
7379.911307402254
 20
3466.919954121019
 10
7389.911307402254
 20
3476.919954121019
 10
7389.911307402254
 20
4156.919954121018
 10
6469.911307402253
 20
4156.919954121018
 10
6469.911307402253
 20
3476.919954121019
  0
DIMENSION
  5
1EBD
330
1F
100
AcDbEntity
  8
DIM
100
AcDbDimension
  2
*D50
 10
7209.911307402254
 20
4456.919954121018
 30
0.0
 11
7174.911307402253
 21
4406.919954121021
 31
0.0
 70
    32
 71
     5
 42
100.0
  3
Standerd
100
AcDbAlignedDimension
 13
7129.911307402254
 23
4356.919954121019
 33
0.0
 14
6929.911307402254
 24
4456.919954121018
 34
0.0
 50
90.0
100
AcDbRotatedDimension
  0
DIMENSION
  5
1EBE
330
1F
100
AcDbEntity
  8
DIM
100
AcDbDimension
  2
*D51
 10
7209.911307402254
 20
4156.919954121018
 30
0.0
 11
7174.907370394379
 21
4256.919954121021
 31
0.0
 70
    32
 71
     5
 42
200.0
  3
Standerd
100
AcDbAlignedDimension
 13
7327.411307402254
 23
4356.919954121019
 33
0.0
 14
7209.911307402254
 24
4156.919954121018
 34
0.0
 50
90.0
100
AcDbRotatedDimension
  0
DIMENSION
  5
1EBF
330
1F
100
AcDbEntity
  8
DIM
100
AcDbDimension
  2
*D52
 10
7907.411307402253
 20
4156.919954121018
 30
0.0
 11
7872.411307402252
 21
4306.91995412102
 31
0.0
 70
    32
 71
     5
 42
300.0
  3
Standerd
100
AcDbAlignedDimension
 13
7389.911307402254
 23
4456.919954121018
 33
0.0
 14
7389.911307402254
 24
4156.919954121018
 34
0.0
 50
90.0
100
AcDbRotatedDimension
  0
TEXT
  5
1EC0
330
1F
100
AcDbEntity
  8
TXT
100
AcDbText
 10
6002.411307402254
 20
4376.919954121019
 30
0.0
 40
60.0
  1
M-300
 41
1.5
100
AcDbText
  0
LWPOLYLINE
  5
1EC1
330
1F
100
AcDbEntity
  8
DASHED
 48
2.0
100
AcDbPolyline
 90
        4
 70
     1
 43
0.0
 10
7359.911307402254
 20
4348.919954121019
 10
7329.911307402254
 20
4348.919954121019
 10
7329.911307402254
 20
4364.919954121019
 10
7359.911307402254
 20
4364.919954121019
  0
LINE
  5
1EC2
330
1F
100
AcDbEntity
  8
DASHED
100
AcDbLine
 10
7129.911307402254
 20
4336.919954121019
 30
0.0
 11
7129.911307402254
 21
4376.919954121019
 31
0.0
  0
LINE
  5
1EC3
330
1F
100
AcDbEntity
  8
DASHED
100
AcDbLine
 10
7109.911307402254
 20
4356.919954121019
 30
0.0
 11
7149.911307402253
 21
4356.919954121019
 31
0.0
  0
CIRCLE
  5
1EC4
330
1F
100
AcDbEntity
  8
DASHED
 48
2.0
100
AcDbCircle
 10
7129.911307402254
 20
4356.919954121019
 30
0.0
 40
8.0
  0
LINE
  5
1EC5
330
1F
100
AcDbEntity
  8
DASHED
100
AcDbLine
 10
6729.911307402253
 20
4336.919954121019
 30
0.0
 11
6729.911307402253
 21
4376.919954121019
 31
0.0
  0
LINE
  5
1EC6
330
1F
100
AcDbEntity
  8
DASHED
100
AcDbLine
 10
6709.911307402254
 20
4356.919954121019
 30
0.0
 11
6749.911307402253
 21
4356.919954121019
 31
0.0
  0
CIRCLE
  5
1EC7
330
1F
100
AcDbEntity
  8
DASHED
 48
2.0
100
AcDbCircle
 10
6729.911307402253
 20
4356.919954121019
 30
0.0
 40
8.0
  0
LWPOLYLINE
  5
1EC8
330
1F
100
AcDbEntity
  8
DASHED
 48
2.0
100
AcDbPolyline
 90
        4
 70
     1
 43
0.0
 10
6499.911307402253
 20
4348.919954121019
 10
6529.911307402253
 20
4348.919954121019
 10
6529.911307402253
 20
4364.919954121019
 10
6499.911307402253
 20
4364.919954121019
  0
LINE
  5
1EC9
330
1F
100
AcDbEntity
  8
DASHED
 48
2.0
100
AcDbLine
 10
7329.911307402254
 20
4456.919954121018
 30
0.0
 11
7329.911307402254
 21
4156.919954121018
 31
0.0
  0
LINE
  5
1ECA
330
1F
100
AcDbEntity
  8
DASHED
 48
2.0
100
AcDbLine
 10
6529.911307402253
 20
4156.919954121018
 30
0.0
 11
6529.911307402253
 21
4456.919954121018
 31
0.0
  0
LWPOLYLINE
  5
1ECB
330
1F
100
AcDbEntity
  8
LAYER
100
AcDbPolyline
 90
        6
 70
     1
 43
0.0
 10
6469.911307402253
 20
4156.919954121018
 10
7389.911307402254
 20
4156.919954121018
 10
7389.911307402254
 20
4456.919954121018
 10
7389.911307402254
 20
4456.919954121018
 10
6469.911307402253
 20
4456.919954121018
 10
6469.911307402253
 20
4456.919954121018
  0
LWPOLYLINE
  5
2484
330
1F
100
AcDbEntity
  8
LAYER
100
AcDbPolyline
 90
        8
 70
     1
 43
0.0
 10
2344.74403499617
 20
2515.031741326355
 10
3244.74403499617
 20
2515.031741326355
 10
3254.74403499617
 20
2525.031741326355
 10
3254.74403499617
 20
3425.031741326355
 10
3244.74403499617
 20
3435.031741326355
 10
2344.74403499617
 20
3435.031741326355
 10
2334.74403499617
 20
3425.031741326355
 10
2334.74403499617
 20
2525.031741326355
  0
LWPOLYLINE
  5
2492
330
1F
100
AcDbEntity
  8
LATER
100
AcDbPolyline
 90
        4
 70
     1
 43
0.0
 10
3123.548688247915
 20
3268.481055518772
 10
3130.61975605978
 20
3275.552123330637
 10
3095.264417000453
 20
3310.907462389965
 10
3088.193349188588
 20
3303.836394578099
  0
LWPOLYLINE
  5
2493
330
1F
100
AcDbEntity
  8
LATER
100
AcDbPolyline
 90
        4
 70
     1
 43
0.0
 10
3088.193349188587
 20
2646.22708807461
 10
3095.264417000453
 20
2639.156020262744
 10
3130.61975605978
 20
2674.511359322072
 10
3123.548688247915
 20
2681.582427133937
  0
LWPOLYLINE
  5
2494
330
1F
100
AcDbEntity
  8
LATER
100
AcDbPolyline
 90
        4
 70
     1
 43
0.0
 10
2501.294720803753
 20
3303.836394578099
 10
2494.223652991887
 20
3310.907462389965
 10
2458.86831393256
 20
3275.552123330637
 10
2465.939381744425
 20
3268.481055518772
  0
LWPOLYLINE
  5
2495
330
1F
100
AcDbEntity
  8
LATER
100
AcDbPolyline
 90
        4
 70
     1
 43
0.0
 10
2465.939381744425
 20
2681.582427133938
 10
2458.86831393256
 20
2674.511359322072
 10
2494.223652991887
 20
2639.156020262744
 10
2501.294720803752
 20
2646.22708807461
  0
CIRCLE
  5
2496
330
1F
100
AcDbEntity
  8
LATER
100
AcDbCircle
 10
2794.74403499617
 20
2975.031741326355
 30
0.0
 40
300.0
  0
CIRCLE
  5
2497
330
1F
100
AcDbEntity
  8
CR
100
AcDbCircle
 10
2794.74403499617
 20
2975.031741326355
 30
0.0
 40
435.0
  0
LWPOLYLINE
  5
24D0
330
1F
100
AcDbEntity
  8
LAYER
100
AcDbPolyline
 90
        6
 70
     1
 43
0.0
 10
3254.744034996169
 20
3925.031741326355
 10
2334.744034996169
 20
3925.031741326356
 10
2334.744034996171
 20
3445.031741326356
 10
2344.74403499617
 20
3435.031741326355
 10
3244.74403499617
 20
3435.031741326355
 10
3254.74403499617
 20
3445.031741326356
  0
LWPOLYLINE
  5
2525
330
1F
100
AcDbEntity
  8
LAYER
100
AcDbPolyline
 90
        6
 70
     1
 43
0.0
 10
3244.74403499617
 20
4915.031741326355
 10
2344.74403499617
 20
4915.031741326355
 10
2334.74403499617
 20
4905.031741326355
 10
2334.744034996169
 20
4225.031741326356
 10
3254.744034996169
 20
4225.031741326354
 10
3254.74403499617
 20
4905.031741326355
  0
LWPOLYLINE
  5
252D
330
1F
100
AcDbEntity
  8
NO
100
AcDbPolyline
 90
        4
 70
     1
 43
0.0
 10
3104.74403499617
 20
4455.031741326354
 10
2484.74403499617
 20
4455.031741326355
 10
2484.74403499617
 20
4775.031741326356
 10
3104.74403499617
 20
4775.031741326354
  0
LWPOLYLINE
  5
252E
330
1F
100
AcDbEntity
  8
NO
100
AcDbPolyline
 90
        4
 70
     1
 43
0.0
 10
3094.74403499617
 20
4465.031741326355
 10
2494.74403499617
 20
4465.031741326355
 10
2494.74403499617
 20
4765.031741326356
 10
3094.74403499617
 20
4765.031741326355
  0
LINE
  5
2541
330
1F
100
AcDbEntity
  8
NO
100
AcDbLine
 10
3094.74403499617
 20
4765.031741326355
 30
0.0
 11
3104.74403499617
 21
4775.031741326354
 31
0.0
  0
LINE
  5
2542
330
1F
100
AcDbEntity
  8
NO
100
AcDbLine
 10
3094.74403499617
 20
4465.031741326355
 30
0.0
 11
3104.74403499617
 21
4455.031741326354
 31
0.0
  0
LINE
  5
2543
330
1F
100
AcDbEntity
  8
NO
100
AcDbLine
 10
2494.74403499617
 20
4465.031741326355
 30
0.0
 11
2484.74403499617
 21
4455.031741326355
 31
0.0
  0
LINE
  5
2544
330
1F
100
AcDbEntity
  8
NO
100
AcDbLine
 10
2494.74403499617
 20
4765.031741326355
 30
0.0
 11
2484.74403499617
 21
4775.031741326354
 31
0.0
  0
LWPOLYLINE
  5
2574
330
1F
100
AcDbEntity
  8
LAYER
100
AcDbPolyline
 90
        6
 70
     1
 43
0.0
 10
3254.744034996169
 20
4225.031741326354
 10
2334.744034996169
 20
4225.031741326356
 10
2334.744034996169
 20
3925.031741326356
 10
2334.744034996169
 20
3925.031741326356
 10
3254.744034996169
 20
3925.031741326355
 10
3254.744034996169
 20
3925.031741326355
  0
LWPOLYLINE
  5
2575
330
1F
100
AcDbEntity
  8
LAYER
100
AcDbPolyline
 90
        6
 70
     1
 43
0.0
 10
3744.744034996168
 20
2515.031741326356
 10
3744.74403499617
 20
3435.031741326355
 10
3264.74403499617
 20
3435.031741326355
 10
3254.74403499617
 20
3425.031741326355
 10
3254.74403499617
 20
2525.031741326355
 10
3264.74403499617
 20
2515.031741326355
  0
LWPOLYLINE
  5
2576
330
1F
100
AcDbEntity
  8
LAYER
100
AcDbPolyline
 90
        6
 70
     1
 43
0.0
 10
4044.744034996168
 20
2515.031741326356
 10
4044.74403499617
 20
3435.031741326356
 10
3744.74403499617
 20
3435.031741326356
 10
3744.74403499617
 20
3435.031741326356
 10
3744.744034996168
 20
2515.031741326356
 10
3744.744034996168
 20
2515.031741326356
  0
LINE
  5
2577
330
1F
100
AcDbEntity
  8
NO
100
AcDbLine
 10
4584.744034996168
 20
3275.031741326355
 30
0.0
 11
4594.744034996168
 21
3285.031741326355
 31
0.0
  0
LINE
  5
2578
330
1F
100
AcDbEntity
  8
NO
100
AcDbLine
 10
4284.744034996168
 20
3275.031741326356
 30
0.0
 11
4274.744034996169
 21
3285.031741326355
 31
0.0
  0
LINE
  5
2579
330
1F
100
AcDbEntity
  8
NO
100
AcDbLine
 10
4284.744034996168
 20
2675.031741326356
 30
0.0
 11
4274.744034996167
 21
2665.031741326356
 31
0.0
  0
LINE
  5
257A
330
1F
100
AcDbEntity
  8
NO
100
AcDbLine
 10
4584.744034996168
 20
2675.031741326356
 30
0.0
 11
4594.744034996168
 21
2665.031741326355
 31
0.0
  0
LWPOLYLINE
  5
257B
330
1F
100
AcDbEntity
  8
NO
100
AcDbPolyline
 90
        4
 70
     1
 43
0.0
 10
4284.744034996168
 20
2675.031741326356
 10
4284.744034996168
 20
3275.031741326356
 10
4584.744034996169
 20
3275.031741326355
 10
4584.744034996168
 20
2675.031741326356
  0
LWPOLYLINE
  5
257C
330
1F
100
AcDbEntity
  8
NO
100
AcDbPolyline
 90
        4
 70
     1
 43
0.0
 10
4274.744034996167
 20
2665.031741326356
 10
4274.744034996169
 20
3285.031741326355
 10
4594.744034996169
 20
3285.031741326355
 10
4594.744034996168
 20
2665.031741326355
  0
LWPOLYLINE
  5
257D
330
1F
100
AcDbEntity
  8
LAYER
100
AcDbPolyline
 90
        6
 70
     1
 43
0.0
 10
4734.744034996167
 20
2525.031741326355
 10
4734.74403499617
 20
3425.031741326356
 10
4724.744034996169
 20
3435.031741326355
 10
4044.74403499617
 20
3435.031741326356
 10
4044.744034996168
 20
2515.031741326356
 10
4724.744034996168
 20
2515.031741326355
  0
LWPOLYLINE
  5
257E
330
1F
100
AcDbEntity
  8
LAYER
100
AcDbPolyline
 90
        6
 70
     1
 43
0.0
 10
2334.744034996169
 20
2025.031741326356
 10
3254.744034996169
 20
2025.031741326355
 10
3254.744034996169
 20
2505.031741326355
 10
3244.744034996169
 20
2515.031741326355
 10
2344.744034996169
 20
2515.031741326355
 10
2334.744034996169
 20
2505.031741326355
  0
LWPOLYLINE
  5
257F
330
1F
100
AcDbEntity
  8
LAYER
100
AcDbPolyline
 90
        6
 70
     1
 43
0.0
 10
2334.744034996169
 20
1725.031741326355
 10
3254.744034996169
 20
1725.031741326355
 10
3254.744034996169
 20
2025.031741326355
 10
3254.744034996169
 20
2025.031741326355
 10
2334.744034996169
 20
2025.031741326356
 10
2334.744034996169
 20
2025.031741326356
  0
LINE
  5
2580
330
1F
100
AcDbEntity
  8
NO
100
AcDbLine
 10
3094.744034996168
 20
1185.031741326355
 30
0.0
 11
3104.744034996168
 21
1175.031741326355
 31
0.0
  0
LINE
  5
2581
330
1F
100
AcDbEntity
  8
NO
100
AcDbLine
 10
3094.744034996169
 20
1485.031741326355
 30
0.0
 11
3104.744034996169
 21
1495.031741326355
 31
0.0
  0
LINE
  5
2582
330
1F
100
AcDbEntity
  8
NO
100
AcDbLine
 10
2494.744034996168
 20
1485.031741326355
 30
0.0
 11
2484.744034996169
 21
1495.031741326356
 31
0.0
  0
LINE
  5
2583
330
1F
100
AcDbEntity
  8
NO
100
AcDbLine
 10
2494.744034996168
 20
1185.031741326355
 30
0.0
 11
2484.744034996168
 21
1175.031741326355
 31
0.0
  0
LWPOLYLINE
  5
2584
330
1F
100
AcDbEntity
  8
NO
100
AcDbPolyline
 90
        4
 70
     1
 43
0.0
 10
2494.744034996168
 20
1485.031741326355
 10
3094.744034996169
 20
1485.031741326355
 10
3094.744034996168
 20
1185.031741326354
 10
2494.744034996168
 20
1185.031741326355
  0
LWPOLYLINE
  5
2585
330
1F
100
AcDbEntity
  8
NO
100
AcDbPolyline
 90
        4
 70
     1
 43
0.0
 10
2484.744034996169
 20
1495.031741326356
 10
3104.744034996169
 20
1495.031741326355
 10
3104.744034996168
 20
1175.031741326354
 10
2484.744034996168
 20
1175.031741326355
  0
LWPOLYLINE
  5
2586
330
1F
100
AcDbEntity
  8
LAYER
100
AcDbPolyline
 90
        6
 70
     1
 43
0.0
 10
2344.744034996168
 20
1035.031741326355
 10
3244.744034996168
 20
1035.031741326355
 10
3254.744034996168
 20
1045.031741326354
 10
3254.744034996169
 20
1725.031741326355
 10
2334.744034996169
 20
1725.031741326355
 10
2334.744034996168
 20
1045.031741326355
  0
LWPOLYLINE
  5
2587
330
1F
100
AcDbEntity
  8
LAYER
100
AcDbPolyline
 90
        6
 70
     1
 43
0.0
 10
1844.74403499617
 20
3435.031741326356
 10
1844.74403499617
 20
2515.031741326356
 10
2324.74403499617
 20
2515.031741326356
 10
2334.744034996171
 20
2525.031741326356
 10
2334.744034996171
 20
3425.031741326356
 10
2324.74403499617
 20
3435.031741326355
  0
LWPOLYLINE
  5
2588
330
1F
100
AcDbEntity
  8
LAYER
100
AcDbPolyline
 90
        6
 70
     1
 43
0.0
 10
1544.744034996171
 20
3435.031741326356
 10
1544.74403499617
 20
2515.031741326356
 10
1844.74403499617
 20
2515.031741326356
 10
1844.74403499617
 20
2515.031741326356
 10
1844.74403499617
 20
3435.031741326356
 10
1844.74403499617
 20
3435.031741326356
  0
LINE
  5
2589
330
1F
100
AcDbEntity
  8
NO
100
AcDbLine
 10
1004.74403499617
 20
2675.031741326357
 30
0.0
 11
994.7440349961707
 21
2665.031741326357
 31
0.0
  0
LINE
  5
258A
330
1F
100
AcDbEntity
  8
NO
100
AcDbLine
 10
1304.74403499617
 20
2675.031741326357
 30
0.0
 11
1314.74403499617
 21
2665.031741326357
 31
0.0
  0
LINE
  5
258B
330
1F
100
AcDbEntity
  8
NO
100
AcDbLine
 10
1304.74403499617
 20
3275.031741326357
 30
0.0
 11
1314.74403499617
 21
3285.031741326357
 31
0.0
  0
LINE
  5
258C
330
1F
100
AcDbEntity
  8
NO
100
AcDbLine
 10
1004.74403499617
 20
3275.031741326357
 30
0.0
 11
994.7440349961707
 21
3285.031741326357
 31
0.0
  0
LWPOLYLINE
  5
258D
330
1F
100
AcDbEntity
  8
NO
100
AcDbPolyline
 90
        4
 70
     1
 43
0.0
 10
1304.74403499617
 20
3275.031741326357
 10
1304.74403499617
 20
2675.031741326357
 10
1004.74403499617
 20
2675.031741326357
 10
1004.74403499617
 20
3275.031741326357
  0
LWPOLYLINE
  5
258E
330
1F
100
AcDbEntity
  8
NO
100
AcDbPolyline
 90
        4
 70
     1
 43
0.0
 10
1314.74403499617
 20
3285.031741326357
 10
1314.74403499617
 20
2665.031741326357
 10
994.7440349961699
 20
2665.031741326357
 10
994.7440349961707
 20
3285.031741326357
  0
LWPOLYLINE
  5
258F
330
1F
100
AcDbEntity
  8
LAYER
100
AcDbPolyline
 90
        6
 70
     1
 43
0.0
 10
854.7440349961707
 20
3425.031741326357
 10
854.7440349961698
 20
2525.031741326357
 10
864.7440349961698
 20
2515.031741326357
 10
1544.74403499617
 20
2515.031741326356
 10
1544.744034996171
 20
3435.031741326356
 10
864.7440349961707
 20
3435.031741326357
  0
DIMENSION
  5
263C
330
1F
100
AcDbEntity
  8
DIM
100
AcDbDimension
  2
*D73
 10
7907.411307402253
 20
5046.919954121019
 30
0.0
 11
7872.411307402252
 21
4996.91995412102
 31
0.0
 70
    32
 71
     5
 42
100.0
  3
Standerd
100
AcDbAlignedDimension
 13
7364.911307402254
 23
4946.919954121019
 33
0.0
 14
7349.911307402253
 24
5046.919954121019
 34
0.0
 50
90.0
100
AcDbRotatedDimension
  0
LINE
  5
263D
330
1F
100
AcDbEntity
  8
DASHED
 48
2.0
100
AcDbLine
 10
7292.411307402254
 20
4856.919954121019
 30
0.0
 11
7322.786278108812
 21
4826.922297596397
 31
0.0
  0
LINE
  5
263E
330
1F
100
AcDbEntity
  8
DASHED
 48
2.0
100
AcDbLine
 10
6567.411307402252
 20
4856.919954121019
 30
0.0
 11
6537.036336695695
 21
4826.922297596397
 31
0.0
  0
DIMENSION
  5
263F
330
1F
100
AcDbEntity
  8
DIM
100
AcDbDimension
  2
*D74
 10
7211.123762804374
 20
4881.564212474075
 30
0.0
 11
6906.123762804374
 21
4916.564212474075
 31
0.0
 70
    32
 71
     5
 42
610.0
  3
Standerd1
100
AcDbAlignedDimension
 13
6624.911307402253
 23
4946.919954121019
 33
0.0
 14
7234.911307402254
 24
4946.919954121019
 34
0.0
100
AcDbRotatedDimension
1001
ACAD
1000
DSTYLE
1002
{
1070
    42
1040
35.0
1002
}
  0
DIMENSION
  5
2640
330
1F
100
AcDbEntity
  8
DIM
100
AcDbDimension
  2
*D75
 10
6494.911307402253
 20
5196.919954121019
 30
0.0
 11
6562.411307402253
 21
5231.919954121019
 31
0.0
 70
    32
 71
     5
 42
135.0
  3
Standerd
100
AcDbAlignedDimension
 13
6629.911307402252
 23
5046.919954121019
 33
0.0
 14
6494.911307402253
 24
5031.919954121019
 34
0.0
100
AcDbRotatedDimension
  0
DIMENSION
  5
2641
330
1F
100
AcDbEntity
  8
DIM
100
AcDbDimension
  2
*D76
 10
7229.911307402254
 20
5196.919954121019
 30
0.0
 11
6941.666436884208
 21
5196.919954121019
 31
0.0
 70
   160
 71
     5
 42
600.0
  3
Standerd
100
AcDbAlignedDimension
 13
6629.911307402252
 23
5046.919954121019
 33
0.0
 14
7229.911307402254
 24
5046.919954121019
 34
0.0
100
AcDbRotatedDimension
  0
LINE
  5
2642
330
1F
100
AcDbEntity
  8
DASHED
 48
2.0
100
AcDbLine
 10
6629.911307402252
 20
5046.919954121019
 30
0.0
 11
6624.911307402253
 21
4946.919954121019
 31
0.0
  0
LINE
  5
2643
330
1F
100
AcDbEntity
  8
DASHED
 48
2.0
100
AcDbLine
 10
7229.911307402254
 20
5046.919954121019
 30
0.0
 11
7234.911307402254
 21
4946.919954121019
 31
0.0
  0
TEXT
  5
2644
330
1F
100
AcDbEntity
  8
TXT
100
AcDbText
 10
6019.911307402253
 20
4966.919954121019
 30
0.0
 40
60.0
  1
C  R
 41
1.5
100
AcDbText
  0
LWPOLYLINE
  5
2645
330
1F
100
AcDbEntity
  8
LATER
100
AcDbPolyline
 90
        6
 70
     1
 43
0.0
 10
6509.911307402254
 20
5046.919954121019
 10
7349.911307402253
 20
5046.919954121019
 42
-0.4142135623730951
 10
7364.911307402254
 20
5031.919954121019
 10
7364.911307402254
 20
4946.919954121019
 10
6494.911307402253
 20
4946.919954121019
 10
6494.911307402253
 20
5031.919954121019
 42
-0.4142135623730951
  0
DIMENSION
  5
2646
330
1F
100
AcDbEntity
  8
DIM
100
AcDbDimension
  2
*D77
 10
7364.911307402254
 20
5196.919954121019
 30
0.0
 11
7297.411307402254
 21
5231.919954121019
 31
0.0
 70
    32
 71
     5
 42
135.0
  3
Standerd
100
AcDbAlignedDimension
 13
7229.911307402254
 23
5046.919954121019
 33
0.0
 14
7364.911307402254
 24
5031.919954121019
 34
0.0
100
AcDbRotatedDimension
  0
DIMENSION
  5
2647
330
1F
100
AcDbEntity
  8
DIM
100
AcDbDimension
  2
*D78
 10
6469.911307402253
 20
5346.91995412102
 30
0.0
 11
6929.911307402254
 21
5381.933558309287
 31
0.0
 70
    32
 71
     5
 42
920.0
  3
Standerd
100
AcDbAlignedDimension
 13
7389.911307402254
 23
4936.91995412102
 33
0.0
 14
6469.911307402253
 24
4936.91995412102
 34
0.0
100
AcDbRotatedDimension
  0
DIMENSION
  5
2648
330
1F
100
AcDbEntity
  8
DIM
100
AcDbDimension
  2
*D79
 10
7907.411307402253
 20
4456.919954121018
 30
0.0
 11
7872.411307402252
 21
4701.919954121019
 31
0.0
 70
    32
 71
     5
 42
490.0
  3
Standerd
100
AcDbAlignedDimension
 13
7364.911307402254
 23
4946.919954121019
 33
0.0
 14
7389.911307402254
 24
4456.919954121018
 34
0.0
 50
90.0
100
AcDbRotatedDimension
  0
DIMENSION
  5
2649
330
1F
100
AcDbEntity
  8
DIM
100
AcDbDimension
  2
*D80
 10
7757.411307402254
 20
4856.919954121019
 30
0.0
 11
7722.411307402253
 21
4901.919954121019
 31
0.0
 70
    32
 71
     5
 42
90.0
  3
Standerd
100
AcDbAlignedDimension
 13
7364.911307402254
 23
4946.919954121019
 33
0.0
 14
7292.411307402254
 24
4856.919954121019
 34
0.0
 50
90.0
100
AcDbRotatedDimension
  0
DIMENSION
  5
264A
330
1F
100
AcDbEntity
  8
DIM
100
AcDbDimension
  2
*D81
 10
7757.411307402254
 20
4456.919954121018
 30
0.0
 11
7722.411307402253
 21
4656.91995412102
 31
0.0
 70
    32
 71
     5
 42
400.0
  3
Standerd
100
AcDbAlignedDimension
 13
7292.411307402254
 23
4856.919954121019
 33
0.0
 14
7389.911307402254
 24
4456.919954121018
 34
0.0
 50
90.0
100
AcDbRotatedDimension
  0
TEXT
  5
264B
330
1F
100
AcDbEntity
  8
TXT
100
AcDbText
 10
6002.411307402254
 20
4866.919954121019
 30
0.0
 40
60.0
  1
B2-400
 41
1.5
100
AcDbText
  0
LINE
  5
264C
330
1F
100
AcDbEntity
  8
DASHED
 48
2.0
100
AcDbLine
 10
7234.911307402254
 20
4946.919954121019
 30
0.0
 11
7244.911307402253
 21
4856.919954121019
 31
0.0
  0
LINE
  5
264D
330
1F
100
AcDbEntity
  8
DASHED
 48
2.0
100
AcDbLine
 10
6624.911307402253
 20
4946.919954121019
 30
0.0
 11
6614.911307402254
 21
4856.919954121019
 31
0.0
  0
LINE
  5
264E
330
1F
100
AcDbEntity
  8
DASHED
 48
2.0
100
AcDbLine
 10
7322.786278108812
 20
4826.922297596397
 30
0.0
 11
7329.911307402254
 21
4456.919954121018
 31
0.0
  0
LINE
  5
264F
330
1F
100
AcDbEntity
  8
DASHED
 48
2.0
100
AcDbLine
 10
6567.411307402252
 20
4856.919954121019
 30
0.0
 11
7292.411307402254
 21
4856.919954121019
 31
0.0
  0
LINE
  5
2650
330
1F
100
AcDbEntity
  8
DASHED
 48
2.0
100
AcDbLine
 10
6529.911307402253
 20
4456.919954121018
 30
0.0
 11
6537.036336695695
 21
4826.922297596397
 31
0.0
  0
LWPOLYLINE
  5
2651
330
1F
100
AcDbEntity
  8
LAYER
100
AcDbPolyline
 90
        6
 70
     1
 43
0.0
 10
6469.911307402253
 20
4456.919954121018
 10
7389.911307402254
 20
4456.919954121018
 10
7389.911307402254
 20
4936.91995412102
 10
7379.911307402254
 20
4946.919954121019
 10
6479.911307402253
 20
4946.919954121019
 10
6469.911307402253
 20
4936.91995412102
  0
VIEWPORT
  5
1125
330
111E
100
AcDbEntity
 67
     1
  8
0
100
AcDbViewport
 10
5.249999639556163
 20
3.999999883606677
 30
0.0
 40
15.3246281934636
 41
8.992999745766947
 68
     1
 69
     1
 12
5.249999639556163
 22
3.999999883606677
 13
0.0
 23
0.0
 14
10.0
 24
10.0
 15
10.0
 25
10.0
 16
0.0
 26
0.0
 36
1.0
 17
0.0
 27
0.0
 37
0.0
 42
50.0
 43
0.0
 44
0.0
 45
8.992999745766947
 50
0.0
 51
0.0
 72
   100
 90
    32800
  1

281
     0
 71
     1
 74
     0
110
0.0
120
0.0
130
0.0
111
1.0
121
0.0
131
0.0
112
0.0
122
1.0
132
0.0
 79
     0
146
0.0
170
     0
  0
VIEWPORT
  5
1127
330
111E
100
AcDbEntity
 67
     1
  8
TXT
100
AcDbViewport
 10
5.24999976158142
 20
3.99999976158142
 30
0.0
 40
8.399999618530271
 41
6.399999618530272
 68
     2
 69
     2
 12
4090.0
 22
2857.5
 13
0.0
 23
0.0
 14
10.0
 24
10.0
 15
10.0
 25
10.0
 16
0.0
 26
0.0
 36
1.0
 17
0.0
 27
0.0
 37
0.0
 42
50.0
 43
0.0
 44
0.0
 45
6263.679025907926
 50
0.0
 51
0.0
 72
   100
 90
    32864
  1

281
     0
 71
     1
 74
     0
110
0.0
120
0.0
130
0.0
111
1.0
121
0.0
131
0.0
112
0.0
122
1.0
132
0.0
 79
     0
146
0.0
170
     0
  0
ENDSEC
  0
SECTION
  2
OBJECTS
  0
DICTIONARY
  5
C
330
0
100
AcDbDictionary
281
     1
  3
ACAD_COLOR
350
32E
  3
ACAD_GROUP
350
D
  3
ACAD_LAYOUT
350
1A
  3
ACAD_MATERIAL
350
32D
  3
ACAD_MLINESTYLE
350
17
  3
ACAD_PLOTSETTINGS
350
19
  3
ACAD_PLOTSTYLENAME
350
E
  0
DICTIONARY
  5
32E
102
{ACAD_REACTORS
330
C
102
}
330
C
100
AcDbDictionary
281
     1
  0
DICTIONARY
  5
D
102
{ACAD_REACTORS
330
C
102
}
330
C
100
AcDbDictionary
281
     1
  0
DICTIONARY
  5
1A
102
{ACAD_REACTORS
330
C
102
}
330
C
100
AcDbDictionary
281
     1
  3
Model
350
22
  3
レイアウト1
350
111F
  0
DICTIONARY
  5
32D
102
{ACAD_REACTORS
330
C
102
}
330
C
100
AcDbDictionary
281
     1
  0
DICTIONARY
  5
17
102
{ACAD_REACTORS
330
C
102
}
330
C
100
AcDbDictionary
281
     1
  3
Standard
350
18
  0
DICTIONARY
  5
19
102
{ACAD_REACTORS
330
C
102
}
330
C
100
AcDbDictionary
281
     1
  0
ACDBDICTIONARYWDFLT
  5
E
102
{ACAD_REACTORS
330
C
102
}
330
C
100
AcDbDictionary
281
     1
  3
Normal
350
F
100
AcDbDictionaryWithDefault
340
F
  0
LAYOUT
  5
22
102
{ACAD_REACTORS
330
1A
102
}
330
1A
100
AcDbPlotSettings
  1

  2
none_device
  4
Letter_(8.50_x_11.00_Inches)
  6

 40
6.349999904632568
 41
6.349999904632568
 42
6.350006103515625
 43
6.350006103515625
 44
215.8999938964844
 45
279.3999938964844
 46
0.0
 47
0.0
 48
0.0
 49
0.0
140
0.0
141
0.0
142
1.0
143
938.2644717309725
 70
 11920
 72
     0
 73
     1
 74
     0
  7

 75
     0
147
0.0010657975764074
 76
     0
 77
     2
 78
   150
148
21229.94326567703
149
842.9130745896639
100
AcDbLayout
  1
Model
 70
     1
 71
     0
 10
0.0
 20
0.0
 11
12.0
 21
9.0
 12
0.0
 22
0.0
 32
0.0
 14
0.0
 24
0.0
 34
0.0
 15
0.0
 25
0.0
 35
0.0
146
0.0
 13
0.0
 23
0.0
 33
0.0
 16
1.0
 26
0.0
 36
0.0
 17
0.0
 27
1.0
 37
0.0
 76
     0
330
1F
  0
LAYOUT
  5
111F
102
{ACAD_REACTORS
330
1A
102
}
330
1A
100
AcDbPlotSettings
  1

  2
none_device
  4
Letter_(8.50_x_11.00_Inches)
  6

 40
6.349999904632568
 41
6.349999904632568
 42
6.350006103515625
 43
6.350006103515625
 44
215.8999938964844
 45
279.3999938964844
 46
0.0
 47
0.0
 48
0.0
 49
0.0
140
0.0
141
0.0
142
1.0
143
1.0
 70
   688
 72
     0
 73
     1
 74
     5
  7
monochrome.ctb
 75
    16
147
1.0
 76
     1
 77
     2
 78
   150
148
0.0
149
0.0
100
AcDbLayout
  1
レイアウト1
 70
     1
 71
     1
 10
-0.2500002402958907
 20
-0.2499999962453767
 11
10.74999951940821
 21
8.249999763458731
 12
0.0
 22
0.0
 32
0.0
 14
1.049999952316284
 24
0.7999999523162842
 34
0.0
 15
9.449999570846555
 25
7.199999570846556
 35
0.0
146
0.0
 13
0.0
 23
0.0
 33
0.0
 16
1.0
 26
0.0
 36
0.0
 17
0.0
 27
1.0
 37
0.0
 76
     0
330
111E
331
1125
  0
MLINESTYLE
  5
18
102
{ACAD_REACTORS
330
17
102
}
330
17
100
AcDbMlineStyle
  2
STANDARD
 70
     0
  3

 62
   256
 51
90.0
 52
90.0
 71
     2
 49
0.5
 62
   256
  6
BYLAYER
 49
-0.5
 62
   256
  6
BYLAYER
  0
ACDBPLACEHOLDER
  5
F
102
{ACAD_REACTORS
330
E
102
}
330
E
  0
ENDSEC
  0
EOF
