  0
SECTION
  2
HEADER
  9
$ACADVER
  1
AC1018
  9
$ACADMAINTVER
 70
     0
  9
$DWGCODEPAGE
  3
ANSI_932
  9
$INSBASE
 10
0.0
 20
0.0
 30
0.0
  9
$EXTMIN
 10
29.70643997856496
 20
29.91097830691433
 30
-0.0000000000000058
  9
$EXTMAX
 10
8150.293598112524
 20
5685.089048305631
 30
0.0000000000000104
  9
$LIMMIN
 10
0.0
 20
0.0
  9
$LIMMAX
 10
8179.999999999999
 20
5715.0
  9
$ORTHOMODE
 70
     1
  9
$REGENMODE
 70
     1
  9
$FILLMODE
 70
     1
  9
$QTEXTMODE
 70
     0
  9
$MIRRTEXT
 70
     1
  9
$LTSCALE
 40
1.0
  9
$ATTMODE
 70
     1
  9
$TEXTSIZE
 40
2.5
  9
$TRACEWID
 40
1.0
  9
$TEXTSTYLE
  7
Standard
  9
$CLAYER
  8
TXT
  9
$CELTYPE
  6
ByLayer
  9
$CECOLOR
 62
   256
  9
$CELTSCALE
 40
1.0
  9
$DISPSILH
 70
     0
  9
$DIMSCALE
 40
1.0
  9
$DIMASZ
 40
40.0
  9
$DIMEXO
 40
70.0
  9
$DIMDLI
 40
150.0
  9
$DIMRND
 40
0.0
  9
$DIMDLE
 40
0.0
  9
$DIMEXE
 40
30.0
  9
$DIMTP
 40
0.0
  9
$DIMTM
 40
0.0
  9
$DIMTXT
 40
40.0
  9
$DIMCEN
 40
2.0
  9
$DIMTSZ
 40
0.0
  9
$DIMTOL
 70
     0
  9
$DIMLIM
 70
     0
  9
$DIMTIH
 70
     0
  9
$DIMTOH
 70
     0
  9
$DIMSE1
 70
     0
  9
$DIMSE2
 70
     0
  9
$DIMTAD
 70
     1
  9
$DIMZIN
 70
     8
  9
$DIMBLK
  1

  9
$DIMASO
 70
     1
  9
$DIMSHO
 70
     1
  9
$DIMPOST
  1

  9
$DIMAPOST
  1

  9
$DIMALT
 70
     0
  9
$DIMALTD
 70
     3
  9
$DIMALTF
 40
0.03937007874016
  9
$DIMLFAC
 40
1.0
  9
$DIMTOFL
 70
     0
  9
$DIMTVP
 40
0.0
  9
$DIMTIX
 70
     0
  9
$DIMSOXD
 70
     0
  9
$DIMSAH
 70
     0
  9
$DIMBLK1
  1

  9
$DIMBLK2
  1

  9
$DIMSTYLE
  2
Standerd
  9
$DIMCLRD
 70
     0
  9
$DIMCLRE
 70
     0
  9
$DIMCLRT
 70
     0
  9
$DIMTFAC
 40
1.0
  9
$DIMGAP
 40
15.0
  9
$DIMJUST
 70
     0
  9
$DIMSD1
 70
     0
  9
$DIMSD2
 70
     0
  9
$DIMTOLJ
 70
     0
  9
$DIMTZIN
 70
     8
  9
$DIMALTZ
 70
     0
  9
$DIMALTTZ
 70
     0
  9
$DIMUPT
 70
     0
  9
$DIMDEC
 70
     2
  9
$DIMTDEC
 70
     2
  9
$DIMALTU
 70
     2
  9
$DIMALTTD
 70
     3
  9
$DIMTXSTY
  7
Standard
  9
$DIMAUNIT
 70
     0
  9
$DIMADEC
 70
     0
  9
$DIMALTRND
 40
0.0
  9
$DIMAZIN
 70
     0
  9
$DIMDSEP
 70
    46
  9
$DIMATFIT
 70
     3
  9
$DIMFRAC
 70
     0
  9
$DIMLDRBLK
  1

  9
$DIMLUNIT
 70
     2
  9
$DIMLWD
 70
    -2
  9
$DIMLWE
 70
    -2
  9
$DIMTMOVE
 70
     0
  9
$LUNITS
 70
     2
  9
$LUPREC
 70
     2
  9
$SKETCHINC
 40
1.0
  9
$FILLETRAD
 40
10.0
  9
$AUNITS
 70
     0
  9
$AUPREC
 70
     0
  9
$MENU
  1
.
  9
$ELEVATION
 40
0.0
  9
$PELEVATION
 40
0.0
  9
$THICKNESS
 40
0.0
  9
$LIMCHECK
 70
     0
  9
$CHAMFERA
 40
10.0
  9
$CHAMFERB
 40
10.0
  9
$CHAMFERC
 40
20.0
  9
$CHAMFERD
 40
0.0
  9
$SKPOLY
 70
     0
  9
$TDCREATE
 40
2452621.494232755
  9
$TDUCREATE
 40
2452621.119232755
  9
$TDUPDATE
 40
2453885.788454410
  9
$TDUUPDATE
 40
2453885.413454410
  9
$TDINDWG
 40
0.1771998958
  9
$TDUSRTIMER
 40
0.1771998958
  9
$USRTIMER
 70
     1
  9
$ANGBASE
 50
0.0
  9
$ANGDIR
 70
     0
  9
$PDMODE
 70
     0
  9
$PDSIZE
 40
0.0
  9
$PLINEWID
 40
0.0
  9
$SPLFRAME
 70
     0
  9
$SPLINETYPE
 70
     6
  9
$SPLINESEGS
 70
     8
  9
$HANDSEED
  5
1D05
  9
$SURFTAB1
 70
     6
  9
$SURFTAB2
 70
     6
  9
$SURFTYPE
 70
     6
  9
$SURFU
 70
     6
  9
$SURFV
 70
     6
  9
$UCSBASE
  2

  9
$UCSNAME
  2

  9
$UCSORG
 10
0.0
 20
0.0
 30
0.0
  9
$UCSXDIR
 10
1.0
 20
0.0
 30
0.0
  9
$UCSYDIR
 10
0.0
 20
1.0
 30
0.0
  9
$UCSORTHOREF
  2

  9
$UCSORTHOVIEW
 70
     0
  9
$UCSORGTOP
 10
0.0
 20
0.0
 30
0.0
  9
$UCSORGBOTTOM
 10
0.0
 20
0.0
 30
0.0
  9
$UCSORGLEFT
 10
0.0
 20
0.0
 30
0.0
  9
$UCSORGRIGHT
 10
0.0
 20
0.0
 30
0.0
  9
$UCSORGFRONT
 10
0.0
 20
0.0
 30
0.0
  9
$UCSORGBACK
 10
0.0
 20
0.0
 30
0.0
  9
$PUCSBASE
  2

  9
$PUCSNAME
  2

  9
$PUCSORG
 10
0.0
 20
0.0
 30
0.0
  9
$PUCSXDIR
 10
1.0
 20
0.0
 30
0.0
  9
$PUCSYDIR
 10
0.0
 20
1.0
 30
0.0
  9
$PUCSORTHOREF
  2

  9
$PUCSORTHOVIEW
 70
     0
  9
$PUCSORGTOP
 10
0.0
 20
0.0
 30
0.0
  9
$PUCSORGBOTTOM
 10
0.0
 20
0.0
 30
0.0
  9
$PUCSORGLEFT
 10
0.0
 20
0.0
 30
0.0
  9
$PUCSORGRIGHT
 10
0.0
 20
0.0
 30
0.0
  9
$PUCSORGFRONT
 10
0.0
 20
0.0
 30
0.0
  9
$PUCSORGBACK
 10
0.0
 20
0.0
 30
0.0
  9
$USERI1
 70
     0
  9
$USERI2
 70
     0
  9
$USERI3
 70
     0
  9
$USERI4
 70
     0
  9
$USERI5
 70
     0
  9
$USERR1
 40
0.0
  9
$USERR2
 40
0.0
  9
$USERR3
 40
0.0
  9
$USERR4
 40
0.0
  9
$USERR5
 40
0.0
  9
$WORLDVIEW
 70
     1
  9
$SHADEDGE
 70
     3
  9
$SHADEDIF
 70
    70
  9
$TILEMODE
 70
     1
  9
$MAXACTVP
 70
    64
  9
$PINSBASE
 10
0.0
 20
0.0
 30
0.0
  9
$PLIMCHECK
 70
     0
  9
$PEXTMIN
 10
1.049999952316284
 20
0.7999999523162842
 30
0.0
  9
$PEXTMAX
 10
9.449999570846555
 20
7.199999570846556
 30
0.0
  9
$PLIMMIN
 10
-0.2500002402958907
 20
-0.2499999962453767
  9
$PLIMMAX
 10
10.74999951940821
 20
8.249999763458731
  9
$UNITMODE
 70
     0
  9
$VISRETAIN
 70
     1
  9
$PLINEGEN
 70
     0
  9
$PSLTSCALE
 70
     1
  9
$TREEDEPTH
 70
  3020
  9
$CMLSTYLE
  2
Standard
  9
$CMLJUST
 70
     0
  9
$CMLSCALE
 40
20.0
  9
$PROXYGRAPHICS
 70
     1
  9
$MEASUREMENT
 70
     1
  9
$CELWEIGHT
370
    -1
  9
$ENDCAPS
280
     0
  9
$JOINSTYLE
280
     0
  9
$LWDISPLAY
290
     0
  9
$INSUNITS
 70
     4
  9
$HYPERLINKBASE
  1

  9
$STYLESHEET
  1

  9
$XEDIT
290
     1
  9
$CEPSNTYPE
380
     0
  9
$PSTYLEMODE
290
     1
  9
$FINGERPRINTGUID
  2
{6E626E7D-BCE8-4A34-9F3D-2964C1FA831F}
  9
$VERSIONGUID
  2
{0F905904-5BE3-450A-8F6F-8A89A45EB3EB}
  9
$EXTNAMES
290
     1
  9
$PSVPSCALE
 40
0.0
  9
$OLESTARTUP
290
     0
  9
$SORTENTS
280
   127
  9
$INDEXCTL
280
     0
  9
$HIDETEXT
280
     0
  9
$XCLIPFRAME
290
     0
  9
$HALOGAP
280
     0
  9
$OBSCOLOR
 70
   257
  9
$OBSLTYPE
280
     0
  9
$INTERSECTIONDISPLAY
280
     0
  9
$INTERSECTIONCOLOR
 70
   257
  9
$DIMASSOC
280
     1
  9
$PROJECTNAME
  1

  0
ENDSEC
  0
SECTION
  2
CLASSES
  0
CLASS
  1
ACDBDICTIONARYWDFLT
  2
AcDbDictionaryWithDefault
  3
ObjectDBX Classes
 90
        0
 91
        1
280
     0
281
     0
  0
ENDSEC
  0
SECTION
  2
TABLES
  0
TABLE
  2
VPORT
  5
8
330
0
100
AcDbSymbolTable
 70
     4
  0
VPORT
  5
1D04
330
8
100
AcDbSymbolTableRecord
100
AcDbViewportTableRecord
  2
*Active
 70
     0
 10
0.0
 20
0.0
 11
1.0
 21
1.0
 12
4090.000019045545
 22
2857.500013306274
 13
0.0
 23
0.0
 14
10.0
 24
10.0
 15
10.0
 25
10.0
 16
0.0
 26
0.0
 36
1.0
 17
0.0
 27
0.0
 37
0.0
 40
5720.682063087506
 41
1.704061895551257
 42
50.0
 43
0.0
 44
0.0
 50
0.0
 51
0.0
 71
     0
 72
   100
 73
     1
 74
     3
 75
     0
 76
     0
 77
     0
 78
     0
281
     0
 65
     1
110
0.0
120
0.0
130
0.0
111
1.0
121
0.0
131
0.0
112
0.0
122
1.0
132
0.0
 79
     0
146
0.0
  0
ENDTAB
  0
TABLE
  2
LTYPE
  5
5
330
0
100
AcDbSymbolTable
 70
     3
  0
LTYPE
  5
14
330
5
100
AcDbSymbolTableRecord
100
AcDbLinetypeTableRecord
  2
ByBlock
 70
     0
  3

 72
    65
 73
     0
 40
0.0
  0
LTYPE
  5
15
330
5
100
AcDbSymbolTableRecord
100
AcDbLinetypeTableRecord
  2
ByLayer
 70
     0
  3

 72
    65
 73
     0
 40
0.0
  0
LTYPE
  5
16
330
5
100
AcDbSymbolTableRecord
100
AcDbLinetypeTableRecord
  2
Continuous
 70
     0
  3
Solid line
 72
    65
 73
     0
 40
0.0
  0
LTYPE
  5
35
330
5
100
AcDbSymbolTableRecord
100
AcDbLinetypeTableRecord
  2
DASHED
 70
     0
  3
Dashed __ __ __ __ __ __ __ __ __ __ __ __ __ _
 72
    65
 73
     2
 40
19.05
 49
12.7
 74
     0
 49
-6.349999999999999
 74
     0
  0
LTYPE
  5
36
330
5
100
AcDbSymbolTableRecord
100
AcDbLinetypeTableRecord
  2
CENTER
 70
     0
  3
Center ____ _ ____ _ ____ _ ____ _ ____ _ ____
 72
    65
 73
     4
 40
50.8
 49
31.75
 74
     0
 49
-6.349999999999999
 74
     0
 49
6.349999999999999
 74
     0
 49
-6.349999999999999
 74
     0
  0
ENDTAB
  0
TABLE
  2
LAYER
  5
2
330
0
100
AcDbSymbolTable
 70
    16
  0
LAYER
  5
10
330
2
100
AcDbSymbolTableRecord
100
AcDbLayerTableRecord
  2
0
 70
     0
 62
     7
  6
Continuous
370
    -3
390
F
  0
LAYER
  5
37
330
2
100
AcDbSymbolTableRecord
100
AcDbLayerTableRecord
  2
DASHED
 70
     0
 62
     7
  6
DASHED
370
    -3
390
F
  0
LAYER
  5
38
330
2
100
AcDbSymbolTableRecord
100
AcDbLayerTableRecord
  2
DIM
 70
     0
 62
     7
  6
Continuous
370
    -3
390
F
  0
LAYER
  5
39
330
2
100
AcDbSymbolTableRecord
100
AcDbLayerTableRecord
  2
LATER
 70
     0
 62
     7
  6
Continuous
370
    -3
390
F
  0
LAYER
  5
3A
330
2
100
AcDbSymbolTableRecord
100
AcDbLayerTableRecord
  2
CENTER
 70
     0
 62
     7
  6
CENTER
370
    -3
390
F
  0
LAYER
  5
3B
330
2
100
AcDbSymbolTableRecord
100
AcDbLayerTableRecord
  2
TXT
 70
     0
 62
     7
  6
Continuous
370
    -3
390
F
  0
LAYER
  5
58
330
2
100
AcDbSymbolTableRecord
100
AcDbLayerTableRecord
  2
FLAM
 70
     0
 62
     5
  6
Continuous
370
    -3
390
F
  0
LAYER
  5
59
330
2
100
AcDbSymbolTableRecord
100
AcDbLayerTableRecord
  2
LAYER
 70
     0
 62
     7
  6
Continuous
370
    -3
390
F
  0
LAYER
  5
97
330
2
100
AcDbSymbolTableRecord
100
AcDbLayerTableRecord
  2
Defpoints
 70
     0
 62
     7
  6
Continuous
290
     0
370
    -3
390
F
  0
LAYER
  5
12E
330
2
100
AcDbSymbolTableRecord
100
AcDbLayerTableRecord
  2
LAYER2
 70
     0
 62
     7
  6
Continuous
370
    -3
390
F
  0
LAYER
  5
4B9
330
2
100
AcDbSymbolTableRecord
100
AcDbLayerTableRecord
  2
NO
 70
     0
 62
     7
  6
Continuous
370
    -3
390
F
  0
LAYER
  5
4BA
330
2
100
AcDbSymbolTableRecord
100
AcDbLayerTableRecord
  2
NO2
 70
     0
 62
     7
  6
DASHED
370
    -3
390
F
  0
LAYER
  5
50E
330
2
100
AcDbSymbolTableRecord
100
AcDbLayerTableRecord
  2
CR
 70
     0
 62
     7
  6
Continuous
370
    -3
390
F
  0
LAYER
  5
CD5
330
2
100
AcDbSymbolTableRecord
100
AcDbLayerTableRecord
  2
DIM2
 70
     0
 62
     7
  6
Continuous
370
    -3
390
F
  0
LAYER
  5
CD6
330
2
100
AcDbSymbolTableRecord
100
AcDbLayerTableRecord
  2
TEXT
 70
     0
 62
     7
  6
Continuous
370
    -3
390
F
  0
LAYER
  5
1244
330
2
100
AcDbSymbolTableRecord
100
AcDbLayerTableRecord
  2
DASHU
 70
     0
 62
     5
  6
DASHED
370
    -3
390
F
  0
ENDTAB
  0
TABLE
  2
STYLE
  5
3
330
0
100
AcDbSymbolTable
 70
     2
  0
STYLE
  5
11
330
3
100
AcDbSymbolTableRecord
100
AcDbTextStyleTableRecord
  2
Standard
 70
     0
 40
0.0
 41
1.0
 50
0.0
 71
     0
 42
2.5
  3
isocp.shx
  4
extfont.shx
  0
STYLE
  5
34
330
3
100
AcDbSymbolTableRecord
100
AcDbTextStyleTableRecord
  2

 70
     1
 40
0.0
 41
1.0
 50
0.0
 71
     0
 42
2.5
  3
ltypeshp.shx
  4

  0
ENDTAB
  0
TABLE
  2
VIEW
  5
6
330
0
100
AcDbSymbolTable
 70
     0
  0
ENDTAB
  0
TABLE
  2
UCS
  5
7
330
0
100
AcDbSymbolTable
 70
     0
  0
ENDTAB
  0
TABLE
  2
APPID
  5
9
330
0
100
AcDbSymbolTable
 70
     1
  0
APPID
  5
12
330
9
100
AcDbSymbolTableRecord
100
AcDbRegAppTableRecord
  2
ACAD
 70
     0
  0
ENDTAB
  0
TABLE
  2
DIMSTYLE
  5
A
330
0
100
AcDbSymbolTable
 70
     5
100
AcDbDimStyleTable
 71
     1
340
27
  0
DIMSTYLE
105
27
102
{ACAD_REACTORS
330
12A4
330
12A5
330
12A6
330
12A7
330
12A8
330
12A9
330
12AB
330
12AC
330
12AD
330
12AE
330
12AF
330
12B0
330
1591
330
1BD6
330
1BD7
330
1BD8
330
1BD9
330
1BDA
330
1BDC
330
1BDD
330
1BE2
102
}
330
A
100
AcDbSymbolTableRecord
100
AcDbDimStyleTableRecord
  2
Standerd
 70
     0
 41
40.0
 42
70.0
 43
150.0
 44
30.0
 73
     0
 74
     0
 77
     1
 78
     8
140
40.0
141
2.0
143
0.03937007874016
147
15.0
171
     3
271
     2
272
     2
274
     3
283
     0
284
     8
340
11
  0
DIMSTYLE
105
5A
330
A
100
AcDbSymbolTableRecord
100
AcDbDimStyleTableRecord
  2
ISO-25
 70
     0
 41
2.5
 42
0.625
 43
3.75
 44
1.25
 73
     0
 74
     0
 77
     1
 78
     8
140
2.5
141
2.5
143
0.03937007874016
147
0.625
171
     3
172
     1
271
     2
272
     2
274
     3
283
     0
284
     8
340
11
  0
DIMSTYLE
105
5B
330
A
100
AcDbSymbolTableRecord
100
AcDbDimStyleTableRecord
  2
STANDARD
 70
     0
 41
2.0
 42
1.75
 43
5.75
 44
1.3
 73
     0
 74
     0
 77
     1
 78
     8
 79
     2
140
1.75
141
2.5
143
0.03937007874016
147
0.65
171
     3
172
     1
271
     3
272
     3
274
     3
276
     2
283
     0
284
     8
340
11
  0
DIMSTYLE
105
3E1
102
{ACAD_REACTORS
330
3F8
330
1BC8
102
}
330
A
100
AcDbSymbolTableRecord
100
AcDbDimStyleTableRecord
  2
Standerd1
 70
     0
 41
40.0
 42
35.0
 43
150.0
 44
30.0
 73
     0
 74
     0
 77
     1
 78
     8
140
40.0
141
20.0
143
0.03937007874016
147
15.0
171
     3
271
     2
272
     2
274
     3
283
     0
284
     8
340
11
  0
DIMSTYLE
105
4BB
102
{ACAD_REACTORS
330
4E6
330
4E7
330
4E8
102
}
330
A
100
AcDbSymbolTableRecord
100
AcDbDimStyleTableRecord
  2
Standerd2
 70
     0
 41
40.0
 42
35.0
 43
150.0
 44
30.0
 73
     0
 74
     0
 77
     1
 78
     8
140
40.0
141
2.0
143
0.03937007874016
147
15.0
171
     3
271
     2
272
     2
274
     3
283
     0
284
     8
340
11
  0
ENDTAB
  0
TABLE
  2
BLOCK_RECORD
  5
1
330
0
100
AcDbSymbolTable
 70
   108
  0
BLOCK_RECORD
  5
1F
330
1
100
AcDbSymbolTableRecord
100
AcDbBlockTableRecord
  2
*Model_Space
340
22
  0
BLOCK_RECORD
  5
111E
330
1
100
AcDbSymbolTableRecord
100
AcDbBlockTableRecord
  2
*Paper_Space
340
111F
  0
BLOCK_RECORD
  5
5C
330
1
100
AcDbSymbolTableRecord
100
AcDbBlockTableRecord
  2
A$C0D8837DC
340
0
  0
BLOCK_RECORD
  5
338
330
1
100
AcDbSymbolTableRecord
100
AcDbBlockTableRecord
  2
*D1
340
0
  0
BLOCK_RECORD
  5
344
330
1
100
AcDbSymbolTableRecord
100
AcDbBlockTableRecord
  2
*D2
340
0
  0
BLOCK_RECORD
  5
350
330
1
100
AcDbSymbolTableRecord
100
AcDbBlockTableRecord
  2
*D3
340
0
  0
BLOCK_RECORD
  5
35C
330
1
100
AcDbSymbolTableRecord
100
AcDbBlockTableRecord
  2
*D4
340
0
  0
BLOCK_RECORD
  5
368
330
1
100
AcDbSymbolTableRecord
100
AcDbBlockTableRecord
  2
*D5
340
0
  0
BLOCK_RECORD
  5
374
330
1
100
AcDbSymbolTableRecord
100
AcDbBlockTableRecord
  2
*D6
340
0
  0
BLOCK_RECORD
  5
380
330
1
100
AcDbSymbolTableRecord
100
AcDbBlockTableRecord
  2
*D7
340
0
  0
BLOCK_RECORD
  5
38C
330
1
100
AcDbSymbolTableRecord
100
AcDbBlockTableRecord
  2
*D8
340
0
  0
BLOCK_RECORD
  5
398
330
1
100
AcDbSymbolTableRecord
100
AcDbBlockTableRecord
  2
*D9
340
0
  0
BLOCK_RECORD
  5
3A4
330
1
100
AcDbSymbolTableRecord
100
AcDbBlockTableRecord
  2
*D10
340
0
  0
BLOCK_RECORD
  5
3B0
330
1
100
AcDbSymbolTableRecord
100
AcDbBlockTableRecord
  2
*D11
340
0
  0
BLOCK_RECORD
  5
3BD
330
1
100
AcDbSymbolTableRecord
100
AcDbBlockTableRecord
  2
*D12
340
0
  0
BLOCK_RECORD
  5
3C9
330
1
100
AcDbSymbolTableRecord
100
AcDbBlockTableRecord
  2
*D13
340
0
  0
BLOCK_RECORD
  5
3D5
330
1
100
AcDbSymbolTableRecord
100
AcDbBlockTableRecord
  2
*D14
340
0
  0
BLOCK_RECORD
  5
3E2
330
1
100
AcDbSymbolTableRecord
100
AcDbBlockTableRecord
  2
B2-750
340
0
1001
ACAD
1000
DesignCenter Data
1002
{
1070
     1
1070
     4
1002
}
  0
BLOCK_RECORD
  5
40E
330
1
100
AcDbSymbolTableRecord
100
AcDbBlockTableRecord
  2
*D16
340
0
  0
BLOCK_RECORD
  5
41A
330
1
100
AcDbSymbolTableRecord
100
AcDbBlockTableRecord
  2
*D17
340
0
  0
BLOCK_RECORD
  5
426
330
1
100
AcDbSymbolTableRecord
100
AcDbBlockTableRecord
  2
*D18
340
0
  0
BLOCK_RECORD
  5
432
330
1
100
AcDbSymbolTableRecord
100
AcDbBlockTableRecord
  2
*D19
340
0
  0
BLOCK_RECORD
  5
43E
330
1
100
AcDbSymbolTableRecord
100
AcDbBlockTableRecord
  2
*D20
340
0
  0
BLOCK_RECORD
  5
44A
330
1
100
AcDbSymbolTableRecord
100
AcDbBlockTableRecord
  2
*D21
340
0
  0
BLOCK_RECORD
  5
456
330
1
100
AcDbSymbolTableRecord
100
AcDbBlockTableRecord
  2
*D22
340
0
  0
BLOCK_RECORD
  5
462
330
1
100
AcDbSymbolTableRecord
100
AcDbBlockTableRecord
  2
*D23
340
0
  0
BLOCK_RECORD
  5
46E
330
1
100
AcDbSymbolTableRecord
100
AcDbBlockTableRecord
  2
*D24
340
0
  0
BLOCK_RECORD
  5
47B
330
1
100
AcDbSymbolTableRecord
100
AcDbBlockTableRecord
  2
*D25
340
0
  0
BLOCK_RECORD
  5
488
330
1
100
AcDbSymbolTableRecord
100
AcDbBlockTableRecord
  2
*D26
340
0
  0
BLOCK_RECORD
  5
494
330
1
100
AcDbSymbolTableRecord
100
AcDbBlockTableRecord
  2
*D27
340
0
  0
BLOCK_RECORD
  5
4A1
330
1
100
AcDbSymbolTableRecord
100
AcDbBlockTableRecord
  2
*D28
340
0
  0
BLOCK_RECORD
  5
4AD
330
1
100
AcDbSymbolTableRecord
100
AcDbBlockTableRecord
  2
*D29
340
0
  0
BLOCK_RECORD
  5
4BC
330
1
100
AcDbSymbolTableRecord
100
AcDbBlockTableRecord
  2
B1-750
340
0
1001
ACAD
1000
DesignCenter Data
1002
{
1070
     1
1070
     4
1002
}
  0
BLOCK_RECORD
  5
4F6
330
1
100
AcDbSymbolTableRecord
100
AcDbBlockTableRecord
  2
*D31
340
0
  0
BLOCK_RECORD
  5
502
330
1
100
AcDbSymbolTableRecord
100
AcDbBlockTableRecord
  2
*D32
340
0
  0
BLOCK_RECORD
  5
50F
330
1
100
AcDbSymbolTableRecord
100
AcDbBlockTableRecord
  2
B2-top
340
0
1001
ACAD
1000
DesignCenter Data
1002
{
1070
     1
1070
     4
1002
}
  0
BLOCK_RECORD
  5
CA8
330
1
100
AcDbSymbolTableRecord
100
AcDbBlockTableRecord
  2
A4
340
0
  0
BLOCK_RECORD
  5
CD7
330
1
100
AcDbSymbolTableRecord
100
AcDbBlockTableRecord
  2
A3展開図dwg
340
0
1001
ACAD
1000
DesignCenter Data
1002
{
1070
     1
1070
     4
1002
}
  0
BLOCK_RECORD
  5
11B1
330
1
100
AcDbSymbolTableRecord
100
AcDbBlockTableRecord
  2
*D36
340
0
  0
BLOCK_RECORD
  5
11BD
330
1
100
AcDbSymbolTableRecord
100
AcDbBlockTableRecord
  2
*D37
340
0
  0
BLOCK_RECORD
  5
11C9
330
1
100
AcDbSymbolTableRecord
100
AcDbBlockTableRecord
  2
*D38
340
0
  0
BLOCK_RECORD
  5
11D5
330
1
100
AcDbSymbolTableRecord
100
AcDbBlockTableRecord
  2
*D39
340
0
  0
BLOCK_RECORD
  5
11E2
330
1
100
AcDbSymbolTableRecord
100
AcDbBlockTableRecord
  2
*D40
340
0
  0
BLOCK_RECORD
  5
11EE
330
1
100
AcDbSymbolTableRecord
100
AcDbBlockTableRecord
  2
*D41
340
0
  0
BLOCK_RECORD
  5
11FA
330
1
100
AcDbSymbolTableRecord
100
AcDbBlockTableRecord
  2
*D42
340
0
  0
BLOCK_RECORD
  5
1206
330
1
100
AcDbSymbolTableRecord
100
AcDbBlockTableRecord
  2
*D43
340
0
  0
BLOCK_RECORD
  5
1212
330
1
100
AcDbSymbolTableRecord
100
AcDbBlockTableRecord
  2
*D44
340
0
  0
BLOCK_RECORD
  5
121E
330
1
100
AcDbSymbolTableRecord
100
AcDbBlockTableRecord
  2
*D45
340
0
  0
BLOCK_RECORD
  5
122A
330
1
100
AcDbSymbolTableRecord
100
AcDbBlockTableRecord
  2
*D46
340
0
  0
BLOCK_RECORD
  5
1237
330
1
100
AcDbSymbolTableRecord
100
AcDbBlockTableRecord
  2
*D47
340
0
  0
BLOCK_RECORD
  5
1245
330
1
100
AcDbSymbolTableRecord
100
AcDbBlockTableRecord
  2
A$C15FB3F57
340
0
  0
BLOCK_RECORD
  5
12BB
330
1
100
AcDbSymbolTableRecord
100
AcDbBlockTableRecord
  2
*D49
340
0
  0
BLOCK_RECORD
  5
12C8
330
1
100
AcDbSymbolTableRecord
100
AcDbBlockTableRecord
  2
*D50
340
0
  0
BLOCK_RECORD
  5
12D5
330
1
100
AcDbSymbolTableRecord
100
AcDbBlockTableRecord
  2
*D51
340
0
  0
BLOCK_RECORD
  5
12E1
330
1
100
AcDbSymbolTableRecord
100
AcDbBlockTableRecord
  2
*D52
340
0
  0
BLOCK_RECORD
  5
12ED
330
1
100
AcDbSymbolTableRecord
100
AcDbBlockTableRecord
  2
*D53
340
0
  0
BLOCK_RECORD
  5
12F9
330
1
100
AcDbSymbolTableRecord
100
AcDbBlockTableRecord
  2
*D54
340
0
  0
BLOCK_RECORD
  5
1305
330
1
100
AcDbSymbolTableRecord
100
AcDbBlockTableRecord
  2
*D55
340
0
  0
BLOCK_RECORD
  5
1311
330
1
100
AcDbSymbolTableRecord
100
AcDbBlockTableRecord
  2
*D56
340
0
  0
BLOCK_RECORD
  5
131D
330
1
100
AcDbSymbolTableRecord
100
AcDbBlockTableRecord
  2
*D57
340
0
  0
BLOCK_RECORD
  5
132A
330
1
100
AcDbSymbolTableRecord
100
AcDbBlockTableRecord
  2
*D58
340
0
  0
BLOCK_RECORD
  5
1336
330
1
100
AcDbSymbolTableRecord
100
AcDbBlockTableRecord
  2
*D59
340
0
  0
BLOCK_RECORD
  5
1342
330
1
100
AcDbSymbolTableRecord
100
AcDbBlockTableRecord
  2
*D60
340
0
  0
BLOCK_RECORD
  5
1592
330
1
100
AcDbSymbolTableRecord
100
AcDbBlockTableRecord
  2
*D61
340
0
  0
BLOCK_RECORD
  5
1A11
330
1
100
AcDbSymbolTableRecord
100
AcDbBlockTableRecord
  2
*D80
340
0
  0
BLOCK_RECORD
  5
1A1D
330
1
100
AcDbSymbolTableRecord
100
AcDbBlockTableRecord
  2
*D81
340
0
  0
BLOCK_RECORD
  5
1A29
330
1
100
AcDbSymbolTableRecord
100
AcDbBlockTableRecord
  2
*D82
340
0
  0
BLOCK_RECORD
  5
1A36
330
1
100
AcDbSymbolTableRecord
100
AcDbBlockTableRecord
  2
*D83
340
0
  0
BLOCK_RECORD
  5
1A42
330
1
100
AcDbSymbolTableRecord
100
AcDbBlockTableRecord
  2
*D84
340
0
  0
BLOCK_RECORD
  5
1A4F
330
1
100
AcDbSymbolTableRecord
100
AcDbBlockTableRecord
  2
*D85
340
0
  0
BLOCK_RECORD
  5
1A5B
330
1
100
AcDbSymbolTableRecord
100
AcDbBlockTableRecord
  2
*D86
340
0
  0
BLOCK_RECORD
  5
1A67
330
1
100
AcDbSymbolTableRecord
100
AcDbBlockTableRecord
  2
*D87
340
0
  0
BLOCK_RECORD
  5
1A73
330
1
100
AcDbSymbolTableRecord
100
AcDbBlockTableRecord
  2
*D88
340
0
  0
BLOCK_RECORD
  5
1B3C
330
1
100
AcDbSymbolTableRecord
100
AcDbBlockTableRecord
  2
*D89
340
0
  0
BLOCK_RECORD
  5
1B48
330
1
100
AcDbSymbolTableRecord
100
AcDbBlockTableRecord
  2
*D90
340
0
  0
BLOCK_RECORD
  5
1B54
330
1
100
AcDbSymbolTableRecord
100
AcDbBlockTableRecord
  2
*D91
340
0
  0
BLOCK_RECORD
  5
1B60
330
1
100
AcDbSymbolTableRecord
100
AcDbBlockTableRecord
  2
*D92
340
0
  0
BLOCK_RECORD
  5
1B6C
330
1
100
AcDbSymbolTableRecord
100
AcDbBlockTableRecord
  2
*D93
340
0
  0
BLOCK_RECORD
  5
1B78
330
1
100
AcDbSymbolTableRecord
100
AcDbBlockTableRecord
  2
*D94
340
0
  0
BLOCK_RECORD
  5
1B84
330
1
100
AcDbSymbolTableRecord
100
AcDbBlockTableRecord
  2
*D95
340
0
  0
BLOCK_RECORD
  5
1B91
330
1
100
AcDbSymbolTableRecord
100
AcDbBlockTableRecord
  2
*D96
340
0
  0
BLOCK_RECORD
  5
1B9D
330
1
100
AcDbSymbolTableRecord
100
AcDbBlockTableRecord
  2
*D97
340
0
  0
BLOCK_RECORD
  5
1BE3
330
1
100
AcDbSymbolTableRecord
100
AcDbBlockTableRecord
  2
*D99
340
0
  0
BLOCK_RECORD
  5
1BEF
330
1
100
AcDbSymbolTableRecord
100
AcDbBlockTableRecord
  2
*D100
340
0
  0
BLOCK_RECORD
  5
1BFB
330
1
100
AcDbSymbolTableRecord
100
AcDbBlockTableRecord
  2
*D101
340
0
  0
BLOCK_RECORD
  5
1C08
330
1
100
AcDbSymbolTableRecord
100
AcDbBlockTableRecord
  2
*D102
340
0
  0
BLOCK_RECORD
  5
1C14
330
1
100
AcDbSymbolTableRecord
100
AcDbBlockTableRecord
  2
*D103
340
0
  0
BLOCK_RECORD
  5
1C20
330
1
100
AcDbSymbolTableRecord
100
AcDbBlockTableRecord
  2
*D104
340
0
  0
BLOCK_RECORD
  5
1C2C
330
1
100
AcDbSymbolTableRecord
100
AcDbBlockTableRecord
  2
*D105
340
0
  0
BLOCK_RECORD
  5
1C38
330
1
100
AcDbSymbolTableRecord
100
AcDbBlockTableRecord
  2
*D106
340
0
  0
BLOCK_RECORD
  5
1C44
330
1
100
AcDbSymbolTableRecord
100
AcDbBlockTableRecord
  2
*D107
340
0
  0
ENDTAB
  0
ENDSEC
  0
SECTION
  2
BLOCKS
  0
BLOCK
  5
20
330
1F
100
AcDbEntity
  8
0
100
AcDbBlockBegin
  2
*Model_Space
 70
     0
 10
0.0
 20
0.0
 30
0.0
  3
*Model_Space
  1

  0
ENDBLK
  5
21
330
1F
100
AcDbEntity
  8
0
100
AcDbBlockEnd
  0
BLOCK
  5
1120
330
111E
100
AcDbEntity
 67
     1
  8
0
100
AcDbBlockBegin
  2
*Paper_Space
 70
     0
 10
0.0
 20
0.0
 30
0.0
  3
*Paper_Space
  1

  0
ENDBLK
  5
1121
330
111E
100
AcDbEntity
 67
     1
  8
0
100
AcDbBlockEnd
  0
BLOCK
  5
87
330
5C
100
AcDbEntity
  8
0
100
AcDbBlockBegin
  2
A$C0D8837DC
 70
     0
 10
0.0
 20
0.0
 30
0.0
  3
A$C0D8837DC
  1

  0
LINE
  5
5D
330
5C
100
AcDbEntity
  8
FLAM
100
AcDbLine
 10
34.99999953015538
 20
11.25000005996003
 30
0.0
 11
209.9999995301553
 21
11.25000005996003
 31
0.0
  0
LINE
  5
5E
330
5C
100
AcDbEntity
  8
FLAM
100
AcDbLine
 10
34.99999953015538
 20
3.750000059960029
 30
0.0
 11
209.9999995301553
 21
3.75000005996003
 31
0.0
  0
LINE
  5
5F
330
5C
100
AcDbEntity
  8
LAYER
100
AcDbLine
 10
34.99999953015538
 20
7.500000059960029
 30
0.0
 11
209.9999995301553
 21
7.500000059960029
 31
0.0
  0
LINE
  5
60
330
5C
100
AcDbEntity
  8
LAYER
100
AcDbLine
 10
-0.0000004698446219
 20
15.00000005996003
 30
0.0
 11
405.9999995301553
 21
15.00000005996003
 31
0.0
  0
LWPOLYLINE
  5
61
330
5C
100
AcDbEntity
  8
LAYER
100
AcDbPolyline
 90
        4
 70
     1
 43
0.0
 10
-0.0000004698446219
 20
0.0000000599600298
 10
-0.0000004698446219
 20
282.75000005996
 10
405.9999995301553
 20
282.75000005996
 10
405.9999995301553
 20
0.0000000599600298
  0
VIEWPORT
  5
62
330
5C
100
AcDbEntity
  8
0
100
AcDbViewport
 10
202.9999995301554
 20
148.87500005996
 30
0.0
 40
405.9999999999999
 41
267.75
 69
     0
 12
228.1209015211101
 22
160.8176196896051
 13
0.0
 23
0.0
 14
10.0
 24
10.0
 15
10.0
 25
10.0
 16
0.0
 26
0.0
 36
1.0
 17
0.0
 27
0.0
 37
0.0
 42
50.0
 43
0.0
 44
0.0
 45
267.75
 50
0.0
 51
0.0
 72
   100
 90
    32864
  1

281
     0
 71
     1
 74
     0
110
0.0
120
0.0
130
0.0
111
1.0
121
0.0
131
0.0
112
0.0
122
1.0
132
0.0
 79
     0
146
0.0
170
     0
  0
TEXT
  5
63
330
5C
100
AcDbEntity
  8
LAYER
100
AcDbText
 10
2.049999530155377
 20
5.00000005996003
 30
0.0
 40
5.0
  1
種類・呼び名
 41
0.9
 72
     4
 11
17.49999953015538
 21
7.500000059960029
 31
0.0
100
AcDbText
  0
LINE
  5
64
330
5C
100
AcDbEntity
  8
LAYER
100
AcDbLine
 10
34.99999953015538
 20
15.00000005996003
 30
0.0
 11
34.99999953015538
 21
0.0000000599600298
 31
0.0
  0
LINE
  5
65
330
5C
100
AcDbEntity
  8
FLAM
100
AcDbLine
 10
122.4999995301553
 20
7.500000059960029
 30
0.0
 11
122.4999995301553
 21
0.0000000599600298
 31
0.0
  0
LINE
  5
66
330
5C
100
AcDbEntity
  8
FLAM
100
AcDbLine
 10
122.4999995301553
 20
7.500000059960029
 30
0.0
 11
122.4999995301553
 21
15.00000005996003
 31
0.0
  0
LINE
  5
67
330
5C
100
AcDbEntity
  8
LAYER
100
AcDbLine
 10
309.9999995301553
 20
10.00000005996003
 30
0.0
 11
345.9999995301553
 21
10.00000005996003
 31
0.0
  0
LINE
  5
68
330
5C
100
AcDbEntity
  8
FLAM
100
AcDbLine
 10
216.9999995301553
 20
11.25000005996003
 30
0.0
 11
309.9999995301553
 21
11.25000005996003
 31
0.0
  0
LINE
  5
69
330
5C
100
AcDbEntity
  8
FLAM
100
AcDbLine
 10
216.9999995301553
 20
3.75000005996003
 30
0.0
 11
309.9999995301553
 21
3.750000059960029
 31
0.0
  0
LINE
  5
6A
330
5C
100
AcDbEntity
  8
FLAM
100
AcDbLine
 10
216.9999995301553
 20
7.500000059960029
 30
0.0
 11
309.9999995301553
 21
7.500000059960029
 31
0.0
  0
TEXT
  5
6B
330
5C
100
AcDbEntity
  8
LAYER
100
AcDbText
 10
211.6333328634886
 20
1.883333393293362
 30
0.0
 40
4.0
  1
要
 72
     4
 11
213.4999995301553
 21
3.750000059960029
 31
0.0
100
AcDbText
  0
LINE
  5
6C
330
5C
100
AcDbEntity
  8
FLAM
100
AcDbLine
 10
263.4999995301553
 20
7.500000059960029
 30
0.0
 11
263.4999995301553
 21
0.0000000599600298
 31
0.0
  0
LINE
  5
6D
330
5C
100
AcDbEntity
  8
LAYER
100
AcDbLine
 10
216.9999995301553
 20
15.00000005996003
 30
0.0
 11
216.9999995301553
 21
0.0000000599600298
 31
0.0
  0
LINE
  5
6E
330
5C
100
AcDbEntity
  8
LAYER
100
AcDbLine
 10
209.9999995301553
 20
15.00000005996003
 30
0.0
 11
209.9999995301553
 21
0.0000000599600298
 31
0.0
  0
TEXT
  5
6F
330
5C
100
AcDbEntity
  8
LAYER
100
AcDbText
 10
211.5952376253934
 20
9.250000059960029
 30
0.0
 40
4.0
  1
摘
 72
     4
 11
213.4999995301553
 21
11.25000005996003
 31
0.0
100
AcDbText
  0
LINE
  5
70
330
5C
100
AcDbEntity
  8
FLAM
100
AcDbLine
 10
263.4999995301553
 20
7.500000059960029
 30
0.0
 11
263.4999995301553
 21
15.00000005996003
 31
0.0
  0
LINE
  5
71
330
5C
100
AcDbEntity
  8
LAYER
100
AcDbLine
 10
333.9999995301553
 20
15.00000005996003
 30
0.0
 11
333.9999995301553
 21
0.0000000599600298
 31
0.0
  0
LINE
  5
72
330
5C
100
AcDbEntity
  8
LAYER
100
AcDbLine
 10
321.9999995301553
 20
15.00000005996003
 30
0.0
 11
321.9999995301553
 21
0.0000000599600298
 31
0.0
  0
LINE
  5
73
330
5C
100
AcDbEntity
  8
LAYER
100
AcDbLine
 10
309.9999995301553
 20
15.00000005996003
 30
0.0
 11
309.9999995301553
 21
0.0000000599600298
 31
0.0
  0
TEXT
  5
74
330
5C
100
AcDbEntity
  8
LAYER
100
AcDbText
 10
310.9999995301553
 20
11.00000005996003
 30
0.0
 40
3.0
  1
工場長
 72
     4
 11
315.9999995301553
 21
12.50000005996003
 31
0.0
100
AcDbText
  0
TEXT
  5
75
330
5C
100
AcDbEntity
  8
LAYER
100
AcDbText
 10
323.0999995301553
 20
11.00000005996003
 30
0.0
 40
3.0
  1
検　図
 72
     4
 11
327.9999995301553
 21
12.50000005996003
 31
0.0
100
AcDbText
  0
TEXT
  5
76
330
5C
100
AcDbEntity
  8
LAYER
100
AcDbText
 10
367.7624995301553
 20
17.00000005996003
 30
0.0
 40
3.5
  1
H.   年   月   日
 72
     4
 11
384.9999995301553
 21
18.75000005996003
 31
0.0
100
AcDbText
  0
TEXT
  5
77
330
5C
100
AcDbEntity
  8
LAYER
100
AcDbText
 10
347.066666196822
 20
2.00000005996003
 30
0.0
 40
3.5
  1
阿賀コンクリート工業株式会社
 72
     4
 11
375.9999995301553
 21
3.750000059960029
 31
0.0
100
AcDbText
  0
LINE
  5
78
330
5C
100
AcDbEntity
  8
FLAM
100
AcDbLine
 10
363.9999995301553
 20
11.25000005996003
 30
0.0
 11
405.9999995301553
 21
11.25000005996003
 31
0.0
  0
LINE
  5
79
330
5C
100
AcDbEntity
  8
FLAM
100
AcDbLine
 10
363.9999995301553
 20
26.25000005996003
 30
0.0
 11
405.9999995301553
 21
26.25000005996003
 31
0.0
  0
LINE
  5
7A
330
5C
100
AcDbEntity
  8
FLAM
100
AcDbLine
 10
363.9999995301553
 20
18.75000005996003
 30
0.0
 11
405.9999995301553
 21
18.75000005996003
 31
0.0
  0
LINE
  5
7B
330
5C
100
AcDbEntity
  8
LAYER
100
AcDbLine
 10
345.9999995301553
 20
7.500000059960029
 30
0.0
 11
405.9999995301553
 21
7.500000059960029
 31
0.0
  0
LINE
  5
7C
330
5C
100
AcDbEntity
  8
LAYER
100
AcDbLine
 10
345.9999995301553
 20
22.50000005996003
 30
0.0
 11
405.9999995301553
 21
22.50000005996003
 31
0.0
  0
LINE
  5
7D
330
5C
100
AcDbEntity
  8
LAYER
100
AcDbLine
 10
345.9999995301553
 20
30.00000005996003
 30
0.0
 11
405.9999995301553
 21
30.00000005996003
 31
0.0
  0
LINE
  5
7E
330
5C
100
AcDbEntity
  8
LAYER
100
AcDbLine
 10
345.9999995301553
 20
15.00000005996003
 30
0.0
 11
345.9999995301553
 21
0.0000000599600298
 31
0.0
  0
TEXT
  5
7F
330
5C
100
AcDbEntity
  8
LAYER
100
AcDbText
 10
349.166666196822
 20
24.50000005996003
 30
0.0
 40
3.5
  1
縮　尺
 72
     4
 11
354.9999995301553
 21
26.25000005996003
 31
0.0
100
AcDbText
  0
LINE
  5
80
330
5C
100
AcDbEntity
  8
LAYER
100
AcDbLine
 10
363.9999995301553
 20
30.00000005996003
 30
0.0
 11
363.9999995301553
 21
7.500000059960029
 31
0.0
  0
LINE
  5
81
330
5C
100
AcDbEntity
  8
LAYER
100
AcDbLine
 10
345.9999995301553
 20
15.00000005996003
 30
0.0
 11
345.9999995301553
 21
30.00000005996003
 31
0.0
  0
TEXT
  5
82
330
5C
100
AcDbEntity
  8
LAYER
100
AcDbText
 10
349.0499995301553
 20
9.500000059960029
 30
0.0
 40
3.5
  1
図　番
 72
     4
 11
354.9999995301553
 21
11.25000005996003
 31
0.0
100
AcDbText
  0
TEXT
  5
83
330
5C
100
AcDbEntity
  8
LAYER
100
AcDbText
 10
348.9333328634887
 20
17.00000005996003
 30
0.0
 40
3.5
  1
日　付
 72
     4
 11
354.9999995301553
 21
18.75000005996003
 31
0.0
100
AcDbText
  0
TEXT
  5
84
330
5C
100
AcDbEntity
  8
LAYER
100
AcDbText
 10
335.0999995301553
 20
11.00000005996003
 30
0.0
 40
3.0
  1
製　図
 72
     4
 11
339.9999995301553
 21
12.50000005996003
 31
0.0
100
AcDbText
  0
LINE
  5
85
330
5C
100
AcDbEntity
  8
FLAM
100
AcDbLine
 10
384.9999995301553
 20
26.25000005996003
 30
0.0
 11
384.9999995301553
 21
7.500000059960029
 31
0.0
  0
LINE
  5
86
330
5C
100
AcDbEntity
  8
FLAM
100
AcDbLine
 10
384.9999995301553
 20
26.25000005996003
 30
0.0
 11
384.9999995301553
 21
30.00000005996003
 31
0.0
  0
ENDBLK
  5
88
330
5C
100
AcDbEntity
  8
0
100
AcDbBlockEnd
  0
BLOCK
  5
339
330
338
100
AcDbEntity
  8
0
100
AcDbBlockBegin
  2
*D1
 70
     1
 10
0.0
 20
0.0
 30
0.0
  3
*D1
  1

  0
LINE
  5
33A
330
338
100
AcDbEntity
  8
DIM
 62
     0
370
    -2
100
AcDbLine
 10
1227.5
 20
750.0
 30
0.0
 11
1645.0
 21
749.9999999999999
 31
0.0
  0
LINE
  5
33B
330
338
100
AcDbEntity
  8
DIM
 62
     0
370
    -2
100
AcDbLine
 10
1375.0
 20
-0.0000000000000198
 30
0.0
 11
1645.0
 21
-0.0000000000000963
 31
0.0
  0
LINE
  5
33C
330
338
100
AcDbEntity
  8
DIM
 62
     0
370
    -2
100
AcDbLine
 10
1615.0
 20
709.9999999999998
 30
0.0
 11
1615.0
 21
39.99999999999992
 31
0.0
  0
SOLID
  5
33D
330
338
100
AcDbEntity
  8
DIM
 62
     0
100
AcDbTrace
 10
1608.333333333333
 20
709.9999999999998
 30
0.0
 11
1621.666666666667
 21
709.9999999999998
 31
0.0
 12
1615.0
 22
749.9999999999999
 32
0.0
 13
1615.0
 23
749.9999999999999
 33
0.0
  0
SOLID
  5
33E
330
338
100
AcDbEntity
  8
DIM
 62
     0
100
AcDbTrace
 10
1608.333333333333
 20
39.99999999999992
 30
0.0
 11
1621.666666666667
 21
39.99999999999991
 31
0.0
 12
1615.0
 22
-0.0000000000000878
 32
0.0
 13
1615.0
 23
-0.0000000000000878
 33
0.0
  0
MTEXT
  5
33F
330
338
100
AcDbEntity
  8
DIM
 62
     0
100
AcDbMText
 10
1580.0
 20
375.0000000000001
 30
0.0
 40
40.0
 41
0.0
 71
     5
 72
     1
  1
750
 11
0.0000000000000001
 21
1.0
 31
0.0
 73
     1
 44
1.0
  0
POINT
  5
340
330
338
100
AcDbEntity
  8
Defpoints
 62
     0
100
AcDbPoint
 10
1157.5
 20
750.0
 30
0.0
  0
POINT
  5
341
330
338
100
AcDbEntity
  8
Defpoints
 62
     0
100
AcDbPoint
 10
1305.0
 20
0.0
 30
0.0
  0
POINT
  5
342
330
338
100
AcDbEntity
  8
Defpoints
 62
     0
100
AcDbPoint
 10
1615.0
 20
-0.0000000000000878
 30
0.0
  0
ENDBLK
  5
343
330
338
100
AcDbEntity
  8
0
100
AcDbBlockEnd
  0
BLOCK
  5
345
330
344
100
AcDbEntity
  8
0
100
AcDbBlockBegin
  2
*D2
 70
     1
 10
0.0
 20
0.0
 30
0.0
  3
*D2
  1

  0
LINE
  5
346
330
344
100
AcDbEntity
  8
DIM
 62
     0
370
    -2
100
AcDbLine
 10
98.82855567520373
 20
865.0
 30
0.0
 11
82.22611542610128
 21
770.842882453976
 31
0.0
  0
LINE
  5
347
330
344
100
AcDbEntity
  8
DIM
 62
     0
370
    -2
100
AcDbLine
 10
708.8285556752037
 20
865.0
 30
0.0
 11
692.2261154261012
 21
770.842882453976
 31
0.0
  0
LINE
  5
348
330
344
100
AcDbEntity
  8
DIM
 62
     0
370
    -2
100
AcDbLine
 10
127.5159248473552
 20
800.8428824539759
 30
0.0
 11
657.5159248473552
 21
800.8428824539759
 31
0.0
  0
SOLID
  5
349
330
344
100
AcDbEntity
  8
DIM
 62
     0
100
AcDbTrace
 10
127.5159248473552
 20
807.5095491206425
 30
0.0
 11
127.5159248473552
 21
794.1762157873093
 31
0.0
 12
87.51592484735523
 22
800.8428824539759
 32
0.0
 13
87.51592484735523
 23
800.8428824539759
 33
0.0
  0
SOLID
  5
34A
330
344
100
AcDbEntity
  8
DIM
 62
     0
100
AcDbTrace
 10
657.5159248473552
 20
807.5095491206425
 30
0.0
 11
657.5159248473552
 21
794.1762157873093
 31
0.0
 12
697.5159248473552
 22
800.8428824539759
 32
0.0
 13
697.5159248473552
 23
800.8428824539759
 33
0.0
  0
MTEXT
  5
34B
330
344
100
AcDbEntity
  8
DIM
 62
     0
100
AcDbMText
 10
392.5159248473552
 20
835.842882453976
 30
0.0
 40
40.0
 41
0.0
 71
     5
 72
     1
  1
610
 73
     1
 44
1.0
  0
POINT
  5
34C
330
344
100
AcDbEntity
  8
Defpoints
 62
     0
100
AcDbPoint
 10
105.0
 20
900.0
 30
0.0
  0
POINT
  5
34D
330
344
100
AcDbEntity
  8
Defpoints
 62
     0
100
AcDbPoint
 10
715.0
 20
900.0
 30
0.0
  0
POINT
  5
34E
330
344
100
AcDbEntity
  8
Defpoints
 62
     0
100
AcDbPoint
 10
697.5159248473552
 20
800.8428824539759
 30
0.0
  0
ENDBLK
  5
34F
330
344
100
AcDbEntity
  8
0
100
AcDbBlockEnd
  0
BLOCK
  5
351
330
350
100
AcDbEntity
  8
0
100
AcDbBlockBegin
  2
*D3
 70
     1
 10
0.0
 20
0.0
 30
0.0
  3
*D3
  1

  0
LINE
  5
352
330
350
100
AcDbEntity
  8
DIM
 62
     0
370
    -2
100
AcDbLine
 10
110.0
 20
1070.0
 30
0.0
 11
110.0
 21
1180.0
 31
0.0
  0
LINE
  5
353
330
350
100
AcDbEntity
  8
DIM
 62
     0
370
    -2
100
AcDbLine
 10
710.0
 20
1070.0
 30
0.0
 11
710.0
 21
1180.0
 31
0.0
  0
LINE
  5
354
330
350
100
AcDbEntity
  8
DIM
 62
     0
370
    -2
100
AcDbLine
 10
150.0
 20
1150.0
 30
0.0
 11
670.0
 21
1150.0
 31
0.0
  0
SOLID
  5
355
330
350
100
AcDbEntity
  8
DIM
 62
     0
100
AcDbTrace
 10
150.0
 20
1156.666666666667
 30
0.0
 11
150.0
 21
1143.333333333333
 31
0.0
 12
110.0
 22
1150.0
 32
0.0
 13
110.0
 23
1150.0
 33
0.0
  0
SOLID
  5
356
330
350
100
AcDbEntity
  8
DIM
 62
     0
100
AcDbTrace
 10
670.0
 20
1156.666666666667
 30
0.0
 11
670.0
 21
1143.333333333333
 31
0.0
 12
710.0
 22
1150.0
 32
0.0
 13
710.0
 23
1150.0
 33
0.0
  0
MTEXT
  5
357
330
350
100
AcDbEntity
  8
DIM
 62
     0
100
AcDbMText
 10
421.7551294819541
 20
1185.0
 30
0.0
 40
40.0
 41
0.0
 71
     5
 72
     1
  1
600
 73
     1
 44
1.0
  0
POINT
  5
358
330
350
100
AcDbEntity
  8
Defpoints
 62
     0
100
AcDbPoint
 10
110.0
 20
1000.0
 30
0.0
  0
POINT
  5
359
330
350
100
AcDbEntity
  8
Defpoints
 62
     0
100
AcDbPoint
 10
710.0
 20
1000.0
 30
0.0
  0
POINT
  5
35A
330
350
100
AcDbEntity
  8
Defpoints
 62
     0
100
AcDbPoint
 10
710.0
 20
1150.0
 30
0.0
  0
ENDBLK
  5
35B
330
350
100
AcDbEntity
  8
0
100
AcDbBlockEnd
  0
BLOCK
  5
35D
330
35C
100
AcDbEntity
  8
0
100
AcDbBlockBegin
  2
*D4
 70
     1
 10
0.0
 20
0.0
 30
0.0
  3
*D4
  1

  0
LINE
  5
35E
330
35C
100
AcDbEntity
  8
DIM
 62
     0
370
    -2
100
AcDbLine
 10
110.0
 20
1070.0
 30
0.0
 11
110.0
 21
1180.0
 31
0.0
  0
LINE
  5
35F
330
35C
100
AcDbEntity
  8
DIM
 62
     0
370
    -2
100
AcDbLine
 10
-25.0
 20
1055.0
 30
0.0
 11
-24.99999999999999
 21
1180.0
 31
0.0
  0
LINE
  5
360
330
35C
100
AcDbEntity
  8
DIM
 62
     0
370
    -2
100
AcDbLine
 10
70.00000000000001
 20
1150.0
 30
0.0
 11
15.00000000000001
 21
1150.0
 31
0.0
  0
SOLID
  5
361
330
35C
100
AcDbEntity
  8
DIM
 62
     0
100
AcDbTrace
 10
70.00000000000001
 20
1156.666666666667
 30
0.0
 11
70.00000000000001
 21
1143.333333333333
 31
0.0
 12
110.0
 22
1150.0
 32
0.0
 13
110.0
 23
1150.0
 33
0.0
  0
SOLID
  5
362
330
35C
100
AcDbEntity
  8
DIM
 62
     0
100
AcDbTrace
 10
15.00000000000001
 20
1156.666666666667
 30
0.0
 11
15.00000000000001
 21
1143.333333333333
 31
0.0
 12
-24.99999999999999
 22
1150.0
 32
0.0
 13
-24.99999999999999
 23
1150.0
 33
0.0
  0
MTEXT
  5
363
330
35C
100
AcDbEntity
  8
DIM
 62
     0
100
AcDbMText
 10
42.50000000000001
 20
1185.0
 30
0.0
 40
40.0
 41
0.0
 71
     5
 72
     1
  1
135
 73
     1
 44
1.0
  0
POINT
  5
364
330
35C
100
AcDbEntity
  8
Defpoints
 62
     0
100
AcDbPoint
 10
110.0
 20
1000.0
 30
0.0
  0
POINT
  5
365
330
35C
100
AcDbEntity
  8
Defpoints
 62
     0
100
AcDbPoint
 10
-25.0
 20
985.0
 30
0.0
  0
POINT
  5
366
330
35C
100
AcDbEntity
  8
Defpoints
 62
     0
100
AcDbPoint
 10
-24.99999999999999
 20
1150.0
 30
0.0
  0
ENDBLK
  5
367
330
35C
100
AcDbEntity
  8
0
100
AcDbBlockEnd
  0
BLOCK
  5
369
330
368
100
AcDbEntity
  8
0
100
AcDbBlockBegin
  2
*D5
 70
     1
 10
0.0
 20
0.0
 30
0.0
  3
*D5
  1

  0
LINE
  5
36A
330
368
100
AcDbEntity
  8
DIM
 62
     0
370
    -2
100
AcDbLine
 10
710.0
 20
1070.0
 30
0.0
 11
710.0
 21
1180.0
 31
0.0
  0
LINE
  5
36B
330
368
100
AcDbEntity
  8
DIM
 62
     0
370
    -2
100
AcDbLine
 10
845.0000000000001
 20
1055.0
 30
0.0
 11
845.0000000000001
 21
1180.0
 31
0.0
  0
LINE
  5
36C
330
368
100
AcDbEntity
  8
DIM
 62
     0
370
    -2
100
AcDbLine
 10
750.0
 20
1150.0
 30
0.0
 11
805.0
 21
1150.0
 31
0.0
  0
SOLID
  5
36D
330
368
100
AcDbEntity
  8
DIM
 62
     0
100
AcDbTrace
 10
750.0
 20
1156.666666666667
 30
0.0
 11
750.0
 21
1143.333333333333
 31
0.0
 12
710.0
 22
1150.0
 32
0.0
 13
710.0
 23
1150.0
 33
0.0
  0
SOLID
  5
36E
330
368
100
AcDbEntity
  8
DIM
 62
     0
100
AcDbTrace
 10
805.0
 20
1156.666666666667
 30
0.0
 11
805.0
 21
1143.333333333333
 31
0.0
 12
845.0000000000001
 22
1150.0
 32
0.0
 13
845.0000000000001
 23
1150.0
 33
0.0
  0
MTEXT
  5
36F
330
368
100
AcDbEntity
  8
DIM
 62
     0
100
AcDbMText
 10
777.5
 20
1185.0
 30
0.0
 40
40.0
 41
0.0
 71
     5
 72
     1
  1
135
 73
     1
 44
1.0
  0
POINT
  5
370
330
368
100
AcDbEntity
  8
Defpoints
 62
     0
100
AcDbPoint
 10
710.0
 20
1000.0
 30
0.0
  0
POINT
  5
371
330
368
100
AcDbEntity
  8
Defpoints
 62
     0
100
AcDbPoint
 10
845.0000000000001
 20
985.0
 30
0.0
  0
POINT
  5
372
330
368
100
AcDbEntity
  8
Defpoints
 62
     0
100
AcDbPoint
 10
845.0000000000001
 20
1150.0
 30
0.0
  0
ENDBLK
  5
373
330
368
100
AcDbEntity
  8
0
100
AcDbBlockEnd
  0
BLOCK
  5
375
330
374
100
AcDbEntity
  8
0
100
AcDbBlockBegin
  2
*D6
 70
     1
 10
0.0
 20
0.0
 30
0.0
  3
*D6
  1

  0
LINE
  5
376
330
374
100
AcDbEntity
  8
DIM
 62
     0
370
    -2
100
AcDbLine
 10
410.0000000000001
 20
1120.0
 30
0.0
 11
410.0000000000001
 21
1330.0
 31
0.0
  0
LINE
  5
377
330
374
100
AcDbEntity
  8
DIM
 62
     0
370
    -2
100
AcDbLine
 10
-100.0
 20
960.0
 30
0.0
 11
-99.99999999999998
 21
1330.0
 31
0.0
  0
LINE
  5
378
330
374
100
AcDbEntity
  8
DIM
 62
     0
370
    -2
100
AcDbLine
 10
370.0000000000001
 20
1300.0
 30
0.0
 11
-59.99999999999997
 21
1300.0
 31
0.0
  0
SOLID
  5
379
330
374
100
AcDbEntity
  8
DIM
 62
     0
100
AcDbTrace
 10
370.0000000000001
 20
1306.666666666667
 30
0.0
 11
370.0000000000001
 21
1293.333333333333
 31
0.0
 12
410.0000000000001
 22
1300.0
 32
0.0
 13
410.0000000000001
 23
1300.0
 33
0.0
  0
SOLID
  5
37A
330
374
100
AcDbEntity
  8
DIM
 62
     0
100
AcDbTrace
 10
-59.99999999999997
 20
1306.666666666667
 30
0.0
 11
-59.99999999999997
 21
1293.333333333333
 31
0.0
 12
-99.99999999999998
 22
1300.0
 32
0.0
 13
-99.99999999999998
 23
1300.0
 33
0.0
  0
MTEXT
  5
37B
330
374
100
AcDbEntity
  8
DIM
 62
     0
100
AcDbMText
 10
155.0
 20
1335.0
 30
0.0
 40
40.0
 41
0.0
 71
     5
 72
     1
  1
510
 73
     1
 44
1.0
  0
POINT
  5
37C
330
374
100
AcDbEntity
  8
Defpoints
 62
     0
100
AcDbPoint
 10
410.0000000000001
 20
1050.0
 30
0.0
  0
POINT
  5
37D
330
374
100
AcDbEntity
  8
Defpoints
 62
     0
100
AcDbPoint
 10
-100.0
 20
890.0
 30
0.0
  0
POINT
  5
37E
330
374
100
AcDbEntity
  8
Defpoints
 62
     0
100
AcDbPoint
 10
-99.99999999999998
 20
1300.0
 30
0.0
  0
ENDBLK
  5
37F
330
374
100
AcDbEntity
  8
0
100
AcDbBlockEnd
  0
BLOCK
  5
381
330
380
100
AcDbEntity
  8
0
100
AcDbBlockBegin
  2
*D7
 70
     1
 10
0.0
 20
0.0
 30
0.0
  3
*D7
  1

  0
LINE
  5
382
330
380
100
AcDbEntity
  8
DIM
 62
     0
370
    -2
100
AcDbLine
 10
410.0000000000001
 20
1120.0
 30
0.0
 11
410.0000000000001
 21
1330.0
 31
0.0
  0
LINE
  5
383
330
380
100
AcDbEntity
  8
DIM
 62
     0
370
    -2
100
AcDbLine
 10
1315.0
 20
960.0
 30
0.0
 11
1315.0
 21
1330.0
 31
0.0
  0
LINE
  5
384
330
380
100
AcDbEntity
  8
DIM
 62
     0
370
    -2
100
AcDbLine
 10
450.0
 20
1300.0
 30
0.0
 11
1275.0
 21
1300.0
 31
0.0
  0
SOLID
  5
385
330
380
100
AcDbEntity
  8
DIM
 62
     0
100
AcDbTrace
 10
450.0
 20
1306.666666666667
 30
0.0
 11
450.0
 21
1293.333333333333
 31
0.0
 12
410.0000000000001
 22
1300.0
 32
0.0
 13
410.0000000000001
 23
1300.0
 33
0.0
  0
SOLID
  5
386
330
380
100
AcDbEntity
  8
DIM
 62
     0
100
AcDbTrace
 10
1275.0
 20
1306.666666666667
 30
0.0
 11
1275.0
 21
1293.333333333333
 31
0.0
 12
1315.0
 22
1300.0
 32
0.0
 13
1315.0
 23
1300.0
 33
0.0
  0
MTEXT
  5
387
330
380
100
AcDbEntity
  8
DIM
 62
     0
100
AcDbMText
 10
862.5
 20
1335.0
 30
0.0
 40
40.0
 41
0.0
 71
     5
 72
     1
  1
905
 73
     1
 44
1.0
  0
POINT
  5
388
330
380
100
AcDbEntity
  8
Defpoints
 62
     0
100
AcDbPoint
 10
410.0000000000001
 20
1050.0
 30
0.0
  0
POINT
  5
389
330
380
100
AcDbEntity
  8
Defpoints
 62
     0
100
AcDbPoint
 10
1315.0
 20
890.0
 30
0.0
  0
POINT
  5
38A
330
380
100
AcDbEntity
  8
Defpoints
 62
     0
100
AcDbPoint
 10
1315.0
 20
1300.0
 30
0.0
  0
ENDBLK
  5
38B
330
380
100
AcDbEntity
  8
0
100
AcDbBlockEnd
  0
BLOCK
  5
38D
330
38C
100
AcDbEntity
  8
0
100
AcDbBlockBegin
  2
*D8
 70
     1
 10
0.0
 20
0.0
 30
0.0
  3
*D8
  1

  0
LINE
  5
38E
330
38C
100
AcDbEntity
  8
DIM
 62
     0
370
    -2
100
AcDbLine
 10
-100.0
 20
960.0
 30
0.0
 11
-99.99999999999996
 21
1480.0
 31
0.0
  0
LINE
  5
38F
330
38C
100
AcDbEntity
  8
DIM
 62
     0
370
    -2
100
AcDbLine
 10
1315.0
 20
960.0
 30
0.0
 11
1315.0
 21
1480.0
 31
0.0
  0
LINE
  5
390
330
38C
100
AcDbEntity
  8
DIM
 62
     0
370
    -2
100
AcDbLine
 10
-59.99999999999997
 20
1450.0
 30
0.0
 11
1275.0
 21
1450.0
 31
0.0
  0
SOLID
  5
391
330
38C
100
AcDbEntity
  8
DIM
 62
     0
100
AcDbTrace
 10
-59.99999999999997
 20
1456.666666666667
 30
0.0
 11
-59.99999999999997
 21
1443.333333333333
 31
0.0
 12
-99.99999999999998
 22
1450.0
 32
0.0
 13
-99.99999999999998
 23
1450.0
 33
0.0
  0
SOLID
  5
392
330
38C
100
AcDbEntity
  8
DIM
 62
     0
100
AcDbTrace
 10
1275.0
 20
1456.666666666667
 30
0.0
 11
1275.0
 21
1443.333333333333
 31
0.0
 12
1315.0
 22
1450.0
 32
0.0
 13
1315.0
 23
1450.0
 33
0.0
  0
MTEXT
  5
393
330
38C
100
AcDbEntity
  8
DIM
 62
     0
100
AcDbMText
 10
607.5
 20
1485.0
 30
0.0
 40
40.0
 41
0.0
 71
     5
 72
     1
  1
1415
 73
     1
 44
1.0
  0
POINT
  5
394
330
38C
100
AcDbEntity
  8
Defpoints
 62
     0
100
AcDbPoint
 10
-100.0
 20
890.0
 30
0.0
  0
POINT
  5
395
330
38C
100
AcDbEntity
  8
Defpoints
 62
     0
100
AcDbPoint
 10
1315.0
 20
890.0
 30
0.0
  0
POINT
  5
396
330
38C
100
AcDbEntity
  8
Defpoints
 62
     0
100
AcDbPoint
 10
1315.0
 20
1450.0
 30
0.0
  0
ENDBLK
  5
397
330
38C
100
AcDbEntity
  8
0
100
AcDbBlockEnd
  0
BLOCK
  5
399
330
398
100
AcDbEntity
  8
0
100
AcDbBlockBegin
  2
*D9
 70
     1
 10
0.0
 20
0.0
 30
0.0
  3
*D9
  1

  0
LINE
  5
39A
330
398
100
AcDbEntity
  8
DIM
 62
     0
370
    -2
100
AcDbLine
 10
1227.5
 20
750.0
 30
0.0
 11
1645.0
 21
749.9999999999999
 31
0.0
  0
LINE
  5
39B
330
398
100
AcDbEntity
  8
DIM
 62
     0
370
    -2
100
AcDbLine
 10
1375.0
 20
900.0
 30
0.0
 11
1645.0
 21
900.0
 31
0.0
  0
LINE
  5
39C
330
398
100
AcDbEntity
  8
DIM
 62
     0
370
    -2
100
AcDbLine
 10
1615.0
 20
789.9999999999999
 30
0.0
 11
1615.0
 21
860.0
 31
0.0
  0
SOLID
  5
39D
330
398
100
AcDbEntity
  8
DIM
 62
     0
100
AcDbTrace
 10
1608.333333333333
 20
789.9999999999999
 30
0.0
 11
1621.666666666667
 21
789.9999999999999
 31
0.0
 12
1615.0
 22
749.9999999999999
 32
0.0
 13
1615.0
 23
749.9999999999999
 33
0.0
  0
SOLID
  5
39E
330
398
100
AcDbEntity
  8
DIM
 62
     0
100
AcDbTrace
 10
1608.333333333333
 20
860.0
 30
0.0
 11
1621.666666666667
 21
860.0
 31
0.0
 12
1615.0
 22
900.0
 32
0.0
 13
1615.0
 23
900.0
 33
0.0
  0
MTEXT
  5
39F
330
398
100
AcDbEntity
  8
DIM
 62
     0
100
AcDbMText
 10
1580.0
 20
825.0000000000001
 30
0.0
 40
40.0
 41
0.0
 71
     5
 72
     1
  1
150
 11
0.0000000000000001
 21
1.0
 31
0.0
 73
     1
 44
1.0
  0
POINT
  5
3A0
330
398
100
AcDbEntity
  8
Defpoints
 62
     0
100
AcDbPoint
 10
1157.5
 20
750.0
 30
0.0
  0
POINT
  5
3A1
330
398
100
AcDbEntity
  8
Defpoints
 62
     0
100
AcDbPoint
 10
1305.0
 20
900.0
 30
0.0
  0
POINT
  5
3A2
330
398
100
AcDbEntity
  8
Defpoints
 62
     0
100
AcDbPoint
 10
1615.0
 20
900.0
 30
0.0
  0
ENDBLK
  5
3A3
330
398
100
AcDbEntity
  8
0
100
AcDbBlockEnd
  0
BLOCK
  5
3A5
330
3A4
100
AcDbEntity
  8
0
100
AcDbBlockBegin
  2
*D10
 70
     1
 10
0.0
 20
0.0
 30
0.0
  3
*D10
  1

  0
LINE
  5
3A6
330
3A4
100
AcDbEntity
  8
DIM
 62
     0
370
    -2
100
AcDbLine
 10
1375.0
 20
900.0
 30
0.0
 11
1795.0
 21
899.9999999999998
 31
0.0
  0
LINE
  5
3A7
330
3A4
100
AcDbEntity
  8
DIM
 62
     0
370
    -2
100
AcDbLine
 10
1375.0
 20
-0.0000000000000198
 30
0.0
 11
1795.0
 21
-0.0000000000001388
 31
0.0
  0
LINE
  5
3A8
330
3A4
100
AcDbEntity
  8
DIM
 62
     0
370
    -2
100
AcDbLine
 10
1765.0
 20
860.0
 30
0.0
 11
1765.0
 21
39.99999999999987
 31
0.0
  0
SOLID
  5
3A9
330
3A4
100
AcDbEntity
  8
DIM
 62
     0
100
AcDbTrace
 10
1758.333333333333
 20
860.0
 30
0.0
 11
1771.666666666667
 21
860.0
 31
0.0
 12
1765.0
 22
900.0
 32
0.0
 13
1765.0
 23
900.0
 33
0.0
  0
SOLID
  5
3AA
330
3A4
100
AcDbEntity
  8
DIM
 62
     0
100
AcDbTrace
 10
1758.333333333333
 20
39.99999999999987
 30
0.0
 11
1771.666666666667
 21
39.99999999999987
 31
0.0
 12
1765.0
 22
-0.0000000000001303
 32
0.0
 13
1765.0
 23
-0.0000000000001303
 33
0.0
  0
MTEXT
  5
3AB
330
3A4
100
AcDbEntity
  8
DIM
 62
     0
100
AcDbMText
 10
1730.0
 20
450.0000000000001
 30
0.0
 40
40.0
 41
0.0
 71
     5
 72
     1
  1
900
 11
0.0000000000000001
 21
1.0
 31
0.0
 73
     1
 44
1.0
  0
POINT
  5
3AC
330
3A4
100
AcDbEntity
  8
Defpoints
 62
     0
100
AcDbPoint
 10
1305.0
 20
900.0
 30
0.0
  0
POINT
  5
3AD
330
3A4
100
AcDbEntity
  8
Defpoints
 62
     0
100
AcDbPoint
 10
1305.0
 20
0.0
 30
0.0
  0
POINT
  5
3AE
330
3A4
100
AcDbEntity
  8
Defpoints
 62
     0
100
AcDbPoint
 10
1765.0
 20
-0.0000000000001303
 30
0.0
  0
ENDBLK
  5
3AF
330
3A4
100
AcDbEntity
  8
0
100
AcDbBlockEnd
  0
BLOCK
  5
3B1
330
3B0
100
AcDbEntity
  8
0
100
AcDbBlockBegin
  2
*D11
 70
     1
 10
0.0
 20
0.0
 30
0.0
  3
*D11
  1

  0
LINE
  5
3B2
330
3B0
100
AcDbEntity
  8
DIM
 62
     0
370
    -2
100
AcDbLine
 10
1375.0
 20
900.0
 30
0.0
 11
1795.0
 21
899.9999999999998
 31
0.0
  0
LINE
  5
3B3
330
3B0
100
AcDbEntity
  8
DIM
 62
     0
370
    -2
100
AcDbLine
 10
900.0000000000001
 20
1000.0
 30
0.0
 11
1795.0
 21
999.9999999999996
 31
0.0
  0
LINE
  5
3B4
330
3B0
100
AcDbEntity
  8
DIM
 62
     0
370
    -2
100
AcDbLine
 10
1765.0
 20
860.0
 30
0.0
 11
1765.0
 21
820.0
 31
0.0
  0
LINE
  5
3B5
330
3B0
100
AcDbEntity
  8
DIM
 62
     0
370
    -2
100
AcDbLine
 10
1765.0
 20
1039.999999999999
 30
0.0
 11
1765.0
 21
1079.999999999999
 31
0.0
  0
SOLID
  5
3B6
330
3B0
100
AcDbEntity
  8
DIM
 62
     0
100
AcDbTrace
 10
1758.333333333333
 20
860.0
 30
0.0
 11
1771.666666666667
 21
860.0
 31
0.0
 12
1765.0
 22
900.0
 32
0.0
 13
1765.0
 23
900.0
 33
0.0
  0
SOLID
  5
3B7
330
3B0
100
AcDbEntity
  8
DIM
 62
     0
100
AcDbTrace
 10
1758.333333333333
 20
1039.999999999999
 30
0.0
 11
1771.666666666667
 21
1039.999999999999
 31
0.0
 12
1765.0
 22
999.9999999999998
 32
0.0
 13
1765.0
 23
999.9999999999998
 33
0.0
  0
MTEXT
  5
3B8
330
3B0
100
AcDbEntity
  8
DIM
 62
     0
100
AcDbMText
 10
1730.0
 20
950.0000000000001
 30
0.0
 40
40.0
 41
0.0
 71
     5
 72
     1
  1
100
 11
0.0000000000000001
 21
1.0
 31
0.0
 73
     1
 44
1.0
  0
POINT
  5
3B9
330
3B0
100
AcDbEntity
  8
Defpoints
 62
     0
100
AcDbPoint
 10
1305.0
 20
900.0
 30
0.0
  0
POINT
  5
3BA
330
3B0
100
AcDbEntity
  8
Defpoints
 62
     0
100
AcDbPoint
 10
830.0
 20
1000.0
 30
0.0
  0
POINT
  5
3BB
330
3B0
100
AcDbEntity
  8
Defpoints
 62
     0
100
AcDbPoint
 10
1765.0
 20
999.9999999999998
 30
0.0
  0
ENDBLK
  5
3BC
330
3B0
100
AcDbEntity
  8
0
100
AcDbBlockEnd
  0
BLOCK
  5
3BE
330
3BD
100
AcDbEntity
  8
0
100
AcDbBlockBegin
  2
*D12
 70
     1
 10
0.0
 20
0.0
 30
0.0
  3
*D12
  1

  0
LINE
  5
3BF
330
3BD
100
AcDbEntity
  8
DIM
 62
     0
370
    -2
100
AcDbLine
 10
42.67857142857143
 20
250.0
 30
0.0
 11
120.0
 21
250.0
 31
0.0
  0
LINE
  5
3C0
330
3BD
100
AcDbEntity
  8
DIM
 62
     0
370
    -2
100
AcDbLine
 10
70.0
 20
-0.0000000000000198
 30
0.0
 11
120.0
 21
-0.000000000000034
 31
0.0
  0
LINE
  5
3C1
330
3BD
100
AcDbEntity
  8
DIM
 62
     0
370
    -2
100
AcDbLine
 10
90.00000000000005
 20
210.0
 30
0.0
 11
90.00000000000001
 21
39.99999999999997
 31
0.0
  0
SOLID
  5
3C2
330
3BD
100
AcDbEntity
  8
DIM
 62
     0
100
AcDbTrace
 10
83.33333333333337
 20
210.0
 30
0.0
 11
96.66666666666671
 21
210.0
 31
0.0
 12
90.00000000000005
 22
250.0
 32
0.0
 13
90.00000000000005
 23
250.0
 33
0.0
  0
SOLID
  5
3C3
330
3BD
100
AcDbEntity
  8
DIM
 62
     0
100
AcDbTrace
 10
83.33333333333333
 20
39.99999999999997
 30
0.0
 11
96.66666666666669
 21
39.99999999999997
 31
0.0
 12
90.0
 22
-0.0000000000000255
 32
0.0
 13
90.0
 23
-0.0000000000000255
 33
0.0
  0
MTEXT
  5
3C4
330
3BD
100
AcDbEntity
  8
DIM
 62
     0
100
AcDbMText
 10
54.99606299212599
 20
125.0
 30
0.0
 40
40.0
 41
0.0
 71
     5
 72
     1
  1
250
 11
0.0000000000000001
 21
1.0
 31
0.0
 73
     1
 44
1.0
  0
POINT
  5
3C5
330
3BD
100
AcDbEntity
  8
Defpoints
 62
     0
100
AcDbPoint
 10
-27.32142857142857
 20
250.0
 30
0.0
  0
POINT
  5
3C6
330
3BD
100
AcDbEntity
  8
Defpoints
 62
     0
100
AcDbPoint
 10
0.0
 20
0.0
 30
0.0
  0
POINT
  5
3C7
330
3BD
100
AcDbEntity
  8
Defpoints
 62
     0
100
AcDbPoint
 10
90.0
 20
-0.0000000000000255
 30
0.0
  0
ENDBLK
  5
3C8
330
3BD
100
AcDbEntity
  8
0
100
AcDbBlockEnd
  0
BLOCK
  5
3CA
330
3C9
100
AcDbEntity
  8
0
100
AcDbBlockBegin
  2
*D13
 70
     1
 10
0.0
 20
0.0
 30
0.0
  3
*D13
  1

  0
LINE
  5
3CB
330
3C9
100
AcDbEntity
  8
DIM
 62
     0
370
    -2
100
AcDbLine
 10
42.67857142857143
 20
250.0
 30
0.0
 11
120.0
 21
250.0
 31
0.0
  0
LINE
  5
3CC
330
3C9
100
AcDbEntity
  8
DIM
 62
     0
370
    -2
100
AcDbLine
 10
45.89285714285714
 20
550.0
 30
0.0
 11
120.0000000000001
 21
550.0
 31
0.0
  0
LINE
  5
3CD
330
3C9
100
AcDbEntity
  8
DIM
 62
     0
370
    -2
100
AcDbLine
 10
90.00000000000007
 20
290.0
 30
0.0
 11
90.00000000000012
 21
510.0
 31
0.0
  0
SOLID
  5
3CE
330
3C9
100
AcDbEntity
  8
DIM
 62
     0
100
AcDbTrace
 10
83.33333333333341
 20
290.0
 30
0.0
 11
96.66666666666674
 21
290.0
 31
0.0
 12
90.00000000000005
 22
250.0
 32
0.0
 13
90.00000000000005
 23
250.0
 33
0.0
  0
SOLID
  5
3CF
330
3C9
100
AcDbEntity
  8
DIM
 62
     0
100
AcDbTrace
 10
83.33333333333344
 20
510.0
 30
0.0
 11
96.66666666666678
 21
510.0
 31
0.0
 12
90.00000000000012
 22
550.0
 32
0.0
 13
90.00000000000012
 23
550.0
 33
0.0
  0
MTEXT
  5
3D0
330
3C9
100
AcDbEntity
  8
DIM
 62
     0
100
AcDbMText
 10
55.00000000000002
 20
400.0
 30
0.0
 40
40.0
 41
0.0
 71
     5
 72
     1
  1
300
 11
0.0000000000000001
 21
1.0
 31
0.0
 73
     1
 44
1.0
  0
POINT
  5
3D1
330
3C9
100
AcDbEntity
  8
Defpoints
 62
     0
100
AcDbPoint
 10
-27.32142857142857
 20
250.0
 30
0.0
  0
POINT
  5
3D2
330
3C9
100
AcDbEntity
  8
Defpoints
 62
     0
100
AcDbPoint
 10
-24.10714285714286
 20
550.0
 30
0.0
  0
POINT
  5
3D3
330
3C9
100
AcDbEntity
  8
Defpoints
 62
     0
100
AcDbPoint
 10
90.00000000000012
 20
550.0
 30
0.0
  0
ENDBLK
  5
3D4
330
3C9
100
AcDbEntity
  8
0
100
AcDbBlockEnd
  0
BLOCK
  5
3D6
330
3D5
100
AcDbEntity
  8
0
100
AcDbBlockBegin
  2
*D14
 70
     1
 10
0.0
 20
0.0
 30
0.0
  3
*D14
  1

  0
LINE
  5
3D7
330
3D5
100
AcDbEntity
  8
DIM
 62
     0
370
    -2
100
AcDbLine
 10
407.5
 20
340.0
 30
0.0
 11
407.5
 21
448.2243564018904
 31
0.0
  0
LINE
  5
3D8
330
3D5
100
AcDbEntity
  8
DIM
 62
     0
370
    -2
100
AcDbLine
 10
807.4999999999999
 20
340.0
 30
0.0
 11
807.4999999999999
 21
448.2243564018904
 31
0.0
  0
LINE
  5
3D9
330
3D5
100
AcDbEntity
  8
DIM
 62
     0
370
    -2
100
AcDbLine
 10
447.5
 20
418.2243564018904
 30
0.0
 11
767.4999999999999
 21
418.2243564018904
 31
0.0
  0
SOLID
  5
3DA
330
3D5
100
AcDbEntity
  8
DIM
 62
     0
100
AcDbTrace
 10
447.5
 20
424.8910230685571
 30
0.0
 11
447.5
 21
411.5576897352237
 31
0.0
 12
407.5
 22
418.2243564018904
 32
0.0
 13
407.5
 23
418.2243564018904
 33
0.0
  0
SOLID
  5
3DB
330
3D5
100
AcDbEntity
  8
DIM
 62
     0
100
AcDbTrace
 10
767.4999999999999
 20
424.8910230685571
 30
0.0
 11
767.4999999999999
 21
411.5576897352237
 31
0.0
 12
807.4999999999999
 22
418.2243564018904
 32
0.0
 13
807.4999999999999
 23
418.2243564018904
 33
0.0
  0
MTEXT
  5
3DC
330
3D5
100
AcDbEntity
  8
DIM
 62
     0
100
AcDbMText
 10
607.5
 20
453.2243564018904
 30
0.0
 40
40.0
 41
0.0
 71
     5
 72
     1
  1
400
 73
     1
 44
1.0
  0
POINT
  5
3DD
330
3D5
100
AcDbEntity
  8
Defpoints
 62
     0
100
AcDbPoint
 10
407.5
 20
270.0
 30
0.0
  0
POINT
  5
3DE
330
3D5
100
AcDbEntity
  8
Defpoints
 62
     0
100
AcDbPoint
 10
807.4999999999999
 20
270.0
 30
0.0
  0
POINT
  5
3DF
330
3D5
100
AcDbEntity
  8
Defpoints
 62
     0
100
AcDbPoint
 10
807.4999999999999
 20
418.2243564018904
 30
0.0
  0
ENDBLK
  5
3E0
330
3D5
100
AcDbEntity
  8
0
100
AcDbBlockEnd
  0
BLOCK
  5
40A
330
3E2
100
AcDbEntity
  8
0
100
AcDbBlockBegin
  2
B2-750
 70
     0
 10
0.0
 20
0.0
 30
0.0
  3
B2-750
  1

  0
LWPOLYLINE
  5
3E3
330
3E2
100
AcDbEntity
  8
LATER
100
AcDbPolyline
 90
        8
 70
     1
 43
0.0
 10
-90.0
 20
0.0
 10
1305.0
 20
0.0
 10
1315.0
 20
10.0
 10
1315.0
 20
890.0
 10
1305.0
 20
900.0
 10
-90.0
 20
900.0
 10
-100.0
 20
890.0
 10
-100.0
 20
10.0
  0
LINE
  5
3E4
330
3E2
100
AcDbEntity
  8
DASHED
 48
0.15
100
AcDbLine
 10
0.0
 20
0.0
 30
0.0
 11
7.5
 21
700.0
 31
0.0
  0
LINE
  5
3E5
330
3E2
100
AcDbEntity
  8
DASHED
 48
0.15
100
AcDbLine
 10
7.5
 20
700.0
 30
0.0
 11
57.5
 21
750.0
 31
0.0
  0
LINE
  5
3E6
330
3E2
100
AcDbEntity
  8
DASHED
 48
0.15
100
AcDbLine
 10
57.5
 20
750.0
 30
0.0
 11
1157.5
 21
750.0
 31
0.0
  0
LINE
  5
3E7
330
3E2
100
AcDbEntity
  8
DASHED
 48
0.15
100
AcDbLine
 10
1157.5
 20
750.0
 30
0.0
 11
1207.5
 21
700.0
 31
0.0
  0
LINE
  5
3E8
330
3E2
100
AcDbEntity
  8
DASHED
 48
0.15
100
AcDbLine
 10
1207.5
 20
700.0
 30
0.0
 11
1215.0
 21
0.0
 31
0.0
  0
LINE
  5
3E9
330
3E2
100
AcDbEntity
  8
DASHED
 48
0.15
100
AcDbLine
 10
95.0
 20
750.0
 30
0.0
 11
105.0
 21
900.0
 31
0.0
  0
LINE
  5
3EA
330
3E2
100
AcDbEntity
  8
DASHED
 48
0.15
100
AcDbLine
 10
715.0
 20
900.0
 30
0.0
 11
725.0
 21
750.0
 31
0.0
  0
CIRCLE
  5
3EB
330
3E2
100
AcDbEntity
  8
DASHED
 48
0.15
100
AcDbCircle
 10
407.5
 20
250.0
 30
0.0
 40
8.0
  0
LINE
  5
3EC
330
3E2
100
AcDbEntity
  8
DASHED
 48
0.15
100
AcDbLine
 10
387.5
 20
250.0
 30
0.0
 11
427.5
 21
250.0
 31
0.0
  0
LINE
  5
3ED
330
3E2
100
AcDbEntity
  8
DASHED
 48
0.15
100
AcDbLine
 10
407.5
 20
230.0
 30
0.0
 11
407.5
 21
270.0
 31
0.0
  0
LINE
  5
3EE
330
3E2
100
AcDbEntity
  8
DASHED
 48
0.15
100
AcDbLine
 10
787.5
 20
250.0
 30
0.0
 11
827.5
 21
250.0
 31
0.0
  0
CIRCLE
  5
3EF
330
3E2
100
AcDbEntity
  8
DASHED
 48
0.15
100
AcDbCircle
 10
807.4999999999999
 20
250.0
 30
0.0
 40
8.0
  0
LINE
  5
3F0
330
3E2
100
AcDbEntity
  8
DASHED
 48
0.15
100
AcDbLine
 10
807.4999999999999
 20
230.0
 30
0.0
 11
807.4999999999999
 21
270.0
 31
0.0
  0
LWPOLYLINE
  5
3F1
330
3E2
100
AcDbEntity
  8
DASHED
 48
0.15
100
AcDbPolyline
 90
        4
 70
     1
 43
0.0
 10
-27.32142857142857
 20
242.0
 10
2.67857142857143
 20
242.0
 10
2.67857142857143
 20
258.0
 10
-27.32142857142857
 20
258.0
  0
LWPOLYLINE
  5
3F2
330
3E2
100
AcDbEntity
  8
DASHED
 48
0.15
100
AcDbPolyline
 90
        4
 70
     1
 43
0.0
 10
-24.10714285714286
 20
542.0
 10
5.892857142857138
 20
542.0
 10
5.892857142857138
 20
558.0
 10
-24.10714285714286
 20
558.0
  0
LWPOLYLINE
  5
3F3
330
3E2
100
AcDbEntity
  8
DASHED
 48
0.15
100
AcDbPolyline
 90
        4
 70
     1
 43
0.0
 10
1242.321428571429
 20
242.0
 10
1212.321428571428
 20
242.0
 10
1212.321428571428
 20
258.0
 10
1242.321428571429
 20
258.0
  0
LWPOLYLINE
  5
3F4
330
3E2
100
AcDbEntity
  8
LATER
100
AcDbPolyline
 90
        6
 70
     1
 43
0.0
 10
-10.0
 20
1000.0
 10
830.0
 20
1000.0
 42
-0.4142135623730951
 10
845.0000000000001
 20
985.0
 10
845.0
 20
900.0
 10
-25.0
 20
900.0
 10
-25.0
 20
985.0
 42
-0.4142135623730951
  0
LINE
  5
3F5
330
3E2
100
AcDbEntity
  8
DASHED
 48
0.15
100
AcDbLine
 10
110.0
 20
1000.0
 30
0.0
 11
105.0
 21
900.0
 31
0.0
  0
LINE
  5
3F6
330
3E2
100
AcDbEntity
  8
DASHED
 48
0.15
100
AcDbLine
 10
710.0
 20
1000.0
 30
0.0
 11
715.0
 21
900.0
 31
0.0
  0
DIMENSION
  5
3F7
330
3E2
100
AcDbEntity
  8
DIM
100
AcDbDimension
  2
*D1
 10
1615.0
 20
-0.0000000000000878
 30
0.0
 11
1580.0
 21
375.0000000000001
 31
0.0
 70
    32
 71
     5
 42
749.9999999999999
  3
Standerd
100
AcDbAlignedDimension
 13
1157.5
 23
750.0
 33
0.0
 14
1305.0
 24
0.0
 34
0.0
 50
90.0
100
AcDbRotatedDimension
  0
DIMENSION
  5
3F8
330
3E2
100
AcDbEntity
  8
DIM
100
AcDbDimension
  2
*D2
 10
697.5159248473552
 20
800.8428824539759
 30
0.0
 11
392.5159248473552
 21
835.842882453976
 31
0.0
 70
    32
 71
     5
 42
610.0
  3
Standerd1
100
AcDbAlignedDimension
 13
105.0
 23
900.0
 33
0.0
 14
715.0
 24
900.0
 34
0.0
100
AcDbRotatedDimension
  0
DIMENSION
  5
3F9
330
3E2
100
AcDbEntity
  8
DIM
100
AcDbDimension
  2
*D3
 10
710.0
 20
1150.0
 30
0.0
 11
421.7551294819541
 21
1150.0
 31
0.0
 70
   160
 71
     5
 42
600.0
  3
Standerd
100
AcDbAlignedDimension
 13
110.0
 23
1000.0
 33
0.0
 14
710.0
 24
1000.0
 34
0.0
100
AcDbRotatedDimension
  0
DIMENSION
  5
3FA
330
3E2
100
AcDbEntity
  8
DIM
100
AcDbDimension
  2
*D4
 10
-24.99999999999999
 20
1150.0
 30
0.0
 11
42.50000000000001
 21
1185.0
 31
0.0
 70
    32
 71
     5
 42
135.0
  3
Standerd
100
AcDbAlignedDimension
 13
110.0
 23
1000.0
 33
0.0
 14
-25.0
 24
985.0
 34
0.0
100
AcDbRotatedDimension
  0
DIMENSION
  5
3FB
330
3E2
100
AcDbEntity
  8
DIM
100
AcDbDimension
  2
*D5
 10
845.0000000000001
 20
1150.0
 30
0.0
 11
777.5
 21
1185.0
 31
0.0
 70
    32
 71
     5
 42
135.0000000000001
  3
Standerd
100
AcDbAlignedDimension
 13
710.0
 23
1000.0
 33
0.0
 14
845.0000000000001
 24
985.0
 34
0.0
100
AcDbRotatedDimension
  0
LINE
  5
3FC
330
3E2
100
AcDbEntity
  8
CENTER
 48
0.2
100
AcDbLine
 10
410.0000000000001
 20
1050.0
 30
0.0
 11
410.0000000000001
 21
700.0
 31
0.0
  0
DIMENSION
  5
3FD
330
3E2
100
AcDbEntity
  8
DIM
100
AcDbDimension
  2
*D6
 10
-99.99999999999998
 20
1300.0
 30
0.0
 11
155.0
 21
1335.0
 31
0.0
 70
    32
 71
     5
 42
510.0000000000001
  3
Standerd
100
AcDbAlignedDimension
 13
410.0000000000001
 23
1050.0
 33
0.0
 14
-100.0
 24
890.0
 34
0.0
100
AcDbRotatedDimension
  0
DIMENSION
  5
3FE
330
3E2
100
AcDbEntity
  8
DIM
100
AcDbDimension
  2
*D7
 10
1315.0
 20
1300.0
 30
0.0
 11
862.5
 21
1335.0
 31
0.0
 70
    32
 71
     5
 42
904.9999999999998
  3
Standerd
100
AcDbAlignedDimension
 13
410.0000000000001
 23
1050.0
 33
0.0
 14
1315.0
 24
890.0
 34
0.0
100
AcDbRotatedDimension
  0
DIMENSION
  5
3FF
330
3E2
100
AcDbEntity
  8
DIM
100
AcDbDimension
  2
*D8
 10
1315.0
 20
1450.0
 30
0.0
 11
607.5
 21
1485.0
 31
0.0
 70
    32
 71
     5
 42
1415.0
  3
Standerd
100
AcDbAlignedDimension
 13
-100.0
 23
890.0
 33
0.0
 14
1315.0
 24
890.0
 34
0.0
100
AcDbRotatedDimension
  0
TEXT
  5
400
330
3E2
100
AcDbEntity
  8
TXT
100
AcDbText
 10
-550.0
 20
920.0
 30
0.0
 40
60.0
  1
C  R
 41
1.5
100
AcDbText
  0
TEXT
  5
401
330
3E2
100
AcDbEntity
  8
TXT
100
AcDbText
 10
-550.0
 20
820.0
 30
0.0
 40
60.0
  1
B2-750
 41
1.5
100
AcDbText
  0
DIMENSION
  5
402
330
3E2
100
AcDbEntity
  8
DIM
100
AcDbDimension
  2
*D9
 10
1615.0
 20
900.0
 30
0.0
 11
1580.0
 21
825.0000000000001
 31
0.0
 70
    32
 71
     5
 42
150.0000000000001
  3
Standerd
100
AcDbAlignedDimension
 13
1157.5
 23
750.0
 33
0.0
 14
1305.0
 24
900.0
 34
0.0
 50
90.0
100
AcDbRotatedDimension
  0
DIMENSION
  5
403
330
3E2
100
AcDbEntity
  8
DIM
100
AcDbDimension
  2
*D10
 10
1765.0
 20
-0.0000000000001303
 30
0.0
 11
1730.0
 21
450.0000000000001
 31
0.0
 70
    32
 71
     5
 42
900.0
  3
Standerd
100
AcDbAlignedDimension
 13
1305.0
 23
900.0
 33
0.0
 14
1305.0
 24
0.0
 34
0.0
 50
90.0
100
AcDbRotatedDimension
  0
DIMENSION
  5
404
330
3E2
100
AcDbEntity
  8
DIM
100
AcDbDimension
  2
*D11
 10
1765.0
 20
999.9999999999998
 30
0.0
 11
1730.0
 21
950.0000000000001
 31
0.0
 70
    32
 71
     5
 42
99.99999999999989
  3
Standerd
100
AcDbAlignedDimension
 13
1305.0
 23
900.0
 33
0.0
 14
830.0
 24
1000.0
 34
0.0
 50
90.0
100
AcDbRotatedDimension
  0
LEADER
  5
405
330
3E2
100
AcDbEntity
  8
TXT
100
AcDbLeader
  3
Standerd
 73
     0
 40
40.00787401574804
 41
481.6568542494919
 76
     2
 10
-24.10714285714286
 20
542.0
 30
0.0
 10
-263.8027353046391
 20
484.028735637265
 30
0.0
340
406
213
0.0
223
20.0
233
0.0
1001
ACAD
1000
DSTYLE
1002
{
1070
   147
1040
15.0
1070
    77
1070
     0
1002
}
  0
MTEXT
  5
406
102
{ACAD_REACTORS
330
405
102
}
330
3E2
100
AcDbEntity
  8
TXT
100
AcDbMText
 10
-278.8027353046391
 20
464.028735637265
 30
0.0
 40
40.0
 41
0.0
 71
     9
 72
     1
  1
M12ｲﾝｻｰﾄ（１面のみ）
 73
     1
 44
1.0
  0
DIMENSION
  5
407
330
3E2
100
AcDbEntity
  8
DIM
100
AcDbDimension
  2
*D12
 10
90.0
 20
-0.0000000000000255
 30
0.0
 11
54.99606299212599
 21
125.0
 31
0.0
 70
    32
 71
     5
 42
250.0
  3
Standerd
100
AcDbAlignedDimension
 13
-27.32142857142857
 23
250.0
 33
0.0
 14
0.0
 24
0.0
 34
0.0
 50
90.0
100
AcDbRotatedDimension
  0
DIMENSION
  5
408
330
3E2
100
AcDbEntity
  8
DIM
100
AcDbDimension
  2
*D13
 10
90.00000000000012
 20
550.0
 30
0.0
 11
55.00000000000002
 21
400.0
 31
0.0
 70
    32
 71
     5
 42
300.0
  3
Standerd
100
AcDbAlignedDimension
 13
-27.32142857142857
 23
250.0
 33
0.0
 14
-24.10714285714286
 24
550.0
 34
0.0
 50
90.0
100
AcDbRotatedDimension
  0
DIMENSION
  5
409
330
3E2
100
AcDbEntity
  8
DIM
100
AcDbDimension
  2
*D14
 10
807.4999999999999
 20
418.2243564018904
 30
0.0
 11
607.5
 21
453.2243564018904
 31
0.0
 70
    32
 71
     5
 42
400.0
  3
Standerd
100
AcDbAlignedDimension
 13
407.5
 23
270.0
 33
0.0
 14
807.4999999999999
 24
270.0
 34
0.0
100
AcDbRotatedDimension
  0
ENDBLK
  5
40B
330
3E2
100
AcDbEntity
  8
0
100
AcDbBlockEnd
  0
BLOCK
  5
40F
330
40E
100
AcDbEntity
  8
0
100
AcDbBlockBegin
  2
*D16
 70
     1
 10
0.0
 20
0.0
 30
0.0
  3
*D16
  1

  0
LINE
  5
410
330
40E
100
AcDbEntity
  8
NO
 62
     0
370
    -2
100
AcDbLine
 10
1907.842030105023
 20
1342.723087638182
 30
0.0
 11
2027.842030105023
 21
1342.723087638182
 31
0.0
  0
LINE
  5
411
330
40E
100
AcDbEntity
  8
NO
 62
     0
370
    -2
100
AcDbLine
 10
1882.842030105023
 20
1132.723087638182
 30
0.0
 11
2027.842030105023
 21
1132.723087638182
 31
0.0
  0
LINE
  5
412
330
40E
100
AcDbEntity
  8
NO
 62
     0
370
    -2
100
AcDbLine
 10
1997.842030105022
 20
1302.723087638182
 30
0.0
 11
1997.842030105022
 21
1172.723087638182
 31
0.0
  0
SOLID
  5
413
330
40E
100
AcDbEntity
  8
NO
 62
     0
100
AcDbTrace
 10
1991.175363438356
 20
1302.723087638182
 30
0.0
 11
2004.50869677169
 21
1302.723087638182
 31
0.0
 12
1997.842030105022
 22
1342.723087638182
 32
0.0
 13
1997.842030105022
 23
1342.723087638182
 33
0.0
  0
SOLID
  5
414
330
40E
100
AcDbEntity
  8
NO
 62
     0
100
AcDbTrace
 10
1991.175363438356
 20
1172.723087638182
 30
0.0
 11
2004.50869677169
 21
1172.723087638182
 31
0.0
 12
1997.842030105022
 22
1132.723087638182
 32
0.0
 13
1997.842030105022
 23
1132.723087638182
 33
0.0
  0
MTEXT
  5
415
330
40E
100
AcDbEntity
  8
NO
 62
     0
100
AcDbMText
 10
1962.838093097148
 20
1237.723087638182
 30
0.0
 40
40.0
 41
0.0
 71
     5
 72
     1
  1
210
 11
0.0000000000000001
 21
1.0
 31
0.0
 73
     1
 44
1.0
  0
POINT
  5
416
330
40E
100
AcDbEntity
  8
Defpoints
 62
     0
100
AcDbPoint
 10
1837.842030105022
 20
1342.723087638182
 30
0.0
  0
POINT
  5
417
330
40E
100
AcDbEntity
  8
Defpoints
 62
     0
100
AcDbPoint
 10
1812.842030105023
 20
1132.723087638182
 30
0.0
  0
POINT
  5
418
330
40E
100
AcDbEntity
  8
Defpoints
 62
     0
100
AcDbPoint
 10
1997.842030105022
 20
1132.723087638182
 30
0.0
  0
ENDBLK
  5
419
330
40E
100
AcDbEntity
  8
0
100
AcDbBlockEnd
  0
BLOCK
  5
41B
330
41A
100
AcDbEntity
  8
0
100
AcDbBlockBegin
  2
*D17
 70
     1
 10
0.0
 20
0.0
 30
0.0
  3
*D17
  1

  0
LINE
  5
41C
330
41A
100
AcDbEntity
  8
NO
 62
     0
370
    -2
100
AcDbLine
 10
690.3420301050227
 20
612.7230876381823
 30
0.0
 11
690.3420301050227
 21
312.7230876381823
 31
0.0
  0
LINE
  5
41D
330
41A
100
AcDbEntity
  8
NO
 62
     0
370
    -2
100
AcDbLine
 10
1590.342030105023
 20
612.7230876381823
 30
0.0
 11
1590.342030105023
 21
312.7230876381823
 31
0.0
  0
LINE
  5
41E
330
41A
100
AcDbEntity
  8
NO
 62
     0
370
    -2
100
AcDbLine
 10
730.3420301050228
 20
342.7230876381823
 30
0.0
 11
1550.342030105023
 21
342.7230876381823
 31
0.0
  0
SOLID
  5
41F
330
41A
100
AcDbEntity
  8
NO
 62
     0
100
AcDbTrace
 10
730.3420301050228
 20
349.389754304849
 30
0.0
 11
730.3420301050228
 21
336.0564209715156
 31
0.0
 12
690.3420301050227
 22
342.7230876381823
 32
0.0
 13
690.3420301050227
 23
342.7230876381823
 33
0.0
  0
SOLID
  5
420
330
41A
100
AcDbEntity
  8
NO
 62
     0
100
AcDbTrace
 10
1550.342030105023
 20
349.389754304849
 30
0.0
 11
1550.342030105023
 21
336.0564209715156
 31
0.0
 12
1590.342030105023
 22
342.7230876381823
 32
0.0
 13
1590.342030105023
 23
342.7230876381823
 33
0.0
  0
MTEXT
  5
421
330
41A
100
AcDbEntity
  8
NO
 62
     0
100
AcDbMText
 10
1140.342030105023
 20
377.7230876381823
 30
0.0
 40
40.0
 41
0.0
 71
     5
 72
     1
  1
900
 73
     1
 44
1.0
  0
POINT
  5
422
330
41A
100
AcDbEntity
  8
Defpoints
 62
     0
100
AcDbPoint
 10
690.3420301050227
 20
682.7230876381823
 30
0.0
  0
POINT
  5
423
330
41A
100
AcDbEntity
  8
Defpoints
 62
     0
100
AcDbPoint
 10
1590.342030105023
 20
682.7230876381823
 30
0.0
  0
POINT
  5
424
330
41A
100
AcDbEntity
  8
Defpoints
 62
     0
100
AcDbPoint
 10
1590.342030105023
 20
342.7230876381823
 30
0.0
  0
ENDBLK
  5
425
330
41A
100
AcDbEntity
  8
0
100
AcDbBlockEnd
  0
BLOCK
  5
427
330
426
100
AcDbEntity
  8
0
100
AcDbBlockBegin
  2
*D18
 70
     1
 10
0.0
 20
0.0
 30
0.0
  3
*D18
  1

  0
LINE
  5
428
330
426
100
AcDbEntity
  8
DIM
 62
     0
370
    -2
100
AcDbLine
 10
540.3420301050227
 20
572.7230876381822
 30
0.0
 11
540.3420301050227
 21
162.7230876381823
 31
0.0
  0
LINE
  5
429
330
426
100
AcDbEntity
  8
DIM
 62
     0
370
    -2
100
AcDbLine
 10
1740.342030105023
 20
572.7230876381822
 30
0.0
 11
1740.342030105023
 21
162.7230876381823
 31
0.0
  0
LINE
  5
42A
330
426
100
AcDbEntity
  8
DIM
 62
     0
370
    -2
100
AcDbLine
 10
580.3420301050228
 20
192.7230876381823
 30
0.0
 11
1700.342030105022
 21
192.7230876381823
 31
0.0
  0
SOLID
  5
42B
330
426
100
AcDbEntity
  8
DIM
 62
     0
100
AcDbTrace
 10
580.3420301050228
 20
199.3897543048489
 30
0.0
 11
580.3420301050228
 21
186.0564209715156
 31
0.0
 12
540.3420301050227
 22
192.7230876381823
 32
0.0
 13
540.3420301050227
 23
192.7230876381823
 33
0.0
  0
SOLID
  5
42C
330
426
100
AcDbEntity
  8
DIM
 62
     0
100
AcDbTrace
 10
1700.342030105022
 20
199.3897543048489
 30
0.0
 11
1700.342030105022
 21
186.0564209715156
 31
0.0
 12
1740.342030105023
 22
192.7230876381823
 32
0.0
 13
1740.342030105023
 23
192.7230876381823
 33
0.0
  0
MTEXT
  5
42D
330
426
100
AcDbEntity
  8
DIM
 62
     0
100
AcDbMText
 10
1140.342030105023
 20
227.7270246460563
 30
0.0
 40
40.0
 41
0.0
 71
     5
 72
     1
  1
1200
 73
     1
 44
1.0
  0
POINT
  5
42E
330
426
100
AcDbEntity
  8
Defpoints
 62
     0
100
AcDbPoint
 10
540.3420301050227
 20
642.7230876381822
 30
0.0
  0
POINT
  5
42F
330
426
100
AcDbEntity
  8
Defpoints
 62
     0
100
AcDbPoint
 10
1740.342030105023
 20
642.7230876381822
 30
0.0
  0
POINT
  5
430
330
426
100
AcDbEntity
  8
Defpoints
 62
     0
100
AcDbPoint
 10
1740.342030105023
 20
192.7230876381823
 30
0.0
  0
ENDBLK
  5
431
330
426
100
AcDbEntity
  8
0
100
AcDbBlockEnd
  0
BLOCK
  5
433
330
432
100
AcDbEntity
  8
0
100
AcDbBlockBegin
  2
*D19
 70
     1
 10
0.0
 20
0.0
 30
0.0
  3
*D19
  1

  0
LINE
  5
434
330
432
100
AcDbEntity
  8
DIM
 62
     0
370
    -2
100
AcDbLine
 10
432.8420301050227
 20
432.7230876381823
 30
0.0
 11
432.8420301050227
 21
12.72308763818228
 31
0.0
  0
LINE
  5
435
330
432
100
AcDbEntity
  8
DIM
 62
     0
370
    -2
100
AcDbLine
 10
1847.842030105023
 20
432.7230876381823
 30
0.0
 11
1847.842030105023
 21
12.72308763818228
 31
0.0
  0
LINE
  5
436
330
432
100
AcDbEntity
  8
DIM
 62
     0
370
    -2
100
AcDbLine
 10
472.8420301050228
 20
42.72308763818227
 30
0.0
 11
1807.842030105023
 21
42.72308763818227
 31
0.0
  0
SOLID
  5
437
330
432
100
AcDbEntity
  8
DIM
 62
     0
100
AcDbTrace
 10
472.8420301050228
 20
49.38975430484894
 30
0.0
 11
472.8420301050228
 21
36.05642097151561
 31
0.0
 12
432.8420301050227
 22
42.72308763818227
 32
0.0
 13
432.8420301050227
 23
42.72308763818227
 33
0.0
  0
SOLID
  5
438
330
432
100
AcDbEntity
  8
DIM
 62
     0
100
AcDbTrace
 10
1807.842030105023
 20
49.38975430484894
 30
0.0
 11
1807.842030105023
 21
36.05642097151561
 31
0.0
 12
1847.842030105023
 22
42.72308763818227
 32
0.0
 13
1847.842030105023
 23
42.72308763818227
 33
0.0
  0
MTEXT
  5
439
330
432
100
AcDbEntity
  8
DIM
 62
     0
100
AcDbMText
 10
1140.342030105023
 20
77.72308763818227
 30
0.0
 40
40.0
 41
0.0
 71
     5
 72
     1
  1
1415
 73
     1
 44
1.0
  0
POINT
  5
43A
330
432
100
AcDbEntity
  8
Defpoints
 62
     0
100
AcDbPoint
 10
432.8420301050227
 20
502.7230876381822
 30
0.0
  0
POINT
  5
43B
330
432
100
AcDbEntity
  8
Defpoints
 62
     0
100
AcDbPoint
 10
1847.842030105023
 20
502.7230876381822
 30
0.0
  0
POINT
  5
43C
330
432
100
AcDbEntity
  8
Defpoints
 62
     0
100
AcDbPoint
 10
1847.842030105023
 20
42.72308763818227
 30
0.0
  0
ENDBLK
  5
43D
330
432
100
AcDbEntity
  8
0
100
AcDbBlockEnd
  0
BLOCK
  5
43F
330
43E
100
AcDbEntity
  8
0
100
AcDbBlockBegin
  2
*D20
 70
     1
 10
0.0
 20
0.0
 30
0.0
  3
*D20
  1

  0
LINE
  5
440
330
43E
100
AcDbEntity
  8
NO
 62
     0
370
    -2
100
AcDbLine
 10
1882.842030105023
 20
1132.723087638182
 30
0.0
 11
2027.842030105023
 21
1132.723087638182
 31
0.0
  0
LINE
  5
441
330
43E
100
AcDbEntity
  8
NO
 62
     0
370
    -2
100
AcDbLine
 10
1882.842030105023
 20
682.7230876381823
 30
0.0
 11
2027.842030105023
 21
682.7230876381823
 31
0.0
  0
LINE
  5
442
330
43E
100
AcDbEntity
  8
NO
 62
     0
370
    -2
100
AcDbLine
 10
1997.842030105022
 20
1092.723087638182
 30
0.0
 11
1997.842030105022
 21
722.7230876381822
 31
0.0
  0
SOLID
  5
443
330
43E
100
AcDbEntity
  8
NO
 62
     0
100
AcDbTrace
 10
1991.175363438356
 20
1092.723087638182
 30
0.0
 11
2004.50869677169
 21
1092.723087638182
 31
0.0
 12
1997.842030105022
 22
1132.723087638182
 32
0.0
 13
1997.842030105022
 23
1132.723087638182
 33
0.0
  0
SOLID
  5
444
330
43E
100
AcDbEntity
  8
NO
 62
     0
100
AcDbTrace
 10
1991.175363438356
 20
722.7230876381822
 30
0.0
 11
2004.50869677169
 21
722.7230876381822
 31
0.0
 12
1997.842030105022
 22
682.7230876381823
 32
0.0
 13
1997.842030105022
 23
682.7230876381823
 33
0.0
  0
MTEXT
  5
445
330
43E
100
AcDbEntity
  8
NO
 62
     0
100
AcDbMText
 10
1962.842030105022
 20
907.7230876381825
 30
0.0
 40
40.0
 41
0.0
 71
     5
 72
     1
  1
450
 11
0.0000000000000001
 21
1.0
 31
0.0
 73
     1
 44
1.0
  0
POINT
  5
446
330
43E
100
AcDbEntity
  8
Defpoints
 62
     0
100
AcDbPoint
 10
1812.842030105023
 20
1132.723087638182
 30
0.0
  0
POINT
  5
447
330
43E
100
AcDbEntity
  8
Defpoints
 62
     0
100
AcDbPoint
 10
1812.842030105023
 20
682.7230876381823
 30
0.0
  0
POINT
  5
448
330
43E
100
AcDbEntity
  8
Defpoints
 62
     0
100
AcDbPoint
 10
1997.842030105022
 20
682.7230876381823
 30
0.0
  0
ENDBLK
  5
449
330
43E
100
AcDbEntity
  8
0
100
AcDbBlockEnd
  0
BLOCK
  5
44B
330
44A
100
AcDbEntity
  8
0
100
AcDbBlockBegin
  2
*D21
 70
     1
 10
0.0
 20
0.0
 30
0.0
  3
*D21
  1

  0
LINE
  5
44C
330
44A
100
AcDbEntity
  8
DIM
 62
     0
370
    -2
100
AcDbLine
 10
1907.842030105023
 20
1342.723087638182
 30
0.0
 11
2177.842030105023
 21
1342.723087638182
 31
0.0
  0
LINE
  5
44D
330
44A
100
AcDbEntity
  8
DIM
 62
     0
370
    -2
100
AcDbLine
 10
1760.342030105023
 20
592.7230876381822
 30
0.0
 11
2177.842030105023
 21
592.7230876381822
 31
0.0
  0
LINE
  5
44E
330
44A
100
AcDbEntity
  8
DIM
 62
     0
370
    -2
100
AcDbLine
 10
2147.842030105023
 20
1302.723087638182
 30
0.0
 11
2147.842030105023
 21
632.7230876381821
 31
0.0
  0
SOLID
  5
44F
330
44A
100
AcDbEntity
  8
DIM
 62
     0
100
AcDbTrace
 10
2141.175363438357
 20
1302.723087638182
 30
0.0
 11
2154.50869677169
 21
1302.723087638182
 31
0.0
 12
2147.842030105023
 22
1342.723087638182
 32
0.0
 13
2147.842030105023
 23
1342.723087638182
 33
0.0
  0
SOLID
  5
450
330
44A
100
AcDbEntity
  8
DIM
 62
     0
100
AcDbTrace
 10
2141.175363438356
 20
632.7230876381821
 30
0.0
 11
2154.508696771689
 21
632.7230876381821
 31
0.0
 12
2147.842030105023
 22
592.7230876381822
 32
0.0
 13
2147.842030105023
 23
592.7230876381822
 33
0.0
  0
MTEXT
  5
451
330
44A
100
AcDbEntity
  8
DIM
 62
     0
100
AcDbMText
 10
2112.842030105023
 20
967.7230876381825
 30
0.0
 40
40.0
 41
0.0
 71
     5
 72
     1
  1
750
 11
0.0000000000000001
 21
1.0
 31
0.0
 73
     1
 44
1.0
  0
POINT
  5
452
330
44A
100
AcDbEntity
  8
Defpoints
 62
     0
100
AcDbPoint
 10
1837.842030105022
 20
1342.723087638182
 30
0.0
  0
POINT
  5
453
330
44A
100
AcDbEntity
  8
Defpoints
 62
     0
100
AcDbPoint
 10
1690.342030105023
 20
592.7230876381822
 30
0.0
  0
POINT
  5
454
330
44A
100
AcDbEntity
  8
Defpoints
 62
     0
100
AcDbPoint
 10
2147.842030105023
 20
592.7230876381822
 30
0.0
  0
ENDBLK
  5
455
330
44A
100
AcDbEntity
  8
0
100
AcDbBlockEnd
  0
BLOCK
  5
457
330
456
100
AcDbEntity
  8
0
100
AcDbBlockBegin
  2
*D22
 70
     1
 10
0.0
 20
0.0
 30
0.0
  3
*D22
  1

  0
LINE
  5
458
330
456
100
AcDbEntity
  8
DIM
 62
     0
370
    -2
100
AcDbLine
 10
1907.842030105023
 20
492.7230876381822
 30
0.0
 11
2327.842030105022
 21
492.7230876381821
 31
0.0
  0
LINE
  5
459
330
456
100
AcDbEntity
  8
DIM
 62
     0
370
    -2
100
AcDbLine
 10
1907.842030105023
 20
1342.723087638182
 30
0.0
 11
2327.842030105023
 21
1342.723087638182
 31
0.0
  0
LINE
  5
45A
330
456
100
AcDbEntity
  8
DIM
 62
     0
370
    -2
100
AcDbLine
 10
2297.842030105023
 20
532.7230876381823
 30
0.0
 11
2297.842030105023
 21
1302.723087638182
 31
0.0
  0
SOLID
  5
45B
330
456
100
AcDbEntity
  8
DIM
 62
     0
100
AcDbTrace
 10
2291.175363438356
 20
532.7230876381823
 30
0.0
 11
2304.508696771689
 21
532.7230876381821
 31
0.0
 12
2297.842030105023
 22
492.7230876381822
 32
0.0
 13
2297.842030105023
 23
492.7230876381822
 33
0.0
  0
SOLID
  5
45C
330
456
100
AcDbEntity
  8
DIM
 62
     0
100
AcDbTrace
 10
2291.175363438356
 20
1302.723087638182
 30
0.0
 11
2304.508696771689
 21
1302.723087638182
 31
0.0
 12
2297.842030105023
 22
1342.723087638182
 32
0.0
 13
2297.842030105023
 23
1342.723087638182
 33
0.0
  0
MTEXT
  5
45D
330
456
100
AcDbEntity
  8
DIM
 62
     0
100
AcDbMText
 10
2262.842030105022
 20
917.7230876381825
 30
0.0
 40
40.0
 41
0.0
 71
     5
 72
     1
  1
850
 11
0.0000000000000001
 21
1.0
 31
0.0
 73
     1
 44
1.0
  0
POINT
  5
45E
330
456
100
AcDbEntity
  8
Defpoints
 62
     0
100
AcDbPoint
 10
1837.842030105022
 20
492.7230876381822
 30
0.0
  0
POINT
  5
45F
330
456
100
AcDbEntity
  8
Defpoints
 62
     0
100
AcDbPoint
 10
1837.842030105022
 20
1342.723087638182
 30
0.0
  0
POINT
  5
460
330
456
100
AcDbEntity
  8
Defpoints
 62
     0
100
AcDbPoint
 10
2297.842030105023
 20
1342.723087638182
 30
0.0
  0
ENDBLK
  5
461
330
456
100
AcDbEntity
  8
0
100
AcDbBlockEnd
  0
BLOCK
  5
463
330
462
100
AcDbEntity
  8
0
100
AcDbBlockBegin
  2
*D23
 70
     1
 10
0.0
 20
0.0
 30
0.0
  3
*D23
  1

  0
LINE
  5
464
330
462
100
AcDbEntity
  8
NO
 62
     0
370
    -2
100
AcDbLine
 10
397.8420301050228
 20
1032.723087638182
 30
0.0
 11
252.8420301050227
 21
1032.723087638182
 31
0.0
  0
LINE
  5
465
330
462
100
AcDbEntity
  8
NO
 62
     0
370
    -2
100
AcDbLine
 10
397.8420301050226
 20
682.7230876381823
 30
0.0
 11
252.8420301050226
 21
682.7230876381824
 31
0.0
  0
LINE
  5
466
330
462
100
AcDbEntity
  8
NO
 62
     0
370
    -2
100
AcDbLine
 10
282.8420301050227
 20
992.7230876381822
 30
0.0
 11
282.8420301050226
 21
722.7230876381822
 31
0.0
  0
SOLID
  5
467
330
462
100
AcDbEntity
  8
NO
 62
     0
100
AcDbTrace
 10
276.175363438356
 20
992.7230876381822
 30
0.0
 11
289.5086967716894
 21
992.7230876381822
 31
0.0
 12
282.8420301050227
 22
1032.723087638182
 32
0.0
 13
282.8420301050227
 23
1032.723087638182
 33
0.0
  0
SOLID
  5
468
330
462
100
AcDbEntity
  8
NO
 62
     0
100
AcDbTrace
 10
276.1753634383559
 20
722.7230876381822
 30
0.0
 11
289.5086967716893
 21
722.7230876381822
 31
0.0
 12
282.8420301050226
 22
682.7230876381823
 32
0.0
 13
282.8420301050226
 23
682.7230876381823
 33
0.0
  0
MTEXT
  5
469
330
462
100
AcDbEntity
  8
NO
 62
     0
100
AcDbMText
 10
247.8420301050225
 20
857.7230876381822
 30
0.0
 40
40.0
 41
0.0
 71
     5
 72
     1
  1
350
 11
0.0000000000000001
 21
1.0
 31
0.0
 73
     1
 44
1.0
  0
POINT
  5
46A
330
462
100
AcDbEntity
  8
Defpoints
 62
     0
100
AcDbPoint
 10
467.8420301050228
 20
1032.723087638182
 30
0.0
  0
POINT
  5
46B
330
462
100
AcDbEntity
  8
Defpoints
 62
     0
100
AcDbPoint
 10
467.8420301050225
 20
682.7230876381823
 30
0.0
  0
POINT
  5
46C
330
462
100
AcDbEntity
  8
Defpoints
 62
     0
100
AcDbPoint
 10
282.8420301050226
 20
682.7230876381823
 30
0.0
  0
ENDBLK
  5
46D
330
462
100
AcDbEntity
  8
0
100
AcDbBlockEnd
  0
BLOCK
  5
46F
330
46E
100
AcDbEntity
  8
0
100
AcDbBlockBegin
  2
*D24
 70
     1
 10
0.0
 20
0.0
 30
0.0
  3
*D24
  1

  0
LINE
  5
470
330
46E
100
AcDbEntity
  8
DIM
 62
     0
370
    -2
100
AcDbLine
 10
1760.342030105023
 20
592.7230876381822
 30
0.0
 11
2177.842030105022
 21
592.7230876381822
 31
0.0
  0
LINE
  5
471
330
46E
100
AcDbEntity
  8
DIM
 62
     0
370
    -2
100
AcDbLine
 10
1907.842030105023
 20
492.7230876381822
 30
0.0
 11
2177.842030105022
 21
492.7230876381822
 31
0.0
  0
LINE
  5
472
330
46E
100
AcDbEntity
  8
DIM
 62
     0
370
    -2
100
AcDbLine
 10
2147.842030105023
 20
632.7230876381821
 30
0.0
 11
2147.842030105023
 21
672.7230876381821
 31
0.0
  0
LINE
  5
473
330
46E
100
AcDbEntity
  8
DIM
 62
     0
370
    -2
100
AcDbLine
 10
2147.842030105023
 20
452.7230876381822
 30
0.0
 11
2147.842030105023
 21
412.7230876381822
 31
0.0
  0
SOLID
  5
474
330
46E
100
AcDbEntity
  8
DIM
 62
     0
100
AcDbTrace
 10
2141.175363438356
 20
632.7230876381821
 30
0.0
 11
2154.508696771689
 21
632.7230876381821
 31
0.0
 12
2147.842030105023
 22
592.7230876381822
 32
0.0
 13
2147.842030105023
 23
592.7230876381822
 33
0.0
  0
SOLID
  5
475
330
46E
100
AcDbEntity
  8
DIM
 62
     0
100
AcDbTrace
 10
2141.175363438356
 20
452.7230876381822
 30
0.0
 11
2154.508696771689
 21
452.7230876381822
 31
0.0
 12
2147.842030105023
 22
492.7230876381822
 32
0.0
 13
2147.842030105023
 23
492.7230876381822
 33
0.0
  0
MTEXT
  5
476
330
46E
100
AcDbEntity
  8
DIM
 62
     0
100
AcDbMText
 10
2112.842030105023
 20
542.7230876381825
 30
0.0
 40
40.0
 41
0.0
 71
     5
 72
     1
  1
100
 11
0.0000000000000001
 21
1.0
 31
0.0
 73
     1
 44
1.0
  0
POINT
  5
477
330
46E
100
AcDbEntity
  8
Defpoints
 62
     0
100
AcDbPoint
 10
1690.342030105023
 20
592.7230876381822
 30
0.0
  0
POINT
  5
478
330
46E
100
AcDbEntity
  8
Defpoints
 62
     0
100
AcDbPoint
 10
1837.842030105022
 20
492.7230876381822
 30
0.0
  0
POINT
  5
479
330
46E
100
AcDbEntity
  8
Defpoints
 62
     0
100
AcDbPoint
 10
2147.842030105023
 20
492.7230876381822
 30
0.0
  0
ENDBLK
  5
47A
330
46E
100
AcDbEntity
  8
0
100
AcDbBlockEnd
  0
BLOCK
  5
47C
330
47B
100
AcDbEntity
  8
0
100
AcDbBlockBegin
  2
*D25
 70
     1
 10
0.0
 20
0.0
 30
0.0
  3
*D25
  1

  0
LINE
  5
47D
330
47B
100
AcDbEntity
  8
DIM
 62
     0
370
    -2
100
AcDbLine
 10
1841.670585780226
 20
1367.723087638182
 30
0.0
 11
1828.446062227092
 21
1442.723087638182
 31
0.0
  0
LINE
  5
47E
330
47B
100
AcDbEntity
  8
DIM
 62
     0
370
    -2
100
AcDbLine
 10
1741.670585780227
 20
1377.723087638182
 30
0.0
 11
1730.209332034176
 21
1442.723087638182
 31
0.0
  0
LINE
  5
47F
330
47B
100
AcDbEntity
  8
DIM
 62
     0
370
    -2
100
AcDbLine
 10
1873.735871648345
 20
1412.723087638182
 30
0.0
 11
1913.735871648346
 21
1412.723087638182
 31
0.0
  0
LINE
  5
480
330
47B
100
AcDbEntity
  8
DIM
 62
     0
370
    -2
100
AcDbLine
 10
1695.49914145543
 20
1412.723087638182
 30
0.0
 11
1655.49914145543
 21
1412.723087638182
 31
0.0
  0
SOLID
  5
481
330
47B
100
AcDbEntity
  8
DIM
 62
     0
100
AcDbTrace
 10
1873.735871648345
 20
1419.389754304849
 30
0.0
 11
1873.735871648345
 21
1406.056420971515
 31
0.0
 12
1833.735871648346
 22
1412.723087638182
 32
0.0
 13
1833.735871648346
 23
1412.723087638182
 33
0.0
  0
SOLID
  5
482
330
47B
100
AcDbEntity
  8
DIM
 62
     0
100
AcDbTrace
 10
1695.49914145543
 20
1419.389754304849
 30
0.0
 11
1695.49914145543
 21
1406.056420971515
 31
0.0
 12
1735.49914145543
 22
1412.723087638182
 32
0.0
 13
1735.49914145543
 23
1412.723087638182
 33
0.0
  0
MTEXT
  5
483
330
47B
100
AcDbEntity
  8
DIM
 62
     0
100
AcDbMText
 10
1784.617506551888
 20
1447.723087638182
 30
0.0
 40
40.0
 41
0.0
 71
     5
 72
     1
  1
100
 73
     1
 44
1.0
  0
POINT
  5
484
330
47B
100
AcDbEntity
  8
Defpoints
 62
     0
100
AcDbPoint
 10
1847.842030105023
 20
1332.723087638182
 30
0.0
  0
POINT
  5
485
330
47B
100
AcDbEntity
  8
Defpoints
 62
     0
100
AcDbPoint
 10
1747.842030105022
 20
1342.723087638182
 30
0.0
  0
POINT
  5
486
330
47B
100
AcDbEntity
  8
Defpoints
 62
     0
100
AcDbPoint
 10
1735.49914145543
 20
1412.723087638182
 30
0.0
  0
ENDBLK
  5
487
330
47B
100
AcDbEntity
  8
0
100
AcDbBlockEnd
  0
BLOCK
  5
489
330
488
100
AcDbEntity
  8
0
100
AcDbBlockBegin
  2
*D26
 70
     1
 10
0.0
 20
0.0
 30
0.0
  3
*D26
  1

  0
LINE
  5
48A
330
488
100
AcDbEntity
  8
DIM
 62
     0
370
    -2
100
AcDbLine
 10
1741.670585780227
 20
1377.723087638182
 30
0.0
 11
1730.209332034176
 21
1442.723087638182
 31
0.0
  0
LINE
  5
48B
330
488
100
AcDbEntity
  8
DIM
 62
     0
370
    -2
100
AcDbLine
 10
526.6705857802264
 20
1377.723087638182
 30
0.0
 11
515.2093320341763
 21
1442.723087638182
 31
0.0
  0
LINE
  5
48C
330
488
100
AcDbEntity
  8
DIM
 62
     0
370
    -2
100
AcDbLine
 10
1695.49914145543
 20
1412.723087638182
 30
0.0
 11
560.4991414554302
 21
1412.723087638182
 31
0.0
  0
SOLID
  5
48D
330
488
100
AcDbEntity
  8
DIM
 62
     0
100
AcDbTrace
 10
1695.49914145543
 20
1419.389754304849
 30
0.0
 11
1695.49914145543
 21
1406.056420971515
 31
0.0
 12
1735.49914145543
 22
1412.723087638182
 32
0.0
 13
1735.49914145543
 23
1412.723087638182
 33
0.0
  0
SOLID
  5
48E
330
488
100
AcDbEntity
  8
DIM
 62
     0
100
AcDbTrace
 10
560.4991414554302
 20
1419.389754304849
 30
0.0
 11
560.4991414554302
 21
1406.056420971515
 31
0.0
 12
520.4991414554302
 22
1412.723087638182
 32
0.0
 13
520.4991414554302
 23
1412.723087638182
 33
0.0
  0
MTEXT
  5
48F
330
488
100
AcDbEntity
  8
DIM
 62
     0
100
AcDbMText
 10
1127.99914145543
 20
1447.727024646056
 30
0.0
 40
40.0
 41
0.0
 71
     5
 72
     1
  1
1215
 73
     1
 44
1.0
  0
POINT
  5
490
330
488
100
AcDbEntity
  8
Defpoints
 62
     0
100
AcDbPoint
 10
1747.842030105022
 20
1342.723087638182
 30
0.0
  0
POINT
  5
491
330
488
100
AcDbEntity
  8
Defpoints
 62
     0
100
AcDbPoint
 10
532.8420301050227
 20
1342.723087638182
 30
0.0
  0
POINT
  5
492
330
488
100
AcDbEntity
  8
Defpoints
 62
     0
100
AcDbPoint
 10
520.4991414554302
 20
1412.723087638182
 30
0.0
  0
ENDBLK
  5
493
330
488
100
AcDbEntity
  8
0
100
AcDbBlockEnd
  0
BLOCK
  5
495
330
494
100
AcDbEntity
  8
0
100
AcDbBlockBegin
  2
*D27
 70
     1
 10
0.0
 20
0.0
 30
0.0
  3
*D27
  1

  0
LINE
  5
496
330
494
100
AcDbEntity
  8
DIM
 62
     0
370
    -2
100
AcDbLine
 10
526.6705857802264
 20
1377.723087638182
 30
0.0
 11
515.2093320341763
 21
1442.723087638182
 31
0.0
  0
LINE
  5
497
330
494
100
AcDbEntity
  8
DIM
 62
     0
370
    -2
100
AcDbLine
 10
426.6705857802265
 20
1367.723087638182
 30
0.0
 11
413.4460622270916
 21
1442.723087638182
 31
0.0
  0
LINE
  5
498
330
494
100
AcDbEntity
  8
DIM
 62
     0
370
    -2
100
AcDbLine
 10
560.4991414554302
 20
1412.723087638182
 30
0.0
 11
600.4991414554303
 21
1412.723087638182
 31
0.0
  0
LINE
  5
499
330
494
100
AcDbEntity
  8
DIM
 62
     0
370
    -2
100
AcDbLine
 10
378.7358716483456
 20
1412.723087638182
 30
0.0
 11
338.7358716483456
 21
1412.723087638182
 31
0.0
  0
SOLID
  5
49A
330
494
100
AcDbEntity
  8
DIM
 62
     0
100
AcDbTrace
 10
560.4991414554302
 20
1419.389754304849
 30
0.0
 11
560.4991414554302
 21
1406.056420971515
 31
0.0
 12
520.4991414554302
 22
1412.723087638182
 32
0.0
 13
520.4991414554302
 23
1412.723087638182
 33
0.0
  0
SOLID
  5
49B
330
494
100
AcDbEntity
  8
DIM
 62
     0
100
AcDbTrace
 10
378.7358716483456
 20
1419.389754304849
 30
0.0
 11
378.7358716483456
 21
1406.056420971515
 31
0.0
 12
418.7358716483456
 22
1412.723087638182
 32
0.0
 13
418.7358716483456
 23
1412.723087638182
 33
0.0
  0
MTEXT
  5
49C
330
494
100
AcDbEntity
  8
DIM
 62
     0
100
AcDbMText
 10
469.6175065518879
 20
1447.723087638182
 30
0.0
 40
40.0
 41
0.0
 71
     5
 72
     1
  1
100
 73
     1
 44
1.0
  0
POINT
  5
49D
330
494
100
AcDbEntity
  8
Defpoints
 62
     0
100
AcDbPoint
 10
532.8420301050227
 20
1342.723087638182
 30
0.0
  0
POINT
  5
49E
330
494
100
AcDbEntity
  8
Defpoints
 62
     0
100
AcDbPoint
 10
432.8420301050227
 20
1332.723087638182
 30
0.0
  0
POINT
  5
49F
330
494
100
AcDbEntity
  8
Defpoints
 62
     0
100
AcDbPoint
 10
418.7358716483456
 20
1412.723087638182
 30
0.0
  0
ENDBLK
  5
4A0
330
494
100
AcDbEntity
  8
0
100
AcDbBlockEnd
  0
BLOCK
  5
4A2
330
4A1
100
AcDbEntity
  8
0
100
AcDbBlockBegin
  2
*D28
 70
     1
 10
0.0
 20
0.0
 30
0.0
  3
*D28
  1

  0
LINE
  5
4A3
330
4A1
100
AcDbEntity
  8
DIM
 62
     0
370
    -2
100
AcDbLine
 10
940.3420301050228
 20
1242.723087638182
 30
0.0
 11
940.3420301050228
 21
1300.577769325613
 31
0.0
  0
LINE
  5
4A4
330
4A1
100
AcDbEntity
  8
DIM
 62
     0
370
    -2
100
AcDbLine
 10
1340.342030105023
 20
1242.723087638182
 30
0.0
 11
1340.342030105023
 21
1300.577769325613
 31
0.0
  0
LINE
  5
4A5
330
4A1
100
AcDbEntity
  8
DIM
 62
     0
370
    -2
100
AcDbLine
 10
980.3420301050227
 20
1270.577769325613
 30
0.0
 11
1300.342030105023
 21
1270.577769325613
 31
0.0
  0
SOLID
  5
4A6
330
4A1
100
AcDbEntity
  8
DIM
 62
     0
100
AcDbTrace
 10
980.3420301050227
 20
1277.24443599228
 30
0.0
 11
980.3420301050227
 21
1263.911102658947
 31
0.0
 12
940.3420301050228
 22
1270.577769325613
 32
0.0
 13
940.3420301050228
 23
1270.577769325613
 33
0.0
  0
SOLID
  5
4A7
330
4A1
100
AcDbEntity
  8
DIM
 62
     0
100
AcDbTrace
 10
1300.342030105023
 20
1277.24443599228
 30
0.0
 11
1300.342030105023
 21
1263.911102658947
 31
0.0
 12
1340.342030105023
 22
1270.577769325613
 32
0.0
 13
1340.342030105023
 23
1270.577769325613
 33
0.0
  0
MTEXT
  5
4A8
330
4A1
100
AcDbEntity
  8
DIM
 62
     0
100
AcDbMText
 10
1140.342030105023
 20
1305.577769325613
 30
0.0
 40
40.0
 41
0.0
 71
     5
 72
     1
  1
400
 73
     1
 44
1.0
  0
POINT
  5
4A9
330
4A1
100
AcDbEntity
  8
Defpoints
 62
     0
100
AcDbPoint
 10
940.3420301050228
 20
1172.723087638182
 30
0.0
  0
POINT
  5
4AA
330
4A1
100
AcDbEntity
  8
Defpoints
 62
     0
100
AcDbPoint
 10
1340.342030105023
 20
1172.723087638182
 30
0.0
  0
POINT
  5
4AB
330
4A1
100
AcDbEntity
  8
Defpoints
 62
     0
100
AcDbPoint
 10
1340.342030105023
 20
1270.577769325613
 30
0.0
  0
ENDBLK
  5
4AC
330
4A1
100
AcDbEntity
  8
0
100
AcDbBlockEnd
  0
BLOCK
  5
4AE
330
4AD
100
AcDbEntity
  8
0
100
AcDbBlockBegin
  2
*D29
 70
     1
 10
0.0
 20
0.0
 30
0.0
  3
*D29
  1

  0
LINE
  5
4AF
330
4AD
100
AcDbEntity
  8
DIM
 62
     0
370
    -2
100
AcDbLine
 10
574.4491729621656
 20
1192.723087638182
 30
0.0
 11
652.8420301050227
 21
1192.723087638182
 31
0.0
  0
LINE
  5
4B0
330
4AD
100
AcDbEntity
  8
DIM
 62
     0
370
    -2
100
AcDbLine
 10
602.8420301050227
 20
1342.723087638182
 30
0.0
 11
652.8420301050227
 21
1342.723087638182
 31
0.0
  0
LINE
  5
4B1
330
4AD
100
AcDbEntity
  8
DIM
 62
     0
370
    -2
100
AcDbLine
 10
622.8420301050227
 20
1232.723087638182
 30
0.0
 11
622.8420301050228
 21
1302.723087638182
 31
0.0
  0
SOLID
  5
4B2
330
4AD
100
AcDbEntity
  8
DIM
 62
     0
100
AcDbTrace
 10
616.175363438356
 20
1232.723087638182
 30
0.0
 11
629.5086967716892
 21
1232.723087638182
 31
0.0
 12
622.8420301050227
 22
1192.723087638182
 32
0.0
 13
622.8420301050227
 23
1192.723087638182
 33
0.0
  0
SOLID
  5
4B3
330
4AD
100
AcDbEntity
  8
DIM
 62
     0
100
AcDbTrace
 10
616.1753634383561
 20
1302.723087638182
 30
0.0
 11
629.5086967716894
 21
1302.723087638182
 31
0.0
 12
622.8420301050228
 22
1342.723087638182
 32
0.0
 13
622.8420301050228
 23
1342.723087638182
 33
0.0
  0
MTEXT
  5
4B4
330
4AD
100
AcDbEntity
  8
DIM
 62
     0
100
AcDbMText
 10
587.8420301050225
 20
1267.723087638182
 30
0.0
 40
40.0
 41
0.0
 71
     5
 72
     1
  1
150
 11
0.0000000000000001
 21
1.0
 31
0.0
 73
     1
 44
1.0
  0
POINT
  5
4B5
330
4AD
100
AcDbEntity
  8
Defpoints
 62
     0
100
AcDbPoint
 10
504.4491729621657
 20
1192.723087638182
 30
0.0
  0
POINT
  5
4B6
330
4AD
100
AcDbEntity
  8
Defpoints
 62
     0
100
AcDbPoint
 10
532.8420301050227
 20
1342.723087638182
 30
0.0
  0
POINT
  5
4B7
330
4AD
100
AcDbEntity
  8
Defpoints
 62
     0
100
AcDbPoint
 10
622.8420301050228
 20
1342.723087638182
 30
0.0
  0
ENDBLK
  5
4B8
330
4AD
100
AcDbEntity
  8
0
100
AcDbBlockEnd
  0
BLOCK
  5
4F2
330
4BC
100
AcDbEntity
  8
0
100
AcDbBlockBegin
  2
B1-750
 70
     0
 10
0.0
 20
0.0
 30
0.0
  3
B1-750
  1

  0
LWPOLYLINE
  5
4BD
330
4BC
100
AcDbEntity
  8
LATER
100
AcDbPolyline
 90
        8
 70
     1
 43
0.0
 10
442.8420301050228
 20
492.7230876381822
 10
1837.842030105022
 20
492.7230876381822
 10
1847.842030105023
 20
502.7230876381822
 10
1847.842030105023
 20
1332.723087638182
 10
1837.842030105022
 20
1342.723087638182
 10
442.8420301050228
 20
1342.723087638182
 10
432.8420301050227
 20
1332.723087638182
 10
432.8420301050227
 20
502.7230876381822
  0
LINE
  5
4BE
330
4BC
100
AcDbEntity
  8
DASHED
 48
0.15
100
AcDbLine
 10
532.8420301050227
 20
1342.723087638182
 30
0.0
 11
540.3420301050227
 21
642.7230876381822
 31
0.0
  0
LINE
  5
4BF
330
4BC
100
AcDbEntity
  8
DASHED
 48
0.15
100
AcDbLine
 10
540.3420301050227
 20
642.7230876381822
 30
0.0
 11
590.3420301050227
 21
592.7230876381822
 31
0.0
  0
LINE
  5
4C0
330
4BC
100
AcDbEntity
  8
DASHED
 48
0.15
100
AcDbLine
 10
590.3420301050227
 20
592.7230876381822
 30
0.0
 11
1030.342030105023
 21
592.7230876381822
 31
0.0
  0
LINE
  5
4C1
330
4BC
100
AcDbEntity
  8
DASHED
 48
0.15
100
AcDbLine
 10
1040.342030105023
 20
572.7230876381822
 30
0.0
 11
1240.342030105023
 21
572.7230876381822
 31
0.0
  0
LINE
  5
4C2
330
4BC
100
AcDbEntity
  8
DASHED
 48
0.15
100
AcDbLine
 10
1030.342030105023
 20
592.7230876381822
 30
0.0
 11
1040.342030105023
 21
572.7230876381822
 31
0.0
  0
LINE
  5
4C3
330
4BC
100
AcDbEntity
  8
DASHED
 48
0.15
100
AcDbLine
 10
1747.842030105022
 20
1342.723087638182
 30
0.0
 11
1740.342030105023
 21
642.7230876381822
 31
0.0
  0
LINE
  5
4C4
330
4BC
100
AcDbEntity
  8
DASHED
 48
0.15
100
AcDbLine
 10
1740.342030105023
 20
642.7230876381822
 30
0.0
 11
1690.342030105023
 21
592.7230876381822
 31
0.0
  0
LINE
  5
4C5
330
4BC
100
AcDbEntity
  8
DASHED
 48
0.15
100
AcDbLine
 10
1690.342030105023
 20
592.7230876381822
 30
0.0
 11
1250.342030105023
 21
592.7230876381822
 31
0.0
  0
LINE
  5
4C6
330
4BC
100
AcDbEntity
  8
DASHED
 48
0.15
100
AcDbLine
 10
1250.342030105023
 20
592.7230876381822
 30
0.0
 11
1240.342030105023
 21
572.7230876381822
 31
0.0
  0
LWPOLYLINE
  5
4C7
330
4BC
100
AcDbEntity
  8
NO
100
AcDbPolyline
 90
        4
 70
     1
 43
0.0
 10
690.3420301050227
 20
1132.723087638182
 10
1590.342030105023
 20
1132.723087638182
 10
1590.342030105023
 20
682.7230876381823
 10
690.3420301050227
 20
682.7230876381823
  0
LWPOLYLINE
  5
4C8
330
4BC
100
AcDbEntity
  8
NO
100
AcDbPolyline
 90
        4
 70
     1
 43
0.0
 10
670.3420301050227
 20
1152.723087638182
 10
1610.342030105023
 20
1152.723087638182
 10
1610.342030105023
 20
662.7230876381823
 10
670.3420301050229
 20
662.7230876381823
  0
LINE
  5
4C9
330
4BC
100
AcDbEntity
  8
NO
100
AcDbLine
 10
670.3420301050227
 20
1152.723087638182
 30
0.0
 11
690.3420301050227
 21
1132.723087638182
 31
0.0
  0
LINE
  5
4CA
330
4BC
100
AcDbEntity
  8
NO
100
AcDbLine
 10
670.3420301050227
 20
662.7230876381823
 30
0.0
 11
690.3420301050227
 21
682.7230876381823
 31
0.0
  0
LINE
  5
4CB
330
4BC
100
AcDbEntity
  8
NO
100
AcDbLine
 10
1590.342030105023
 20
682.7230876381823
 30
0.0
 11
1610.342030105023
 21
662.7230876381823
 31
0.0
  0
LINE
  5
4CC
330
4BC
100
AcDbEntity
  8
NO
100
AcDbLine
 10
1590.342030105023
 20
1132.723087638182
 30
0.0
 11
1610.342030105023
 21
1152.723087638182
 31
0.0
  0
LINE
  5
4CD
330
4BC
100
AcDbEntity
  8
NO2
 48
0.15
100
AcDbLine
 10
1847.842030105023
 20
1152.723087638182
 30
0.0
 11
1812.842030105023
 21
1132.723087638182
 31
0.0
  0
LINE
  5
4CE
330
4BC
100
AcDbEntity
  8
NO2
 48
0.15
100
AcDbLine
 10
1812.842030105023
 20
1132.723087638182
 30
0.0
 11
1812.842030105023
 21
682.7230876381823
 31
0.0
  0
LINE
  5
4CF
330
4BC
100
AcDbEntity
  8
NO2
 48
0.15
100
AcDbLine
 10
1812.842030105023
 20
682.7230876381823
 30
0.0
 11
1847.842030105023
 21
662.7230876381823
 31
0.0
  0
LINE
  5
4D0
330
4BC
100
AcDbEntity
  8
NO2
 48
0.15
100
AcDbLine
 10
467.8420301050228
 20
1032.723087638182
 30
0.0
 11
467.8420301050225
 21
682.7230876381823
 31
0.0
  0
LINE
  5
4D1
330
4BC
100
AcDbEntity
  8
NO2
 48
0.15
100
AcDbLine
 10
467.8420301050225
 20
682.7230876381823
 30
0.0
 11
432.8420301050227
 21
662.7230876381823
 31
0.0
  0
LINE
  5
4D2
330
4BC
100
AcDbEntity
  8
NO2
 48
0.15
100
AcDbLine
 10
432.8420301050227
 20
1052.723087638182
 30
0.0
 11
467.8420301050228
 21
1032.723087638182
 31
0.0
  0
LWPOLYLINE
  5
4D3
330
4BC
100
AcDbEntity
  8
DASHED
 48
0.15
100
AcDbPolyline
 90
        4
 70
     1
 43
0.0
 10
1535.342030105023
 20
642.7230876381822
 10
1545.342030105023
 20
642.7230876381822
 10
1545.342030105023
 20
592.7230876381822
 10
1535.342030105023
 20
592.7230876381822
  0
LWPOLYLINE
  5
4D4
330
4BC
100
AcDbEntity
  8
DASHED
 48
0.15
100
AcDbPolyline
 90
        4
 70
     1
 43
0.0
 10
745.3420301050227
 20
642.7230876381822
 10
735.3420301050228
 20
642.7230876381822
 10
735.3420301050228
 20
592.7230876381822
 10
745.3420301050227
 20
592.7230876381822
  0
CIRCLE
  5
4D5
330
4BC
100
AcDbEntity
  8
DASHED
 48
0.15
100
AcDbCircle
 10
940.3420301050228
 20
1192.723087638182
 30
0.0
 40
8.0
  0
LINE
  5
4D6
330
4BC
100
AcDbEntity
  8
DASHED
 48
0.15
100
AcDbLine
 10
920.3420301050227
 20
1192.723087638182
 30
0.0
 11
960.3420301050228
 21
1192.723087638182
 31
0.0
  0
LINE
  5
4D7
330
4BC
100
AcDbEntity
  8
DASHED
 48
0.15
100
AcDbLine
 10
940.3420301050228
 20
1172.723087638182
 30
0.0
 11
940.3420301050228
 21
1212.723087638182
 31
0.0
  0
LINE
  5
4D8
330
4BC
100
AcDbEntity
  8
DASHED
 48
0.15
100
AcDbLine
 10
1340.342030105023
 20
1172.723087638182
 30
0.0
 11
1340.342030105023
 21
1212.723087638182
 31
0.0
  0
CIRCLE
  5
4D9
330
4BC
100
AcDbEntity
  8
DASHED
 48
0.15
100
AcDbCircle
 10
1340.342030105023
 20
1192.723087638182
 30
0.0
 40
8.0
  0
LINE
  5
4DA
330
4BC
100
AcDbEntity
  8
DASHED
 48
0.15
100
AcDbLine
 10
1320.342030105023
 20
1192.723087638182
 30
0.0
 11
1360.342030105023
 21
1192.723087638182
 31
0.0
  0
LWPOLYLINE
  5
4DB
330
4BC
100
AcDbEntity
  8
DASHED
 48
0.15
100
AcDbPolyline
 90
        4
 70
     1
 43
0.0
 10
504.4491729621657
 20
1184.723087638182
 10
534.4491729621656
 20
1184.723087638182
 10
534.4491729621656
 20
1200.723087638182
 10
504.4491729621657
 20
1200.723087638182
  0
LWPOLYLINE
  5
4DC
330
4BC
100
AcDbEntity
  8
DASHED
 48
0.15
100
AcDbPolyline
 90
        4
 70
     1
 43
0.0
 10
1776.23488724788
 20
1184.723087638182
 10
1746.23488724788
 20
1184.723087638182
 10
1746.23488724788
 20
1200.723087638182
 10
1776.23488724788
 20
1200.723087638182
  0
DIMENSION
  5
4DD
330
4BC
100
AcDbEntity
  8
NO
100
AcDbDimension
  2
*D16
 10
1997.842030105022
 20
1132.723087638182
 30
0.0
 11
1962.838093097148
 21
1237.723087638182
 31
0.0
 70
    32
 71
     5
 42
210.0
  3
Standerd
100
AcDbAlignedDimension
 13
1837.842030105022
 23
1342.723087638182
 33
0.0
 14
1812.842030105023
 24
1132.723087638182
 34
0.0
 50
90.0
100
AcDbRotatedDimension
  0
DIMENSION
  5
4DE
330
4BC
100
AcDbEntity
  8
NO
100
AcDbDimension
  2
*D17
 10
1590.342030105023
 20
342.7230876381823
 30
0.0
 11
1140.342030105023
 21
377.7230876381823
 31
0.0
 70
    32
 71
     5
 42
900.0
  3
Standerd
100
AcDbAlignedDimension
 13
690.3420301050227
 23
682.7230876381823
 33
0.0
 14
1590.342030105023
 24
682.7230876381823
 34
0.0
100
AcDbRotatedDimension
  0
DIMENSION
  5
4DF
330
4BC
100
AcDbEntity
  8
DIM
100
AcDbDimension
  2
*D18
 10
1740.342030105023
 20
192.7230876381823
 30
0.0
 11
1140.342030105023
 21
227.7270246460563
 31
0.0
 70
    32
 71
     5
 42
1200.0
  3
Standerd
100
AcDbAlignedDimension
 13
540.3420301050227
 23
642.7230876381822
 33
0.0
 14
1740.342030105023
 24
642.7230876381822
 34
0.0
100
AcDbRotatedDimension
  0
DIMENSION
  5
4E0
330
4BC
100
AcDbEntity
  8
DIM
100
AcDbDimension
  2
*D19
 10
1847.842030105023
 20
42.72308763818227
 30
0.0
 11
1140.342030105023
 21
77.72308763818227
 31
0.0
 70
    32
 71
     5
 42
1415.0
  3
Standerd
100
AcDbAlignedDimension
 13
432.8420301050227
 23
502.7230876381822
 33
0.0
 14
1847.842030105023
 24
502.7230876381822
 34
0.0
100
AcDbRotatedDimension
  0
DIMENSION
  5
4E1
330
4BC
100
AcDbEntity
  8
NO
100
AcDbDimension
  2
*D20
 10
1997.842030105022
 20
682.7230876381823
 30
0.0
 11
1962.842030105022
 21
907.7230876381825
 31
0.0
 70
    32
 71
     5
 42
450.0
  3
Standerd
100
AcDbAlignedDimension
 13
1812.842030105023
 23
1132.723087638182
 33
0.0
 14
1812.842030105023
 24
682.7230876381823
 34
0.0
 50
90.0
100
AcDbRotatedDimension
  0
DIMENSION
  5
4E2
330
4BC
100
AcDbEntity
  8
DIM
100
AcDbDimension
  2
*D21
 10
2147.842030105023
 20
592.7230876381822
 30
0.0
 11
2112.842030105023
 21
967.7230876381825
 31
0.0
 70
    32
 71
     5
 42
750.0
  3
Standerd
100
AcDbAlignedDimension
 13
1837.842030105022
 23
1342.723087638182
 33
0.0
 14
1690.342030105023
 24
592.7230876381822
 34
0.0
 50
90.0
100
AcDbRotatedDimension
  0
DIMENSION
  5
4E3
330
4BC
100
AcDbEntity
  8
DIM
100
AcDbDimension
  2
*D22
 10
2297.842030105023
 20
1342.723087638182
 30
0.0
 11
2262.842030105022
 21
917.7230876381825
 31
0.0
 70
    32
 71
     5
 42
850.0
  3
Standerd
100
AcDbAlignedDimension
 13
1837.842030105022
 23
492.7230876381822
 33
0.0
 14
1837.842030105022
 24
1342.723087638182
 34
0.0
 50
90.0
100
AcDbRotatedDimension
  0
DIMENSION
  5
4E4
330
4BC
100
AcDbEntity
  8
NO
100
AcDbDimension
  2
*D23
 10
282.8420301050226
 20
682.7230876381823
 30
0.0
 11
247.8420301050225
 21
857.7230876381822
 31
0.0
 70
    32
 71
     5
 42
349.9999999999999
  3
Standerd
100
AcDbAlignedDimension
 13
467.8420301050228
 23
1032.723087638182
 33
0.0
 14
467.8420301050225
 24
682.7230876381823
 34
0.0
 50
90.0
100
AcDbRotatedDimension
  0
DIMENSION
  5
4E5
330
4BC
100
AcDbEntity
  8
DIM
100
AcDbDimension
  2
*D24
 10
2147.842030105023
 20
492.7230876381822
 30
0.0
 11
2112.842030105023
 21
542.7230876381825
 31
0.0
 70
    32
 71
     5
 42
99.99999999999994
  3
Standerd
100
AcDbAlignedDimension
 13
1690.342030105023
 23
592.7230876381822
 33
0.0
 14
1837.842030105022
 24
492.7230876381822
 34
0.0
 50
90.0
100
AcDbRotatedDimension
  0
DIMENSION
  5
4E6
330
4BC
100
AcDbEntity
  8
DIM
100
AcDbDimension
  2
*D25
 10
1735.49914145543
 20
1412.723087638182
 30
0.0
 11
1784.617506551888
 21
1447.723087638182
 31
0.0
 70
    32
 71
     5
 42
100.0
  3
Standerd2
100
AcDbAlignedDimension
 13
1847.842030105023
 23
1332.723087638182
 33
0.0
 14
1747.842030105022
 24
1342.723087638182
 34
0.0
100
AcDbRotatedDimension
  0
DIMENSION
  5
4E7
330
4BC
100
AcDbEntity
  8
DIM
100
AcDbDimension
  2
*D26
 10
520.4991414554302
 20
1412.723087638182
 30
0.0
 11
1127.99914145543
 21
1447.727024646056
 31
0.0
 70
    32
 71
     5
 42
1215.0
  3
Standerd2
100
AcDbAlignedDimension
 13
1747.842030105022
 23
1342.723087638182
 33
0.0
 14
532.8420301050227
 24
1342.723087638182
 34
0.0
100
AcDbRotatedDimension
  0
DIMENSION
  5
4E8
330
4BC
100
AcDbEntity
  8
DIM
100
AcDbDimension
  2
*D27
 10
418.7358716483456
 20
1412.723087638182
 30
0.0
 11
469.6175065518879
 21
1447.723087638182
 31
0.0
 70
    32
 71
     5
 42
100.0
  3
Standerd2
100
AcDbAlignedDimension
 13
532.8420301050227
 23
1342.723087638182
 33
0.0
 14
432.8420301050227
 24
1332.723087638182
 34
0.0
100
AcDbRotatedDimension
  0
LEADER
  5
4E9
330
4BC
100
AcDbEntity
  8
TXT
100
AcDbLeader
  3
Standerd1
 73
     0
 74
     0
 75
     1
 40
40.00787401574803
 41
190.0
 76
     3
 10
940.3420301050228
 20
1184.723087638182
 30
0.0
 10
1009.592914220828
 20
1085.957825467037
 30
0.0
 10
1009.772914220828
 20
1085.957825467037
 30
0.0
340
4EA
213
0.0
223
-20.0
233
0.0
1001
ACAD
1000
DSTYLE
1002
{
1070
   147
1040
15.0
1070
    77
1070
     0
1002
}
  0
MTEXT
  5
4EA
102
{ACAD_REACTORS
330
4E9
102
}
330
4BC
100
AcDbEntity
  8
TXT
100
AcDbMText
 10
1024.772914220828
 20
1105.957825467037
 30
0.0
 40
40.0
 41
0.0
 71
     1
 72
     1
  1
M12ｲﾝｻｰﾄ
 73
     1
 44
1.0
  0
LEADER
  5
4EB
330
4BC
100
AcDbEntity
  8
TXT
100
AcDbLeader
  3
Standerd1
 73
     0
 74
     0
 75
     1
 40
40.00000000000001
 41
456.7830808016392
 76
     3
 10
1545.342030105023
 20
617.7230876381822
 30
0.0
 10
1911.35541194788
 20
289.1838736420695
 30
0.0
 10
1911.53541194788
 20
289.1838736420695
 30
0.0
340
4EC
213
0.0
223
-20.0
233
0.0
1001
ACAD
1000
DSTYLE
1002
{
1070
   147
1040
15.0
1070
    77
1070
     0
1002
}
  0
MTEXT
  5
4EC
102
{ACAD_REACTORS
330
4EB
102
}
330
4BC
100
AcDbEntity
  8
TXT
100
AcDbMText
 10
1926.535411947879
 20
309.1838736420696
 30
0.0
 40
40.0
 41
0.0
 71
     1
 72
     1
  1
吊りﾌｯｸ引込用ﾌｯｸ兼用
 73
     1
 44
1.0
  0
LEADER
  5
4ED
330
4BC
100
AcDbEntity
  8
NO
100
AcDbLeader
  3
Standerd1
 73
     0
 75
     1
 40
40.0
 41
170.6666666666666
 76
     3
 10
432.8420301050227
 20
662.7230876381823
 30
0.0
 10
331.2996038678718
 20
553.7206213703875
 30
0.0
 10
331.1196038678718
 20
553.7206213703875
 30
0.0
340
4EE
213
0.0
223
20.0
233
0.0
1001
ACAD
1000
DSTYLE
1002
{
1070
   147
1040
15.0
1070
    77
1070
     0
1002
}
  0
MTEXT
  5
4EE
102
{ACAD_REACTORS
330
4ED
102
}
330
4BC
100
AcDbEntity
  8
NO
100
AcDbMText
 10
316.1196038678718
 20
533.7206213703876
 30
0.0
 40
40.0
 41
0.0
 71
     9
 72
     1
  1
１面のみ
 73
     1
 44
1.0
  0
TEXT
  5
4EF
330
4BC
100
AcDbEntity
  8
TXT
100
AcDbText
 10
-17.15796989497721
 20
1262.723087638182
 30
0.0
 40
60.0
  1
B1-750
 41
1.5
100
AcDbText
  0
DIMENSION
  5
4F0
330
4BC
100
AcDbEntity
  8
DIM
100
AcDbDimension
  2
*D28
 10
1340.342030105023
 20
1270.577769325613
 30
0.0
 11
1140.342030105023
 21
1305.577769325613
 31
0.0
 70
    32
 71
     5
 42
400.0
  3
Standerd1
100
AcDbAlignedDimension
 13
940.3420301050228
 23
1172.723087638182
 33
0.0
 14
1340.342030105023
 24
1172.723087638182
 34
0.0
100
AcDbRotatedDimension
  0
DIMENSION
  5
4F1
330
4BC
100
AcDbEntity
  8
DIM
100
AcDbDimension
  2
*D29
 10
622.8420301050228
 20
1342.723087638182
 30
0.0
 11
587.8420301050225
 21
1267.723087638182
 31
0.0
 70
    32
 71
     5
 42
150.0000000000002
  3
Standerd1
100
AcDbAlignedDimension
 13
504.4491729621657
 23
1192.723087638182
 33
0.0
 14
532.8420301050227
 24
1342.723087638182
 34
0.0
 50
90.0
100
AcDbRotatedDimension
  0
ENDBLK
  5
4F3
330
4BC
100
AcDbEntity
  8
0
100
AcDbBlockEnd
  0
BLOCK
  5
4F7
330
4F6
100
AcDbEntity
  8
0
100
AcDbBlockBegin
  2
*D31
 70
     1
 10
0.0
 20
0.0
 30
0.0
  3
*D31
  1

  0
LINE
  5
4F8
330
4F6
100
AcDbEntity
  8
DIM
 62
     0
370
    -2
100
AcDbLine
 10
1475.0
 20
1415.0
 30
0.0
 11
1595.0
 21
1415.0
 31
0.0
  0
LINE
  5
4F9
330
4F6
100
AcDbEntity
  8
DIM
 62
     0
370
    -2
100
AcDbLine
 10
1475.0
 20
-0.0000000000000198
 30
0.0
 11
1595.0
 21
-0.0000000000000538
 31
0.0
  0
LINE
  5
4FA
330
4F6
100
AcDbEntity
  8
DIM
 62
     0
370
    -2
100
AcDbLine
 10
1565.0
 20
1375.0
 30
0.0
 11
1565.0
 21
39.99999999999996
 31
0.0
  0
SOLID
  5
4FB
330
4F6
100
AcDbEntity
  8
DIM
 62
     0
100
AcDbTrace
 10
1558.333333333334
 20
1375.0
 30
0.0
 11
1571.666666666667
 21
1375.0
 31
0.0
 12
1565.0
 22
1415.0
 32
0.0
 13
1565.0
 23
1415.0
 33
0.0
  0
SOLID
  5
4FC
330
4F6
100
AcDbEntity
  8
DIM
 62
     0
100
AcDbTrace
 10
1558.333333333333
 20
39.99999999999996
 30
0.0
 11
1571.666666666667
 21
39.99999999999996
 31
0.0
 12
1565.0
 22
-0.0000000000000453
 32
0.0
 13
1565.0
 23
-0.0000000000000453
 33
0.0
  0
MTEXT
  5
4FD
330
4F6
100
AcDbEntity
  8
DIM
 62
     0
100
AcDbMText
 10
1530.0
 20
707.5000000000001
 30
0.0
 40
40.0
 41
0.0
 71
     5
 72
     1
  1
1415
 11
0.0000000000000001
 21
1.0
 31
0.0
 73
     1
 44
1.0
  0
POINT
  5
4FE
330
4F6
100
AcDbEntity
  8
Defpoints
 62
     0
100
AcDbPoint
 10
1405.0
 20
1415.0
 30
0.0
  0
POINT
  5
4FF
330
4F6
100
AcDbEntity
  8
Defpoints
 62
     0
100
AcDbPoint
 10
1405.0
 20
0.0
 30
0.0
  0
POINT
  5
500
330
4F6
100
AcDbEntity
  8
Defpoints
 62
     0
100
AcDbPoint
 10
1565.0
 20
-0.0000000000000453
 30
0.0
  0
ENDBLK
  5
501
330
4F6
100
AcDbEntity
  8
0
100
AcDbBlockEnd
  0
BLOCK
  5
503
330
502
100
AcDbEntity
  8
0
100
AcDbBlockBegin
  2
*D32
 70
     1
 10
0.0
 20
0.0
 30
0.0
  3
*D32
  1

  0
LINE
  5
504
330
502
100
AcDbEntity
  8
DIM
 62
     0
370
    -2
100
AcDbLine
 10
1415.0
 20
1475.0
 30
0.0
 11
1415.0
 21
1595.0
 31
0.0
  0
LINE
  5
505
330
502
100
AcDbEntity
  8
DIM
 62
     0
370
    -2
100
AcDbLine
 10
0.0000000000000043
 20
1475.0
 30
0.0
 11
0.0000000000000116
 21
1595.0
 31
0.0
  0
LINE
  5
506
330
502
100
AcDbEntity
  8
DIM
 62
     0
370
    -2
100
AcDbLine
 10
1375.0
 20
1565.0
 30
0.0
 11
40.0
 21
1565.0
 31
0.0
  0
SOLID
  5
507
330
502
100
AcDbEntity
  8
DIM
 62
     0
100
AcDbTrace
 10
1375.0
 20
1571.666666666667
 30
0.0
 11
1375.0
 21
1558.333333333333
 31
0.0
 12
1415.0
 22
1565.0
 32
0.0
 13
1415.0
 23
1565.0
 33
0.0
  0
SOLID
  5
508
330
502
100
AcDbEntity
  8
DIM
 62
     0
100
AcDbTrace
 10
40.0
 20
1571.666666666667
 30
0.0
 11
40.0
 21
1558.333333333333
 31
0.0
 12
0.0000000000000098
 22
1565.0
 32
0.0
 13
0.0000000000000098
 23
1565.0
 33
0.0
  0
MTEXT
  5
509
330
502
100
AcDbEntity
  8
DIM
 62
     0
100
AcDbMText
 10
707.5
 20
1600.0
 30
0.0
 40
40.0
 41
0.0
 71
     5
 72
     1
  1
1415
 73
     1
 44
1.0
  0
POINT
  5
50A
330
502
100
AcDbEntity
  8
Defpoints
 62
     0
100
AcDbPoint
 10
1415.0
 20
1405.0
 30
0.0
  0
POINT
  5
50B
330
502
100
AcDbEntity
  8
Defpoints
 62
     0
100
AcDbPoint
 10
0.0
 20
1405.0
 30
0.0
  0
POINT
  5
50C
330
502
100
AcDbEntity
  8
Defpoints
 62
     0
100
AcDbPoint
 10
0.0000000000000098
 20
1565.0
 30
0.0
  0
ENDBLK
  5
50D
330
502
100
AcDbEntity
  8
0
100
AcDbBlockEnd
  0
BLOCK
  5
536
330
50F
100
AcDbEntity
  8
0
100
AcDbBlockBegin
  2
B2-top
 70
     0
 10
0.0
 20
0.0
 30
0.0
  3
B2-top
  1

  0
LWPOLYLINE
  5
510
330
50F
100
AcDbEntity
  8
LATER
100
AcDbPolyline
 90
        8
 70
     1
 43
0.0
 10
10.0
 20
0.0
 10
1405.0
 20
0.0
 10
1415.0
 20
10.0
 10
1415.0
 20
1405.0
 10
1405.0
 20
1415.0
 10
10.0
 20
1415.0
 10
0.0
 20
1405.0
 10
0.0
 20
10.0
  0
LWPOLYLINE
  5
511
330
50F
100
AcDbEntity
  8
DASHED
 48
0.15
100
AcDbPolyline
 90
        8
 70
     1
 43
0.0
 10
150.0
 20
100.0
 10
1265.0
 20
100.0
 10
1315.0
 20
150.0
 10
1315.0
 20
1265.0
 10
1265.0
 20
1315.0
 10
150.0
 20
1315.0
 10
100.0
 20
1265.0
 10
100.0
 20
150.0
  0
LINE
  5
512
330
50F
100
AcDbEntity
  8
CENTER
 48
0.2
100
AcDbLine
 10
-50.0
 20
707.5
 30
0.0
 11
1465.0
 21
707.5
 31
0.0
  0
LINE
  5
513
330
50F
100
AcDbEntity
  8
CENTER
 48
0.2
100
AcDbLine
 10
707.5
 20
1465.0
 30
0.0
 11
707.5
 21
-50.0
 31
0.0
  0
LINE
  5
514
330
50F
100
AcDbEntity
  8
NO2
 48
0.15
100
AcDbLine
 10
-0.0000000000000071
 20
1192.5
 30
0.0
 11
35.0
 21
1157.5
 31
0.0
  0
LINE
  5
515
330
50F
100
AcDbEntity
  8
NO2
 48
0.15
100
AcDbLine
 10
35.0
 20
1157.5
 30
0.0
 11
35.0
 21
257.5
 31
0.0
  0
LINE
  5
516
330
50F
100
AcDbEntity
  8
NO2
 48
0.15
100
AcDbLine
 10
35.0
 20
257.5
 30
0.0
 11
-0.0000000000000071
 21
222.5
 31
0.0
  0
LINE
  5
517
330
50F
100
AcDbEntity
  8
NO2
 48
0.15
100
AcDbLine
 10
257.5
 20
35.00000000000011
 30
0.0
 11
1157.5
 21
35.0
 31
0.0
  0
LINE
  5
518
330
50F
100
AcDbEntity
  8
NO2
 48
0.15
100
AcDbLine
 10
1157.5
 20
35.0
 30
0.0
 11
1192.5
 21
0.0
 31
0.0
  0
LINE
  5
519
330
50F
100
AcDbEntity
  8
NO2
 48
0.15
100
AcDbLine
 10
222.5
 20
0.0000000000001137
 30
0.0
 11
257.5
 21
35.00000000000011
 31
0.0
  0
LINE
  5
51A
330
50F
100
AcDbEntity
  8
NO2
 48
0.15
100
AcDbLine
 10
1380.0
 20
257.5
 30
0.0
 11
1380.0
 21
1157.5
 31
0.0
  0
LINE
  5
51B
330
50F
100
AcDbEntity
  8
NO2
 48
0.15
100
AcDbLine
 10
1380.0
 20
1157.5
 30
0.0
 11
1415.0
 21
1192.5
 31
0.0
  0
LINE
  5
51C
330
50F
100
AcDbEntity
  8
NO2
 48
0.15
100
AcDbLine
 10
1415.0
 20
222.5
 30
0.0
 11
1380.0
 21
257.5
 31
0.0
  0
LINE
  5
51D
330
50F
100
AcDbEntity
  8
NO2
 48
0.15
100
AcDbLine
 10
1157.5
 20
1380.0
 30
0.0
 11
257.5000000000001
 21
1380.0
 31
0.0
  0
LINE
  5
51E
330
50F
100
AcDbEntity
  8
NO2
 48
0.15
100
AcDbLine
 10
257.5000000000001
 20
1380.0
 30
0.0
 11
222.5000000000001
 21
1415.0
 31
0.0
  0
LINE
  5
51F
330
50F
100
AcDbEntity
  8
NO2
 48
0.15
100
AcDbLine
 10
1192.5
 20
1415.0
 30
0.0
 11
1157.5
 21
1380.0
 31
0.0
  0
MTEXT
  5
520
102
{ACAD_REACTORS
330
523
102
}
330
50F
100
AcDbEntity
  8
TXT
100
AcDbMText
 10
370.8425749179428
 20
-83.05784908482792
 30
0.0
 40
40.0
 41
0.0
 71
     1
 72
     1
  1
ＣＲズレ止め
 73
     1
 44
1.0
  0
CIRCLE
  5
521
330
50F
100
AcDbEntity
  8
LATER
100
AcDbCircle
 10
510.0
 20
707.5
 30
0.0
 40
300.0
  0
CIRCLE
  5
522
330
50F
100
AcDbEntity
  8
CR
100
AcDbCircle
 10
510.0
 20
707.5
 30
0.0
 40
435.0
  0
LEADER
  5
523
330
50F
100
AcDbEntity
  8
TXT
100
AcDbLeader
  3
Standerd
 73
     0
 74
     0
 75
     1
 40
40.0
 41
261.3333333333334
 76
     3
 10
209.4796179957171
 20
371.6242789363898
 30
0.0
 10
355.6625749179428
 20
-103.0578490848279
 30
0.0
 10
355.8425749179428
 20
-103.0578490848279
 30
0.0
340
520
213
0.0
223
-20.0
233
0.0
1001
ACAD
1000
DSTYLE
1002
{
1070
   147
1040
15.0
1070
    77
1070
     0
1002
}
  0
LWPOLYLINE
  5
524
330
50F
100
AcDbEntity
  8
LATER
100
AcDbPolyline
 90
        4
 70
     1
 43
0.0
 10
181.1953467482553
 20
414.0506858075828
 10
174.1242789363898
 20
406.9796179957172
 10
209.4796179957171
 20
371.6242789363898
 10
216.5506858075826
 20
378.6953467482554
  0
LINE
  5
525
330
50F
100
AcDbEntity
  8
DIM
100
AcDbLine
 10
510.0
 20
687.5
 30
0.0
 11
510.0
 21
727.5
 31
0.0
  0
LINE
  5
526
330
50F
100
AcDbEntity
  8
DIM
100
AcDbLine
 10
490.0
 20
707.5
 30
0.0
 11
530.0
 21
707.5
 31
0.0
  0
LWPOLYLINE
  5
527
330
50F
100
AcDbEntity
  8
LATER
100
AcDbPolyline
 90
        4
 70
     1
 43
0.0
 10
216.5506858075828
 20
1036.304653251744
 10
209.4796179957173
 20
1043.37572106361
 10
174.1242789363898
 20
1008.020382004283
 10
181.1953467482553
 20
1000.949314192417
  0
LWPOLYLINE
  5
528
330
50F
100
AcDbEntity
  8
LATER
100
AcDbPolyline
 90
        4
 70
     1
 43
0.0
 10
803.4493141924171
 20
378.6953467482553
 10
810.5203820042827
 20
371.6242789363897
 10
845.87572106361
 20
406.979617995717
 10
838.8046532517446
 20
414.0506858075825
  0
LWPOLYLINE
  5
529
330
50F
100
AcDbEntity
  8
LATER
100
AcDbPolyline
 90
        4
 70
     1
 43
0.0
 10
838.8046532517446
 20
1000.949314192417
 10
845.8757210636102
 20
1008.020382004283
 10
810.5203820042827
 20
1043.37572106361
 10
803.4493141924174
 20
1036.304653251744
  0
DIMENSION
  5
52A
330
50F
100
AcDbEntity
  8
DIM
100
AcDbDimension
  2
*D31
 10
1565.0
 20
-0.0000000000000453
 30
0.0
 11
1530.0
 21
707.5000000000001
 31
0.0
 70
    32
 71
     5
 42
1415.0
  3
Standerd
100
AcDbAlignedDimension
 13
1405.0
 23
1415.0
 33
0.0
 14
1405.0
 24
0.0
 34
0.0
 50
90.0
100
AcDbRotatedDimension
  0
DIMENSION
  5
52B
330
50F
100
AcDbEntity
  8
DIM
100
AcDbDimension
  2
*D32
 10
0.0000000000000098
 20
1565.0
 30
0.0
 11
707.5
 21
1600.0
 31
0.0
 70
    32
 71
     5
 42
1415.0
  3
Standerd
100
AcDbAlignedDimension
 13
1415.0
 23
1405.0
 33
0.0
 14
0.0
 24
1405.0
 34
0.0
100
AcDbRotatedDimension
  0
LEADER
  5
52C
330
50F
100
AcDbEntity
  8
TXT
100
AcDbLeader
  3
Standerd1
 73
     0
 74
     0
 75
     1
 40
40.00787401574803
 41
190.0
 76
     3
 10
915.4999999999986
 20
70.0
 30
0.0
 10
1023.508867102142
 20
-68.63899398743615
 30
0.0
 10
1023.688867102142
 20
-68.63899398743615
 30
0.0
340
52D
213
0.0
223
-20.0
233
0.0
1001
ACAD
1000
DSTYLE
1002
{
1070
   147
1040
15.0
1070
    77
1070
     0
1002
}
  0
MTEXT
  5
52D
102
{ACAD_REACTORS
330
52C
102
}
330
50F
100
AcDbEntity
  8
TXT
100
AcDbMText
 10
1038.688867102142
 20
-48.63899398743615
 30
0.0
 40
40.0
 41
0.0
 71
     1
 72
     1
  1
M12ｲﾝｻｰﾄ
 73
     1
 44
1.0
  0
LWPOLYLINE
  5
52E
330
50F
100
AcDbEntity
  8
DASHED
 48
0.15
100
AcDbPolyline
 90
        4
 70
     1
 43
0.0
 10
515.5
 20
70.0
 10
515.5
 20
100.0
 10
499.5
 20
100.0
 10
499.5
 20
70.0
  0
LWPOLYLINE
  5
52F
330
50F
100
AcDbEntity
  8
DASHED
 48
0.15
100
AcDbPolyline
 90
        4
 70
     1
 43
0.0
 10
915.4999999999986
 20
70.0
 10
915.4999999999986
 20
100.0
 10
899.4999999999986
 20
100.0
 10
899.4999999999986
 20
70.0
  0
LWPOLYLINE
  5
530
330
50F
100
AcDbEntity
  8
DASHED
 48
0.15
100
AcDbPolyline
 90
        4
 70
     1
 43
0.0
 10
1345.0
 20
515.5
 10
1315.0
 20
515.5
 10
1315.0
 20
499.5
 10
1345.0
 20
499.5
  0
LWPOLYLINE
  5
531
330
50F
100
AcDbEntity
  8
DASHED
 48
0.15
100
AcDbPolyline
 90
        4
 70
     1
 43
0.0
 10
1345.0
 20
915.4999999999986
 10
1315.0
 20
915.4999999999986
 10
1315.0
 20
899.4999999999986
 10
1345.0
 20
899.4999999999986
  0
LWPOLYLINE
  5
532
330
50F
100
AcDbEntity
  8
DASHED
 48
0.15
100
AcDbPolyline
 90
        4
 70
     1
 43
0.0
 10
899.5
 20
1345.0
 10
899.5
 20
1315.0
 10
915.4999999999999
 20
1315.0
 10
915.4999999999999
 20
1345.0
  0
LWPOLYLINE
  5
533
330
50F
100
AcDbEntity
  8
DASHED
 48
0.15
100
AcDbPolyline
 90
        4
 70
     1
 43
0.0
 10
499.5000000000013
 20
1345.0
 10
499.5000000000013
 20
1315.0
 10
515.5000000000013
 20
1315.0
 10
515.5000000000013
 20
1345.0
  0
LWPOLYLINE
  5
534
330
50F
100
AcDbEntity
  8
DASHED
 48
0.15
100
AcDbPolyline
 90
        4
 70
     1
 43
0.0
 10
70.0
 20
499.5000000000013
 10
100.0
 20
499.5000000000013
 10
100.0
 20
515.5000000000013
 10
70.0
 20
515.5000000000013
  0
LWPOLYLINE
  5
535
330
50F
100
AcDbEntity
  8
DASHED
 48
0.15
100
AcDbPolyline
 90
        4
 70
     1
 43
0.0
 10
70.0
 20
899.5
 10
100.0
 20
899.5
 10
100.0
 20
915.4999999999999
 10
70.0
 20
915.4999999999999
  0
ENDBLK
  5
537
330
50F
100
AcDbEntity
  8
0
100
AcDbBlockEnd
  0
BLOCK
  5
CA9
330
CA8
100
AcDbEntity
  8
0
100
AcDbBlockBegin
  2
A4
 70
     0
 10
0.0
 20
0.0
 30
0.0
  3
A4
  1

  0
LWPOLYLINE
  5
CAA
330
CA8
100
AcDbEntity
  8
FLAM
100
AcDbPolyline
 90
        4
 70
     1
 43
0.0
 10
0.0
 20
0.0
 10
0.0
 20
210.0
 10
297.0
 20
210.0
 10
297.0
 20
0.0
  0
LWPOLYLINE
  5
CAB
330
CA8
100
AcDbEntity
  8
LAYER
100
AcDbPolyline
 90
        4
 70
     1
 43
0.0
 10
15.0
 20
3.0
 10
15.0
 20
198.0
 10
295.0
 20
198.0
 10
295.0
 20
3.0
  0
LINE
  5
CAC
330
CA8
100
AcDbEntity
  8
LAYER
100
AcDbLine
 10
15.0
 20
18.0
 30
0.0
 11
295.0
 21
18.0
 31
0.0
  0
LINE
  5
CAD
330
CA8
100
AcDbEntity
  8
LAYER
100
AcDbLine
 10
50.0
 20
18.0
 30
0.0
 11
50.0
 21
3.0
 31
0.0
  0
LINE
  5
CAE
330
CA8
100
AcDbEntity
  8
LAYER
100
AcDbLine
 10
142.0
 20
18.0
 30
0.0
 11
142.0
 21
3.0
 31
0.0
  0
LINE
  5
CAF
330
CA8
100
AcDbEntity
  8
LAYER
100
AcDbLine
 10
149.0
 20
18.0
 30
0.0
 11
149.0
 21
3.0
 31
0.0
  0
LINE
  5
CB0
330
CA8
100
AcDbEntity
  8
LAYER
100
AcDbLine
 10
199.0
 20
18.0
 30
0.0
 11
199.0
 21
3.0
 31
0.0
  0
LINE
  5
CB1
330
CA8
100
AcDbEntity
  8
LAYER
100
AcDbLine
 10
211.0
 20
18.0
 30
0.0
 11
211.0
 21
3.0
 31
0.0
  0
LINE
  5
CB2
330
CA8
100
AcDbEntity
  8
LAYER
100
AcDbLine
 10
223.0
 20
18.0
 30
0.0
 11
223.0
 21
3.0
 31
0.0
  0
LINE
  5
CB3
330
CA8
100
AcDbEntity
  8
LAYER
100
AcDbLine
 10
235.0
 20
18.0
 30
0.0
 11
235.0
 21
3.0
 31
0.0
  0
LINE
  5
CB4
330
CA8
100
AcDbEntity
  8
LAYER
100
AcDbLine
 10
235.0
 20
18.0
 30
0.0
 11
235.0
 21
33.0
 31
0.0
  0
LINE
  5
CB5
330
CA8
100
AcDbEntity
  8
LAYER
100
AcDbLine
 10
235.0
 20
33.0
 30
0.0
 11
295.0
 21
33.0
 31
0.0
  0
LINE
  5
CB6
330
CA8
100
AcDbEntity
  8
LAYER
100
AcDbLine
 10
50.0
 20
10.5
 30
0.0
 11
142.0
 21
10.5
 31
0.0
  0
LINE
  5
CB7
330
CA8
100
AcDbEntity
  8
LAYER
100
AcDbLine
 10
199.0
 20
13.0
 30
0.0
 11
235.0
 21
13.0
 31
0.0
  0
LINE
  5
CB8
330
CA8
100
AcDbEntity
  8
LAYER
100
AcDbLine
 10
235.0
 20
25.5
 30
0.0
 11
295.0
 21
25.5
 31
0.0
  0
LINE
  5
CB9
330
CA8
100
AcDbEntity
  8
LAYER
100
AcDbLine
 10
235.0
 20
10.5
 30
0.0
 11
295.0
 21
10.5
 31
0.0
  0
LINE
  5
CBA
330
CA8
100
AcDbEntity
  8
LAYER
100
AcDbLine
 10
253.0
 20
33.0
 30
0.0
 11
253.0
 21
10.5
 31
0.0
  0
LINE
  5
CBB
330
CA8
100
AcDbEntity
  8
FLAM
100
AcDbLine
 10
96.0
 20
10.5
 30
0.0
 11
96.0
 21
18.0
 31
0.0
  0
LINE
  5
CBC
330
CA8
100
AcDbEntity
  8
FLAM
100
AcDbLine
 10
96.0
 20
10.5
 30
0.0
 11
96.0
 21
3.0
 31
0.0
  0
LINE
  5
CBD
330
CA8
100
AcDbEntity
  8
FLAM
100
AcDbLine
 10
50.0
 20
6.75
 30
0.0
 11
142.0
 21
6.75
 31
0.0
  0
LINE
  5
CBE
330
CA8
100
AcDbEntity
  8
FLAM
100
AcDbLine
 10
50.0
 20
14.25
 30
0.0
 11
142.0
 21
14.25
 31
0.0
  0
LINE
  5
CBF
330
CA8
100
AcDbEntity
  8
FLAM
100
AcDbLine
 10
149.0
 20
10.5
 30
0.0
 11
199.0
 21
10.5
 31
0.0
  0
LINE
  5
CC0
330
CA8
100
AcDbEntity
  8
FLAM
100
AcDbLine
 10
174.0
 20
10.5
 30
0.0
 11
174.0
 21
18.0
 31
0.0
  0
LINE
  5
CC1
330
CA8
100
AcDbEntity
  8
FLAM
100
AcDbLine
 10
174.0
 20
10.5
 30
0.0
 11
174.0
 21
3.0
 31
0.0
  0
LINE
  5
CC2
330
CA8
100
AcDbEntity
  8
FLAM
100
AcDbLine
 10
253.0
 20
21.75
 30
0.0
 11
295.0
 21
21.75
 31
0.0
  0
LINE
  5
CC3
330
CA8
100
AcDbEntity
  8
FLAM
100
AcDbLine
 10
253.0
 20
29.25
 30
0.0
 11
295.0
 21
29.25
 31
0.0
  0
LINE
  5
CC4
330
CA8
100
AcDbEntity
  8
FLAM
100
AcDbLine
 10
253.0
 20
14.25
 30
0.0
 11
295.0
 21
14.25
 31
0.0
  0
LINE
  5
CC5
330
CA8
100
AcDbEntity
  8
FLAM
100
AcDbLine
 10
149.0
 20
6.75
 30
0.0
 11
199.0
 21
6.75
 31
0.0
  0
LINE
  5
CC6
330
CA8
100
AcDbEntity
  8
FLAM
100
AcDbLine
 10
149.0
 20
14.25
 30
0.0
 11
199.0
 21
14.25
 31
0.0
  0
LINE
  5
CC7
330
CA8
100
AcDbEntity
  8
FLAM
100
AcDbLine
 10
274.0
 20
29.25
 30
0.0
 11
274.0
 21
10.5
 31
0.0
  0
LINE
  5
CC8
330
CA8
100
AcDbEntity
  8
FLAM
100
AcDbLine
 10
274.0
 20
29.25
 30
0.0
 11
274.0
 21
33.0
 31
0.0
  0
TEXT
  5
CC9
330
CA8
100
AcDbEntity
  8
LAYER
100
AcDbText
 10
17.05
 20
8.0
 30
0.0
 40
5.0
  1
種類・呼び名
 41
0.9
 72
     4
 11
32.5
 21
10.5
 31
0.0
100
AcDbText
  0
TEXT
  5
CCA
330
CA8
100
AcDbEntity
  8
LAYER
100
AcDbText
 10
143.5952380952381
 20
12.25
 30
0.0
 40
4.0
  1
摘
 72
     4
 11
145.5
 21
14.25
 31
0.0
100
AcDbText
  0
TEXT
  5
CCB
330
CA8
100
AcDbEntity
  8
LAYER
100
AcDbText
 10
143.6333333333333
 20
4.883333333333332
 30
0.0
 40
4.0
  1
要
 72
     4
 11
145.5
 21
6.75
 31
0.0
100
AcDbText
  0
TEXT
  5
CCC
330
CA8
100
AcDbEntity
  8
LAYER
100
AcDbText
 10
200.0
 20
14.0
 30
0.0
 40
3.0
  1
工場長
 72
     4
 11
205.0
 21
15.5
 31
0.0
100
AcDbText
  0
TEXT
  5
CCD
330
CA8
100
AcDbEntity
  8
LAYER
100
AcDbText
 10
212.1
 20
14.0
 30
0.0
 40
3.0
  1
検　図
 72
     4
 11
217.0
 21
15.5
 31
0.0
100
AcDbText
  0
TEXT
  5
CCE
330
CA8
100
AcDbEntity
  8
LAYER
100
AcDbText
 10
224.1
 20
14.0
 30
0.0
 40
3.0
  1
製　図
 72
     4
 11
229.0
 21
15.5
 31
0.0
100
AcDbText
  0
TEXT
  5
CCF
330
CA8
100
AcDbEntity
  8
LAYER
100
AcDbText
 10
238.1666666666667
 20
27.5
 30
0.0
 40
3.5
  1
縮　尺
 72
     4
 11
244.0
 21
29.25
 31
0.0
100
AcDbText
  0
TEXT
  5
CD0
330
CA8
100
AcDbEntity
  8
LAYER
100
AcDbText
 10
237.9333333333333
 20
20.0
 30
0.0
 40
3.5
  1
日　付
 72
     4
 11
244.0
 21
21.75
 31
0.0
100
AcDbText
  0
TEXT
  5
CD1
330
CA8
100
AcDbEntity
  8
LAYER
100
AcDbText
 10
236.0666666666666
 20
5.0
 30
0.0
 40
3.5
  1
阿賀コンクリート工業株式会社
 72
     4
 11
265.0
 21
6.75
 31
0.0
100
AcDbText
  0
TEXT
  5
CD2
330
CA8
100
AcDbEntity
  8
LAYER
100
AcDbText
 10
238.05
 20
12.5
 30
0.0
 40
3.5
  1
図　番
 72
     4
 11
244.0
 21
14.25
 31
0.0
100
AcDbText
  0
TEXT
  5
CD3
330
CA8
100
AcDbEntity
  8
LAYER
100
AcDbText
 10
256.7625
 20
20.0
 30
0.0
 40
3.5
  1
H.   年   月   日
 72
     4
 11
274.0
 21
21.75
 31
0.0
100
AcDbText
  0
ENDBLK
  5
CD4
330
CA8
100
AcDbEntity
  8
0
100
AcDbBlockEnd
  0
BLOCK
  5
CF9
330
CD7
100
AcDbEntity
  8
0
100
AcDbBlockBegin
  2
A3展開図dwg
 70
     0
 10
0.0
 20
0.0
 30
0.0
  3
A3展開図dwg
  1

  0
LINE
  5
CD8
330
CD7
100
AcDbEntity
  8
LAYER
100
AcDbLine
 10
279.9999999999999
 20
15.0
 30
0.0
 11
279.9999999999999
 21
0.0
 31
0.0
  0
LINE
  5
CD9
330
CD7
100
AcDbEntity
  8
LAYER
100
AcDbLine
 10
298.0
 20
15.0
 30
0.0
 11
298.0
 21
0.0
 31
0.0
  0
TEXT
  5
CDA
330
CD7
100
AcDbEntity
  8
LAYER
100
AcDbText
 10
300.1125
 20
5.75
 30
0.0
 40
3.5
  1
H.    年    月    日
 72
     4
 11
320.5
 21
7.5
 31
0.0
100
AcDbText
  0
TEXT
  5
CDB
330
CD7
100
AcDbEntity
  8
LAYER
100
AcDbText
 10
346.05
 20
9.5
 30
0.0
 40
3.5
  1
図　番
 72
     4
 11
352.0
 21
11.25
 31
0.0
100
AcDbText
  0
TEXT
  5
CDC
330
CD7
100
AcDbEntity
  8
LAYER
100
AcDbText
 10
347.0666666666666
 20
2.0
 30
0.0
 40
3.5
  1
阿賀コンクリート工業株式会社
 72
     4
 11
375.9999999999999
 21
3.75
 31
0.0
100
AcDbText
  0
TEXT
  5
CDD
330
CD7
100
AcDbEntity
  8
LAYER
100
AcDbText
 10
282.9333333333333
 20
5.75
 30
0.0
 40
3.5
  1
日　付
 72
     4
 11
289.0
 21
7.5
 31
0.0
100
AcDbText
  0
TEXT
  5
CDE
330
CD7
100
AcDbEntity
  8
LAYER
100
AcDbText
 10
211.6333333333332
 20
1.883333333333333
 30
0.0
 40
4.0
  1
要
 72
     4
 11
213.4999999999999
 21
3.75
 31
0.0
100
AcDbText
  0
TEXT
  5
CDF
330
CD7
100
AcDbEntity
  8
LAYER
100
AcDbText
 10
211.595238095238
 20
9.25
 30
0.0
 40
4.0
  1
摘
 72
     4
 11
213.4999999999999
 21
11.25
 31
0.0
100
AcDbText
  0
TEXT
  5
CE0
330
CD7
100
AcDbEntity
  8
LAYER
100
AcDbText
 10
2.049999999999998
 20
5.0
 30
0.0
 40
5.0
  1
種類・呼び名
 41
0.9
 72
     4
 11
17.5
 21
7.5
 31
0.0
100
AcDbText
  0
LINE
  5
CE1
330
CD7
100
AcDbEntity
  8
FLAM
100
AcDbLine
 10
383.4999999999999
 20
15.0
 30
0.0
 11
383.4999999999999
 21
7.5
 31
0.0
  0
LINE
  5
CE2
330
CD7
100
AcDbEntity
  8
FLAM
100
AcDbLine
 10
216.9999999999999
 20
11.25
 30
0.0
 11
279.9999999999999
 21
11.25
 31
0.0
  0
LINE
  5
CE3
330
CD7
100
AcDbEntity
  8
FLAM
100
AcDbLine
 10
216.9999999999999
 20
3.75
 30
0.0
 11
279.9999999999999
 21
3.75
 31
0.0
  0
LINE
  5
CE4
330
CD7
100
AcDbEntity
  8
FLAM
100
AcDbLine
 10
360.9999999999999
 20
11.25
 30
0.0
 11
405.9999999999998
 21
11.25
 31
0.0
  0
LINE
  5
CE5
330
CD7
100
AcDbEntity
  8
FLAM
100
AcDbLine
 10
298.0
 20
7.5
 30
0.0
 11
343.0
 21
7.5
 31
0.0
  0
LINE
  5
CE6
330
CD7
100
AcDbEntity
  8
FLAM
100
AcDbLine
 10
248.4999999999999
 20
7.5
 30
0.0
 11
248.4999999999999
 21
0.0
 31
0.0
  0
LINE
  5
CE7
330
CD7
100
AcDbEntity
  8
FLAM
100
AcDbLine
 10
248.4999999999999
 20
7.5
 30
0.0
 11
248.4999999999999
 21
15.0
 31
0.0
  0
LINE
  5
CE8
330
CD7
100
AcDbEntity
  8
FLAM
100
AcDbLine
 10
216.9999999999999
 20
7.5
 30
0.0
 11
279.9999999999999
 21
7.5
 31
0.0
  0
LINE
  5
CE9
330
CD7
100
AcDbEntity
  8
FLAM
100
AcDbLine
 10
35.0
 20
11.25
 30
0.0
 11
210.0
 21
11.25
 31
0.0
  0
LINE
  5
CEA
330
CD7
100
AcDbEntity
  8
FLAM
100
AcDbLine
 10
35.0
 20
3.75
 30
0.0
 11
210.0
 21
3.75
 31
0.0
  0
LINE
  5
CEB
330
CD7
100
AcDbEntity
  8
FLAM
100
AcDbLine
 10
122.4999999999999
 20
7.5
 30
0.0
 11
122.4999999999999
 21
0.0
 31
0.0
  0
LINE
  5
CEC
330
CD7
100
AcDbEntity
  8
FLAM
100
AcDbLine
 10
122.4999999999999
 20
7.5
 30
0.0
 11
122.4999999999999
 21
15.0
 31
0.0
  0
LINE
  5
CED
330
CD7
100
AcDbEntity
  8
LAYER
100
AcDbLine
 10
360.9999999999999
 20
15.0
 30
0.0
 11
360.9999999999999
 21
7.5
 31
0.0
  0
LINE
  5
CEE
330
CD7
100
AcDbEntity
  8
LAYER
100
AcDbLine
 10
343.0
 20
7.5
 30
0.0
 11
405.9999999999998
 21
7.5
 31
0.0
  0
LINE
  5
CEF
330
CD7
100
AcDbEntity
  8
LAYER
100
AcDbLine
 10
35.0
 20
7.5
 30
0.0
 11
210.0
 21
7.5
 31
0.0
  0
LINE
  5
CF0
330
CD7
100
AcDbEntity
  8
LAYER
100
AcDbLine
 10
343.0
 20
15.0
 30
0.0
 11
343.0
 21
15.0
 31
0.0
  0
LINE
  5
CF1
330
CD7
100
AcDbEntity
  8
LAYER
100
AcDbLine
 10
343.0
 20
15.0
 30
0.0
 11
343.0
 21
0.0
 31
0.0
  0
LINE
  5
CF2
330
CD7
100
AcDbEntity
  8
LAYER
100
AcDbLine
 10
216.9999999999999
 20
15.0
 30
0.0
 11
216.9999999999999
 21
0.0
 31
0.0
  0
LINE
  5
CF3
330
CD7
100
AcDbEntity
  8
LAYER
100
AcDbLine
 10
210.0
 20
15.0
 30
0.0
 11
210.0
 21
0.0
 31
0.0
  0
LINE
  5
CF4
330
CD7
100
AcDbEntity
  8
LAYER
100
AcDbLine
 10
35.0
 20
15.0
 30
0.0
 11
35.0
 21
0.0
 31
0.0
  0
LINE
  5
CF5
330
CD7
100
AcDbEntity
  8
LAYER
100
AcDbLine
 10
0.0
 20
15.0
 30
0.0
 11
405.9999999999998
 21
15.0
 31
0.0
  0
LWPOLYLINE
  5
CF6
330
CD7
100
AcDbEntity
  8
LAYER
100
AcDbPolyline
 90
        4
 70
     1
 43
0.0
 10
0.0
 20
0.0
 10
0.0
 20
282.75
 10
405.9999999999998
 20
282.75
 10
405.9999999999998
 20
0.0
  0
VIEWPORT
  5
CF7
330
CD7
100
AcDbEntity
  8
0
100
AcDbViewport
 10
203.0
 20
148.875
 30
0.0
 40
405.9999999999999
 41
267.75
 69
     0
 12
228.1209015211101
 22
160.8176196896051
 13
0.0
 23
0.0
 14
10.0
 24
10.0
 15
10.0
 25
10.0
 16
0.0
 26
0.0
 36
1.0
 17
0.0
 27
0.0
 37
0.0
 42
50.0
 43
0.0
 44
0.0
 45
267.75
 50
0.0
 51
0.0
 72
   100
 90
    32864
  1

281
     0
 71
     1
 74
     0
110
0.0
120
0.0
130
0.0
111
1.0
121
0.0
131
0.0
112
0.0
122
1.0
132
0.0
 79
     0
146
0.0
170
     0
  0
LWPOLYLINE
  5
CF8
330
CD7
100
AcDbEntity
  8
LAYER
100
AcDbPolyline
 90
        4
 70
     1
 43
0.0
 10
405.9999999999998
 20
0.0
 10
0.0000000000000284
 20
0.0
 10
0.0000000000000284
 20
282.75
 10
405.9999999999998
 20
282.75
  0
ENDBLK
  5
CFA
330
CD7
100
AcDbEntity
  8
0
100
AcDbBlockEnd
  0
BLOCK
  5
11B2
330
11B1
100
AcDbEntity
  8
0
100
AcDbBlockBegin
  2
*D36
 70
     1
 10
0.0
 20
0.0
 30
0.0
  3
*D36
  1

  0
LINE
  5
11B3
330
11B1
100
AcDbEntity
  8
DIM
 62
     0
370
    -2
100
AcDbLine
 10
1165.0
 20
619.0
 30
0.0
 11
1295.0
 21
618.9999999999998
 31
0.0
  0
LINE
  5
11B4
330
11B1
100
AcDbEntity
  8
DIM
 62
     0
370
    -2
100
AcDbLine
 10
1185.0
 20
839.0
 30
0.0
 11
1295.0
 21
838.9999999999998
 31
0.0
  0
LINE
  5
11B5
330
11B1
100
AcDbEntity
  8
DIM
 62
     0
370
    -2
100
AcDbLine
 10
1265.0
 20
659.0
 30
0.0
 11
1265.0
 21
799.0
 31
0.0
  0
SOLID
  5
11B6
330
11B1
100
AcDbEntity
  8
DIM
 62
     0
100
AcDbTrace
 10
1258.333333333333
 20
659.0
 30
0.0
 11
1271.666666666667
 21
659.0
 31
0.0
 12
1265.0
 22
619.0
 32
0.0
 13
1265.0
 23
619.0
 33
0.0
  0
SOLID
  5
11B7
330
11B1
100
AcDbEntity
  8
DIM
 62
     0
100
AcDbTrace
 10
1258.333333333333
 20
799.0
 30
0.0
 11
1271.666666666667
 21
799.0
 31
0.0
 12
1265.0
 22
839.0
 32
0.0
 13
1265.0
 23
839.0
 33
0.0
  0
MTEXT
  5
11B8
330
11B1
100
AcDbEntity
  8
DIM
 62
     0
100
AcDbMText
 10
1229.996062992126
 20
729.0
 30
0.0
 40
40.0
 41
0.0
 71
     5
 72
     1
  1
220
 11
0.0000000000000001
 21
1.0
 31
0.0
 73
     1
 44
1.0
  0
POINT
  5
11B9
330
11B1
100
AcDbEntity
  8
Defpoints
 62
     0
100
AcDbPoint
 10
1095.0
 20
619.0
 30
0.0
  0
POINT
  5
11BA
330
11B1
100
AcDbEntity
  8
Defpoints
 62
     0
100
AcDbPoint
 10
1115.0
 20
839.0
 30
0.0
  0
POINT
  5
11BB
330
11B1
100
AcDbEntity
  8
Defpoints
 62
     0
100
AcDbPoint
 10
1265.0
 20
839.0
 30
0.0
  0
ENDBLK
  5
11BC
330
11B1
100
AcDbEntity
  8
0
100
AcDbBlockEnd
  0
BLOCK
  5
11BE
330
11BD
100
AcDbEntity
  8
0
100
AcDbBlockBegin
  2
*D37
 70
     1
 10
0.0
 20
0.0
 30
0.0
  3
*D37
  1

  0
LINE
  5
11BF
330
11BD
100
AcDbEntity
  8
DIM
 62
     0
370
    -2
100
AcDbLine
 10
1165.0
 20
619.0
 30
0.0
 11
1295.0
 21
618.9999999999998
 31
0.0
  0
LINE
  5
11C0
330
11BD
100
AcDbEntity
  8
DIM
 62
     0
370
    -2
100
AcDbLine
 10
1165.0
 20
169.0
 30
0.0
 11
1295.0
 21
168.9999999999999
 31
0.0
  0
LINE
  5
11C1
330
11BD
100
AcDbEntity
  8
DIM
 62
     0
370
    -2
100
AcDbLine
 10
1265.0
 20
579.0
 30
0.0
 11
1265.0
 21
209.0
 31
0.0
  0
SOLID
  5
11C2
330
11BD
100
AcDbEntity
  8
DIM
 62
     0
100
AcDbTrace
 10
1258.333333333333
 20
579.0
 30
0.0
 11
1271.666666666667
 21
579.0
 31
0.0
 12
1265.0
 22
619.0
 32
0.0
 13
1265.0
 23
619.0
 33
0.0
  0
SOLID
  5
11C3
330
11BD
100
AcDbEntity
  8
DIM
 62
     0
100
AcDbTrace
 10
1258.333333333333
 20
209.0
 30
0.0
 11
1271.666666666666
 21
209.0
 31
0.0
 12
1265.0
 22
168.9999999999999
 32
0.0
 13
1265.0
 23
168.9999999999999
 33
0.0
  0
MTEXT
  5
11C4
330
11BD
100
AcDbEntity
  8
DIM
 62
     0
100
AcDbMText
 10
1229.999999999999
 20
394.0000000000002
 30
0.0
 40
40.0
 41
0.0
 71
     5
 72
     1
  1
450
 11
0.0000000000000001
 21
1.0
 31
0.0
 73
     1
 44
1.0
  0
POINT
  5
11C5
330
11BD
100
AcDbEntity
  8
Defpoints
 62
     0
100
AcDbPoint
 10
1095.0
 20
619.0
 30
0.0
  0
POINT
  5
11C6
330
11BD
100
AcDbEntity
  8
Defpoints
 62
     0
100
AcDbPoint
 10
1095.0
 20
169.0
 30
0.0
  0
POINT
  5
11C7
330
11BD
100
AcDbEntity
  8
Defpoints
 62
     0
100
AcDbPoint
 10
1265.0
 20
168.9999999999999
 30
0.0
  0
ENDBLK
  5
11C8
330
11BD
100
AcDbEntity
  8
0
100
AcDbBlockEnd
  0
BLOCK
  5
11CA
330
11C9
100
AcDbEntity
  8
0
100
AcDbBlockBegin
  2
*D38
 70
     1
 10
0.0
 20
0.0
 30
0.0
  3
*D38
  1

  0
LINE
  5
11CB
330
11C9
100
AcDbEntity
  8
DIM
 62
     0
370
    -2
100
AcDbLine
 10
1185.0
 20
839.0
 30
0.0
 11
1445.0
 21
838.9999999999998
 31
0.0
  0
LINE
  5
11CC
330
11C9
100
AcDbEntity
  8
DIM
 62
     0
370
    -2
100
AcDbLine
 10
1068.0
 20
88.99999999999998
 30
0.0
 11
1445.0
 21
88.99999999999987
 31
0.0
  0
LINE
  5
11CD
330
11C9
100
AcDbEntity
  8
DIM
 62
     0
370
    -2
100
AcDbLine
 10
1415.0
 20
798.9999999999999
 30
0.0
 11
1415.0
 21
128.9999999999999
 31
0.0
  0
SOLID
  5
11CE
330
11C9
100
AcDbEntity
  8
DIM
 62
     0
100
AcDbTrace
 10
1408.333333333333
 20
798.9999999999999
 30
0.0
 11
1421.666666666667
 21
798.9999999999999
 31
0.0
 12
1415.0
 22
838.9999999999998
 32
0.0
 13
1415.0
 23
838.9999999999998
 33
0.0
  0
SOLID
  5
11CF
330
11C9
100
AcDbEntity
  8
DIM
 62
     0
100
AcDbTrace
 10
1408.333333333333
 20
128.9999999999999
 30
0.0
 11
1421.666666666666
 21
128.9999999999999
 31
0.0
 12
1415.0
 22
88.99999999999989
 32
0.0
 13
1415.0
 23
88.99999999999989
 33
0.0
  0
MTEXT
  5
11D0
330
11C9
100
AcDbEntity
  8
DIM
 62
     0
100
AcDbMText
 10
1380.0
 20
464.0000000000001
 30
0.0
 40
40.0
 41
0.0
 71
     5
 72
     1
  1
750
 11
0.0000000000000001
 21
1.0
 31
0.0
 73
     1
 44
1.0
  0
POINT
  5
11D1
330
11C9
100
AcDbEntity
  8
Defpoints
 62
     0
100
AcDbPoint
 10
1115.0
 20
839.0
 30
0.0
  0
POINT
  5
11D2
330
11C9
100
AcDbEntity
  8
Defpoints
 62
     0
100
AcDbPoint
 10
998.0
 20
89.0
 30
0.0
  0
POINT
  5
11D3
330
11C9
100
AcDbEntity
  8
Defpoints
 62
     0
100
AcDbPoint
 10
1415.0
 20
88.99999999999989
 30
0.0
  0
ENDBLK
  5
11D4
330
11C9
100
AcDbEntity
  8
0
100
AcDbBlockEnd
  0
BLOCK
  5
11D6
330
11D5
100
AcDbEntity
  8
0
100
AcDbBlockBegin
  2
*D39
 70
     1
 10
0.0
 20
0.0
 30
0.0
  3
*D39
  1

  0
LINE
  5
11D7
330
11D5
100
AcDbEntity
  8
DIM
 62
     0
370
    -2
100
AcDbLine
 10
1068.0
 20
88.99999999999998
 30
0.0
 11
1445.0
 21
88.99999999999987
 31
0.0
  0
LINE
  5
11D8
330
11D5
100
AcDbEntity
  8
DIM
 62
     0
370
    -2
100
AcDbLine
 10
1176.0
 20
-21.00000000000002
 30
0.0
 11
1445.0
 21
-21.0000000000001
 31
0.0
  0
LINE
  5
11D9
330
11D5
100
AcDbEntity
  8
DIM
 62
     0
370
    -2
100
AcDbLine
 10
1415.0
 20
128.9999999999999
 30
0.0
 11
1415.0
 21
168.9999999999999
 31
0.0
  0
LINE
  5
11DA
330
11D5
100
AcDbEntity
  8
DIM
 62
     0
370
    -2
100
AcDbLine
 10
1415.0
 20
-61.00000000000008
 30
0.0
 11
1415.0
 21
-101.0000000000001
 31
0.0
  0
SOLID
  5
11DB
330
11D5
100
AcDbEntity
  8
DIM
 62
     0
100
AcDbTrace
 10
1408.333333333333
 20
128.9999999999999
 30
0.0
 11
1421.666666666666
 21
128.9999999999999
 31
0.0
 12
1415.0
 22
88.99999999999989
 32
0.0
 13
1415.0
 23
88.99999999999989
 33
0.0
  0
SOLID
  5
11DC
330
11D5
100
AcDbEntity
  8
DIM
 62
     0
100
AcDbTrace
 10
1408.333333333333
 20
-61.00000000000008
 30
0.0
 11
1421.666666666666
 21
-61.00000000000008
 31
0.0
 12
1415.0
 22
-21.00000000000008
 32
0.0
 13
1415.0
 23
-21.00000000000008
 33
0.0
  0
MTEXT
  5
11DD
330
11D5
100
AcDbEntity
  8
DIM
 62
     0
100
AcDbMText
 10
1380.0
 20
34.00000000000013
 30
0.0
 40
40.0
 41
0.0
 71
     5
 72
     1
  1
110
 11
0.0000000000000001
 21
1.0
 31
0.0
 73
     1
 44
1.0
  0
POINT
  5
11DE
330
11D5
100
AcDbEntity
  8
Defpoints
 62
     0
100
AcDbPoint
 10
998.0
 20
89.0
 30
0.0
  0
POINT
  5
11DF
330
11D5
100
AcDbEntity
  8
Defpoints
 62
     0
100
AcDbPoint
 10
1106.0
 20
-21.0
 30
0.0
  0
POINT
  5
11E0
330
11D5
100
AcDbEntity
  8
Defpoints
 62
     0
100
AcDbPoint
 10
1415.0
 20
-21.00000000000008
 30
0.0
  0
ENDBLK
  5
11E1
330
11D5
100
AcDbEntity
  8
0
100
AcDbBlockEnd
  0
BLOCK
  5
11E3
330
11E2
100
AcDbEntity
  8
0
100
AcDbBlockBegin
  2
*D40
 70
     1
 10
0.0
 20
0.0
 30
0.0
  3
*D40
  1

  0
LINE
  5
11E4
330
11E2
100
AcDbEntity
  8
DIM
 62
     0
370
    -2
100
AcDbLine
 10
1176.0
 20
-21.00000000000002
 30
0.0
 11
1594.999999999999
 21
-21.00000000000014
 31
0.0
  0
LINE
  5
11E5
330
11E2
100
AcDbEntity
  8
DIM
 62
     0
370
    -2
100
AcDbLine
 10
1185.0
 20
839.0
 30
0.0
 11
1595.0
 21
838.9999999999998
 31
0.0
  0
LINE
  5
11E6
330
11E2
100
AcDbEntity
  8
DIM
 62
     0
370
    -2
100
AcDbLine
 10
1565.0
 20
18.99999999999987
 30
0.0
 11
1565.0
 21
798.9999999999999
 31
0.0
  0
SOLID
  5
11E7
330
11E2
100
AcDbEntity
  8
DIM
 62
     0
100
AcDbTrace
 10
1558.333333333333
 20
18.99999999999987
 30
0.0
 11
1571.666666666666
 21
18.99999999999987
 31
0.0
 12
1565.0
 22
-21.00000000000013
 32
0.0
 13
1565.0
 23
-21.00000000000013
 33
0.0
  0
SOLID
  5
11E8
330
11E2
100
AcDbEntity
  8
DIM
 62
     0
100
AcDbTrace
 10
1558.333333333333
 20
798.9999999999999
 30
0.0
 11
1571.666666666667
 21
798.9999999999999
 31
0.0
 12
1565.0
 22
838.9999999999998
 32
0.0
 13
1565.0
 23
838.9999999999998
 33
0.0
  0
MTEXT
  5
11E9
330
11E2
100
AcDbEntity
  8
DIM
 62
     0
100
AcDbMText
 10
1530.0
 20
409.0000000000001
 30
0.0
 40
40.0
 41
0.0
 71
     5
 72
     1
  1
860
 11
0.0000000000000001
 21
1.0
 31
0.0
 73
     1
 44
1.0
  0
POINT
  5
11EA
330
11E2
100
AcDbEntity
  8
Defpoints
 62
     0
100
AcDbPoint
 10
1106.0
 20
-21.0
 30
0.0
  0
POINT
  5
11EB
330
11E2
100
AcDbEntity
  8
Defpoints
 62
     0
100
AcDbPoint
 10
1115.0
 20
839.0
 30
0.0
  0
POINT
  5
11EC
330
11E2
100
AcDbEntity
  8
Defpoints
 62
     0
100
AcDbPoint
 10
1565.0
 20
838.9999999999998
 30
0.0
  0
ENDBLK
  5
11ED
330
11E2
100
AcDbEntity
  8
0
100
AcDbBlockEnd
  0
BLOCK
  5
11EF
330
11EE
100
AcDbEntity
  8
0
100
AcDbBlockBegin
  2
*D41
 70
     1
 10
0.0
 20
0.0
 30
0.0
  3
*D41
  1

  0
LINE
  5
11F0
330
11EE
100
AcDbEntity
  8
DIM
 62
     0
370
    -2
100
AcDbLine
 10
1176.0
 20
-21.00000000000002
 30
0.0
 11
1295.0
 21
-21.00000000000005
 31
0.0
  0
LINE
  5
11F1
330
11EE
100
AcDbEntity
  8
DIM
 62
     0
370
    -2
100
AcDbLine
 10
1165.0
 20
169.0
 30
0.0
 11
1295.0
 21
168.9999999999999
 31
0.0
  0
LINE
  5
11F2
330
11EE
100
AcDbEntity
  8
DIM
 62
     0
370
    -2
100
AcDbLine
 10
1265.0
 20
18.99999999999995
 30
0.0
 11
1265.0
 21
129.0
 31
0.0
  0
SOLID
  5
11F3
330
11EE
100
AcDbEntity
  8
DIM
 62
     0
100
AcDbTrace
 10
1258.333333333333
 20
18.99999999999995
 30
0.0
 11
1271.666666666666
 21
18.99999999999995
 31
0.0
 12
1265.0
 22
-21.00000000000004
 32
0.0
 13
1265.0
 23
-21.00000000000004
 33
0.0
  0
SOLID
  5
11F4
330
11EE
100
AcDbEntity
  8
DIM
 62
     0
100
AcDbTrace
 10
1258.333333333333
 20
129.0
 30
0.0
 11
1271.666666666666
 21
129.0
 31
0.0
 12
1265.0
 22
168.9999999999999
 32
0.0
 13
1265.0
 23
168.9999999999999
 33
0.0
  0
MTEXT
  5
11F5
330
11EE
100
AcDbEntity
  8
DIM
 62
     0
100
AcDbMText
 10
1229.999999999999
 20
80.10105845326185
 30
0.0
 40
40.0
 41
0.0
 71
     5
 72
     1
  1
190
 11
0.0000000000000001
 21
1.0
 31
0.0
 73
     1
 44
1.0
  0
POINT
  5
11F6
330
11EE
100
AcDbEntity
  8
Defpoints
 62
     0
100
AcDbPoint
 10
1106.0
 20
-21.0
 30
0.0
  0
POINT
  5
11F7
330
11EE
100
AcDbEntity
  8
Defpoints
 62
     0
100
AcDbPoint
 10
1095.0
 20
169.0
 30
0.0
  0
POINT
  5
11F8
330
11EE
100
AcDbEntity
  8
Defpoints
 62
     0
100
AcDbPoint
 10
1265.0
 20
168.9999999999999
 30
0.0
  0
ENDBLK
  5
11F9
330
11EE
100
AcDbEntity
  8
0
100
AcDbBlockEnd
  0
BLOCK
  5
11FB
330
11FA
100
AcDbEntity
  8
0
100
AcDbBlockBegin
  2
*D42
 70
     1
 10
0.0
 20
0.0
 30
0.0
  3
*D42
  1

  0
LINE
  5
11FC
330
11FA
100
AcDbEntity
  8
DIM
 62
     0
370
    -2
100
AcDbLine
 10
177.5
 20
99.0
 30
0.0
 11
177.4999999999999
 21
-190.0
 31
0.0
  0
LINE
  5
11FD
330
11FA
100
AcDbEntity
  8
DIM
 62
     0
370
    -2
100
AcDbLine
 10
877.5
 20
99.0
 30
0.0
 11
877.5
 21
-190.0
 31
0.0
  0
LINE
  5
11FE
330
11FA
100
AcDbEntity
  8
DIM
 62
     0
370
    -2
100
AcDbLine
 10
217.5
 20
-160.0
 30
0.0
 11
837.5
 21
-160.0
 31
0.0
  0
SOLID
  5
11FF
330
11FA
100
AcDbEntity
  8
DIM
 62
     0
100
AcDbTrace
 10
217.5
 20
-153.3333333333333
 30
0.0
 11
217.5
 21
-166.6666666666666
 31
0.0
 12
177.4999999999999
 22
-160.0
 32
0.0
 13
177.4999999999999
 23
-160.0
 33
0.0
  0
SOLID
  5
1200
330
11FA
100
AcDbEntity
  8
DIM
 62
     0
100
AcDbTrace
 10
837.5
 20
-153.3333333333333
 30
0.0
 11
837.5
 21
-166.6666666666666
 31
0.0
 12
877.5
 22
-160.0
 32
0.0
 13
877.5
 23
-160.0
 33
0.0
  0
MTEXT
  5
1201
330
11FA
100
AcDbEntity
  8
DIM
 62
     0
100
AcDbMText
 10
527.5
 20
-125.0
 30
0.0
 40
40.0
 41
0.0
 71
     5
 72
     1
  1
700
 73
     1
 44
1.0
  0
POINT
  5
1202
330
11FA
100
AcDbEntity
  8
Defpoints
 62
     0
100
AcDbPoint
 10
177.5
 20
169.0
 30
0.0
  0
POINT
  5
1203
330
11FA
100
AcDbEntity
  8
Defpoints
 62
     0
100
AcDbPoint
 10
877.5
 20
169.0
 30
0.0
  0
POINT
  5
1204
330
11FA
100
AcDbEntity
  8
Defpoints
 62
     0
100
AcDbPoint
 10
877.5
 20
-160.0
 30
0.0
  0
ENDBLK
  5
1205
330
11FA
100
AcDbEntity
  8
0
100
AcDbBlockEnd
  0
BLOCK
  5
1207
330
1206
100
AcDbEntity
  8
0
100
AcDbBlockBegin
  2
*D43
 70
     1
 10
0.0
 20
0.0
 30
0.0
  3
*D43
  1

  0
LINE
  5
1208
330
1206
100
AcDbEntity
  8
DIM
 62
     0
370
    -2
100
AcDbLine
 10
27.5
 20
49.0
 30
0.0
 11
27.49999999999997
 21
-340.0
 31
0.0
  0
LINE
  5
1209
330
1206
100
AcDbEntity
  8
DIM
 62
     0
370
    -2
100
AcDbLine
 10
1027.5
 20
49.0
 30
0.0
 11
1027.5
 21
-340.0
 31
0.0
  0
LINE
  5
120A
330
1206
100
AcDbEntity
  8
DIM
 62
     0
370
    -2
100
AcDbLine
 10
67.49999999999997
 20
-310.0
 30
0.0
 11
987.5
 21
-310.0
 31
0.0
  0
SOLID
  5
120B
330
1206
100
AcDbEntity
  8
DIM
 62
     0
100
AcDbTrace
 10
67.49999999999997
 20
-303.3333333333333
 30
0.0
 11
67.49999999999997
 21
-316.6666666666667
 31
0.0
 12
27.49999999999998
 22
-310.0
 32
0.0
 13
27.49999999999998
 23
-310.0
 33
0.0
  0
SOLID
  5
120C
330
1206
100
AcDbEntity
  8
DIM
 62
     0
100
AcDbTrace
 10
987.5
 20
-303.3333333333333
 30
0.0
 11
987.5
 21
-316.6666666666667
 31
0.0
 12
1027.5
 22
-310.0
 32
0.0
 13
1027.5
 23
-310.0
 33
0.0
  0
MTEXT
  5
120D
330
1206
100
AcDbEntity
  8
DIM
 62
     0
100
AcDbMText
 10
527.5
 20
-275.0
 30
0.0
 40
40.0
 41
0.0
 71
     5
 72
     1
  1
1000
 73
     1
 44
1.0
  0
POINT
  5
120E
330
1206
100
AcDbEntity
  8
Defpoints
 62
     0
100
AcDbPoint
 10
27.5
 20
119.0
 30
0.0
  0
POINT
  5
120F
330
1206
100
AcDbEntity
  8
Defpoints
 62
     0
100
AcDbPoint
 10
1027.5
 20
119.0
 30
0.0
  0
POINT
  5
1210
330
1206
100
AcDbEntity
  8
Defpoints
 62
     0
100
AcDbPoint
 10
1027.5
 20
-310.0
 30
0.0
  0
ENDBLK
  5
1211
330
1206
100
AcDbEntity
  8
0
100
AcDbBlockEnd
  0
BLOCK
  5
1213
330
1212
100
AcDbEntity
  8
0
100
AcDbBlockBegin
  2
*D44
 70
     1
 10
0.0
 20
0.0
 30
0.0
  3
*D44
  1

  0
LINE
  5
1214
330
1212
100
AcDbEntity
  8
DIM
 62
     0
370
    -2
100
AcDbLine
 10
-60.0
 20
-82.0
 30
0.0
 11
-60.00000000000003
 21
-490.0
 31
0.0
  0
LINE
  5
1215
330
1212
100
AcDbEntity
  8
DIM
 62
     0
370
    -2
100
AcDbLine
 10
1115.0
 20
-82.0
 30
0.0
 11
1115.0
 21
-490.0
 31
0.0
  0
LINE
  5
1216
330
1212
100
AcDbEntity
  8
DIM
 62
     0
370
    -2
100
AcDbLine
 10
-20.00000000000003
 20
-460.0
 30
0.0
 11
1075.0
 21
-460.0
 31
0.0
  0
SOLID
  5
1217
330
1212
100
AcDbEntity
  8
DIM
 62
     0
100
AcDbTrace
 10
-20.00000000000003
 20
-453.3333333333333
 30
0.0
 11
-20.00000000000003
 21
-466.6666666666666
 31
0.0
 12
-60.00000000000003
 22
-460.0
 32
0.0
 13
-60.00000000000003
 23
-460.0
 33
0.0
  0
SOLID
  5
1218
330
1212
100
AcDbEntity
  8
DIM
 62
     0
100
AcDbTrace
 10
1075.0
 20
-453.3333333333333
 30
0.0
 11
1075.0
 21
-466.6666666666666
 31
0.0
 12
1115.0
 22
-460.0
 32
0.0
 13
1115.0
 23
-460.0
 33
0.0
  0
MTEXT
  5
1219
330
1212
100
AcDbEntity
  8
DIM
 62
     0
100
AcDbMText
 10
527.5
 20
-425.0
 30
0.0
 40
40.0
 41
0.0
 71
     5
 72
     1
  1
1175
 73
     1
 44
1.0
  0
POINT
  5
121A
330
1212
100
AcDbEntity
  8
Defpoints
 62
     0
100
AcDbPoint
 10
-60.0
 20
-12.0
 30
0.0
  0
POINT
  5
121B
330
1212
100
AcDbEntity
  8
Defpoints
 62
     0
100
AcDbPoint
 10
1115.0
 20
-12.0
 30
0.0
  0
POINT
  5
121C
330
1212
100
AcDbEntity
  8
Defpoints
 62
     0
100
AcDbPoint
 10
1115.0
 20
-460.0
 30
0.0
  0
ENDBLK
  5
121D
330
1212
100
AcDbEntity
  8
0
100
AcDbBlockEnd
  0
BLOCK
  5
121F
330
121E
100
AcDbEntity
  8
0
100
AcDbBlockBegin
  2
*D45
 70
     1
 10
0.0
 20
0.0
 30
0.0
  3
*D45
  1

  0
LINE
  5
1220
330
121E
100
AcDbEntity
  8
DIM
 62
     0
370
    -2
100
AcDbLine
 10
1016.243556529821
 20
769.0
 30
0.0
 11
982.9437938065256
 21
644.7235936366719
 31
0.0
  0
LINE
  5
1221
330
121E
100
AcDbEntity
  8
DIM
 62
     0
370
    -2
100
AcDbLine
 10
1.243556529821411
 20
769.0
 30
0.0
 11
-32.05620619347439
 21
644.7235936366719
 31
0.0
  0
LINE
  5
1222
330
121E
100
AcDbEntity
  8
DIM
 62
     0
370
    -2
100
AcDbLine
 10
950.9822695794593
 20
674.7235936366719
 30
0.0
 11
15.9822695794593
 21
674.7235936366719
 31
0.0
  0
SOLID
  5
1223
330
121E
100
AcDbEntity
  8
DIM
 62
     0
100
AcDbTrace
 10
950.9822695794593
 20
681.3902603033385
 30
0.0
 11
950.9822695794593
 21
668.0569269700052
 31
0.0
 12
990.9822695794593
 22
674.7235936366719
 32
0.0
 13
990.9822695794593
 23
674.7235936366719
 33
0.0
  0
SOLID
  5
1224
330
121E
100
AcDbEntity
  8
DIM
 62
     0
100
AcDbTrace
 10
15.9822695794593
 20
681.3902603033385
 30
0.0
 11
15.9822695794593
 21
668.0569269700052
 31
0.0
 12
-24.0177304205407
 22
674.7235936366719
 32
0.0
 13
-24.0177304205407
 23
674.7235936366719
 33
0.0
  0
MTEXT
  5
1225
330
121E
100
AcDbEntity
  8
DIM
 62
     0
100
AcDbMText
 10
483.4822695794592
 20
709.7235936366719
 30
0.0
 40
40.0
 41
0.0
 71
     5
 72
     1
  1
1015
 73
     1
 44
1.0
  0
POINT
  5
1226
330
121E
100
AcDbEntity
  8
Defpoints
 62
     0
100
AcDbPoint
 10
1035.0
 20
839.0
 30
0.0
  0
POINT
  5
1227
330
121E
100
AcDbEntity
  8
Defpoints
 62
     0
100
AcDbPoint
 10
20.0
 20
839.0
 30
0.0
  0
POINT
  5
1228
330
121E
100
AcDbEntity
  8
Defpoints
 62
     0
100
AcDbPoint
 10
-24.0177304205407
 20
674.7235936366719
 30
0.0
  0
ENDBLK
  5
1229
330
121E
100
AcDbEntity
  8
0
100
AcDbBlockEnd
  0
BLOCK
  5
122B
330
122A
100
AcDbEntity
  8
0
100
AcDbBlockBegin
  2
*D46
 70
     1
 10
0.0
 20
0.0
 30
0.0
  3
*D46
  1

  0
LINE
  5
122C
330
122A
100
AcDbEntity
  8
DIM
 62
     0
370
    -2
100
AcDbLine
 10
1016.243556529821
 20
769.0
 30
0.0
 11
982.9437938065256
 21
644.7235936366719
 31
0.0
  0
LINE
  5
122D
330
122A
100
AcDbEntity
  8
DIM
 62
     0
370
    -2
100
AcDbLine
 10
1096.243556529821
 20
769.0
 30
0.0
 11
1062.943793806526
 21
644.7235936366719
 31
0.0
  0
LINE
  5
122E
330
122A
100
AcDbEntity
  8
DIM
 62
     0
370
    -2
100
AcDbLine
 10
950.9822695794593
 20
674.7235936366719
 30
0.0
 11
910.9822695794592
 21
674.7235936366719
 31
0.0
  0
LINE
  5
122F
330
122A
100
AcDbEntity
  8
DIM
 62
     0
370
    -2
100
AcDbLine
 10
1110.982269579459
 20
674.7235936366719
 30
0.0
 11
1150.982269579459
 21
674.7235936366719
 31
0.0
  0
SOLID
  5
1230
330
122A
100
AcDbEntity
  8
DIM
 62
     0
100
AcDbTrace
 10
950.9822695794593
 20
681.3902603033385
 30
0.0
 11
950.9822695794593
 21
668.0569269700052
 31
0.0
 12
990.9822695794593
 22
674.7235936366719
 32
0.0
 13
990.9822695794593
 23
674.7235936366719
 33
0.0
  0
SOLID
  5
1231
330
122A
100
AcDbEntity
  8
DIM
 62
     0
100
AcDbTrace
 10
1110.982269579459
 20
681.3902603033385
 30
0.0
 11
1110.982269579459
 21
668.0569269700052
 31
0.0
 12
1070.982269579459
 22
674.7235936366719
 32
0.0
 13
1070.982269579459
 23
674.7235936366719
 33
0.0
  0
MTEXT
  5
1232
330
122A
100
AcDbEntity
  8
DIM
 62
     0
100
AcDbMText
 10
1030.982269579459
 20
709.7235936366719
 30
0.0
 40
40.0
 41
0.0
 71
     5
 72
     1
  1
80
 73
     1
 44
1.0
  0
POINT
  5
1233
330
122A
100
AcDbEntity
  8
Defpoints
 62
     0
100
AcDbPoint
 10
1035.0
 20
839.0
 30
0.0
  0
POINT
  5
1234
330
122A
100
AcDbEntity
  8
Defpoints
 62
     0
100
AcDbPoint
 10
1115.0
 20
839.0
 30
0.0
  0
POINT
  5
1235
330
122A
100
AcDbEntity
  8
Defpoints
 62
     0
100
AcDbPoint
 10
1070.982269579459
 20
674.7235936366719
 30
0.0
  0
ENDBLK
  5
1236
330
122A
100
AcDbEntity
  8
0
100
AcDbBlockEnd
  0
BLOCK
  5
1238
330
1237
100
AcDbEntity
  8
0
100
AcDbBlockBegin
  2
*D47
 70
     1
 10
0.0
 20
0.0
 30
0.0
  3
*D47
  1

  0
LINE
  5
1239
330
1237
100
AcDbEntity
  8
DIM
 62
     0
370
    -2
100
AcDbLine
 10
1.243556529821411
 20
769.0
 30
0.0
 11
-32.05620619347439
 21
644.7235936366719
 31
0.0
  0
LINE
  5
123A
330
1237
100
AcDbEntity
  8
DIM
 62
     0
370
    -2
100
AcDbLine
 10
-78.7564434701786
 20
769.0
 30
0.0
 11
-112.0562061934744
 21
644.7235936366719
 31
0.0
  0
LINE
  5
123B
330
1237
100
AcDbEntity
  8
DIM
 62
     0
370
    -2
100
AcDbLine
 10
15.9822695794593
 20
674.7235936366719
 30
0.0
 11
55.9822695794593
 21
674.7235936366719
 31
0.0
  0
LINE
  5
123C
330
1237
100
AcDbEntity
  8
DIM
 62
     0
370
    -2
100
AcDbLine
 10
-144.0177304205407
 20
674.7235936366719
 30
0.0
 11
-184.0177304205407
 21
674.7235936366719
 31
0.0
  0
SOLID
  5
123D
330
1237
100
AcDbEntity
  8
DIM
 62
     0
100
AcDbTrace
 10
15.9822695794593
 20
681.3902603033385
 30
0.0
 11
15.9822695794593
 21
668.0569269700052
 31
0.0
 12
-24.0177304205407
 22
674.7235936366719
 32
0.0
 13
-24.0177304205407
 23
674.7235936366719
 33
0.0
  0
SOLID
  5
123E
330
1237
100
AcDbEntity
  8
DIM
 62
     0
100
AcDbTrace
 10
-144.0177304205407
 20
681.3902603033385
 30
0.0
 11
-144.0177304205407
 21
668.0569269700052
 31
0.0
 12
-104.0177304205407
 22
674.7235936366719
 32
0.0
 13
-104.0177304205407
 23
674.7235936366719
 33
0.0
  0
MTEXT
  5
123F
330
1237
100
AcDbEntity
  8
DIM
 62
     0
100
AcDbMText
 10
-64.0177304205407
 20
709.7235936366719
 30
0.0
 40
40.0
 41
0.0
 71
     5
 72
     1
  1
80
 73
     1
 44
1.0
  0
POINT
  5
1240
330
1237
100
AcDbEntity
  8
Defpoints
 62
     0
100
AcDbPoint
 10
20.0
 20
839.0
 30
0.0
  0
POINT
  5
1241
330
1237
100
AcDbEntity
  8
Defpoints
 62
     0
100
AcDbPoint
 10
-60.0
 20
839.0
 30
0.0
  0
POINT
  5
1242
330
1237
100
AcDbEntity
  8
Defpoints
 62
     0
100
AcDbPoint
 10
-104.0177304205407
 20
674.7235936366719
 30
0.0
  0
ENDBLK
  5
1243
330
1237
100
AcDbEntity
  8
0
100
AcDbBlockEnd
  0
BLOCK
  5
127F
330
1245
100
AcDbEntity
  8
0
100
AcDbBlockBegin
  2
A$C15FB3F57
 70
     0
 10
0.0
 20
0.0
 30
0.0
  3
A$C15FB3F57
  1

  0
LWPOLYLINE
  5
1246
330
1245
100
AcDbEntity
  8
DASHU
  6
DASHED
 48
0.15
100
AcDbPolyline
 90
        4
 70
     1
 43
0.0
 10
1369.000000320826
 20
579.00000113645
 10
1369.000000320826
 20
629.00000113645
 10
1379.000000320826
 20
629.00000113645
 10
1379.000000320826
 20
579.00000113645
  0
LWPOLYLINE
  5
1247
330
1245
100
AcDbEntity
  8
DASHU
  6
DASHED
 48
0.15
100
AcDbPolyline
 90
        4
 70
     1
 43
0.0
 10
1369.000000320826
 20
579.00000113645
 10
1369.000000320826
 20
629.00000113645
 10
1379.000000320826
 20
629.00000113645
 10
1379.000000320826
 20
579.00000113645
  0
LWPOLYLINE
  5
1248
330
1245
100
AcDbEntity
  8
DASHU
  6
DASHED
 48
0.15
100
AcDbPolyline
 90
        4
 70
     1
 43
0.0
 10
1369.000000320826
 20
579.00000113645
 10
1369.000000320826
 20
629.00000113645
 10
1379.000000320826
 20
629.00000113645
 10
1379.000000320826
 20
579.00000113645
  0
LWPOLYLINE
  5
1249
330
1245
100
AcDbEntity
  8
DASHU
  6
DASHED
 48
0.15
100
AcDbPolyline
 90
        4
 70
     1
 43
0.0
 10
669.000000320826
 20
579.00000113645
 10
669.000000320826
 20
629.00000113645
 10
679.0000003208261
 20
629.00000113645
 10
679.0000003208261
 20
579.00000113645
  0
LWPOLYLINE
  5
124A
330
1245
100
AcDbEntity
  8
DASHU
  6
DASHED
 48
0.15
100
AcDbPolyline
 90
        4
 70
     1
 43
0.0
 10
669.000000320826
 20
579.00000113645
 10
669.000000320826
 20
629.00000113645
 10
679.0000003208261
 20
629.00000113645
 10
679.0000003208261
 20
579.00000113645
  0
LWPOLYLINE
  5
124B
330
1245
100
AcDbEntity
  8
DASHU
  6
DASHED
 48
0.15
100
AcDbPolyline
 90
        4
 70
     1
 43
0.0
 10
669.000000320826
 20
579.00000113645
 10
669.000000320826
 20
629.00000113645
 10
679.0000003208261
 20
629.00000113645
 10
679.0000003208261
 20
579.00000113645
  0
LINE
  5
124C
330
1245
100
AcDbEntity
  8
DASHED
 48
0.15
100
AcDbLine
 10
1530.572826422384
 20
1223.00000113645
 30
0.0
 11
1560.572826422384
 21
1223.00000113645
 31
0.0
  0
LINE
  5
124D
330
1245
100
AcDbEntity
  8
DASHED
 48
0.15
100
AcDbLine
 10
1530.572826422384
 20
1235.00000113645
 30
0.0
 11
1560.572826422384
 21
1235.00000113645
 31
0.0
  0
LINE
  5
124E
330
1245
100
AcDbEntity
  8
DASHED
 48
0.15
100
AcDbLine
 10
1560.572826422384
 20
1235.00000113645
 30
0.0
 11
1560.572826422384
 21
1223.00000113645
 31
0.0
  0
LINE
  5
124F
330
1245
100
AcDbEntity
  8
DASHED
 48
0.15
100
AcDbLine
 10
1611.500000320826
 20
1139.00000113645
 30
0.0
 11
1591.500000320826
 21
1109.00000113645
 31
0.0
  0
LINE
  5
1250
330
1245
100
AcDbEntity
  8
DASHED
 48
0.15
100
AcDbLine
 10
1591.500000320826
 20
659.00000113645
 30
0.0
 11
1611.500000320826
 21
629.00000113645
 31
0.0
  0
LINE
  5
1251
330
1245
100
AcDbEntity
  8
DASHED
 48
0.15
100
AcDbLine
 10
1524.000000320826
 20
609.00000113645
 30
0.0
 11
1531.500000320826
 21
1329.00000113645
 31
0.0
  0
LINE
  5
1252
330
1245
100
AcDbEntity
  8
DASHED
 48
0.15
100
AcDbLine
 10
1591.500000320826
 20
659.00000113645
 30
0.0
 11
1591.500000320826
 21
1109.00000113645
 31
0.0
  0
LWPOLYLINE
  5
1253
330
1245
100
AcDbEntity
  8
LAYER
 48
5.0
100
AcDbPolyline
 90
        6
 70
   129
 43
0.0
 10
436.500000320826
 20
478.0000011364499
 10
436.500000320826
 20
1329.00000113645
 10
1611.500000320826
 20
1329.00000113645
 10
1611.500000320826
 20
478.0000011364499
 10
1602.500000320826
 20
469.0000011364499
 10
445.5000003208261
 20
469.0000011364499
  0
LINE
  5
1254
330
1245
100
AcDbEntity
  8
DASHED
 48
0.15
100
AcDbLine
 10
1494.000000320826
 20
579.00000113645
 30
0.0
 11
1524.000000320826
 21
609.00000113645
 31
0.0
  0
LINE
  5
1255
330
1245
100
AcDbEntity
  8
DASHED
 48
0.15
100
AcDbLine
 10
1134.000000320826
 20
579.00000113645
 30
0.0
 11
1124.000000320826
 21
559.00000113645
 31
0.0
  0
LINE
  5
1256
330
1245
100
AcDbEntity
  8
DASHED
 48
0.15
100
AcDbLine
 10
924.000000320826
 20
559.00000113645
 30
0.0
 11
914.000000320826
 21
579.00000113645
 31
0.0
  0
LINE
  5
1257
330
1245
100
AcDbEntity
  8
DASHED
 48
0.15
100
AcDbLine
 10
1124.000000320826
 20
559.00000113645
 30
0.0
 11
924.000000320826
 21
559.00000113645
 31
0.0
  0
LINE
  5
1258
330
1245
100
AcDbEntity
  8
DASHED
 48
0.15
100
AcDbLine
 10
554.0000003208261
 20
579.00000113645
 30
0.0
 11
914.000000320826
 21
579.00000113645
 31
0.0
  0
LINE
  5
1259
330
1245
100
AcDbEntity
  8
DASHED
 48
0.15
100
AcDbLine
 10
1134.000000320826
 20
579.00000113645
 30
0.0
 11
1494.000000320826
 21
579.00000113645
 31
0.0
  0
LINE
  5
125A
330
1245
100
AcDbEntity
  8
LAYER
 48
5.0
100
AcDbLine
 10
1374.000000320826
 20
1109.00000113645
 30
0.0
 11
1404.000000320826
 21
1139.00000113645
 31
0.0
  0
LINE
  5
125B
330
1245
100
AcDbEntity
  8
LAYER
 48
5.0
100
AcDbLine
 10
1374.000000320826
 20
659.00000113645
 30
0.0
 11
1404.000000320826
 21
629.00000113645
 31
0.0
  0
LINE
  5
125C
330
1245
100
AcDbEntity
  8
LAYER
 48
5.0
100
AcDbLine
 10
644.000000320826
 20
1139.00000113645
 30
0.0
 11
674.000000320826
 21
1109.00000113645
 31
0.0
  0
LINE
  5
125D
330
1245
100
AcDbEntity
  8
LAYER
 48
5.0
100
AcDbLine
 10
644.000000320826
 20
629.00000113645
 30
0.0
 11
674.000000320826
 21
659.00000113645
 31
0.0
  0
LWPOLYLINE
  5
125E
330
1245
100
AcDbEntity
  8
LAYER
 48
5.0
100
AcDbPolyline
 90
        4
 70
   129
 43
0.0
 10
674.000000320826
 20
659.00000113645
 10
674.000000320826
 20
1109.00000113645
 10
1374.000000320826
 20
1109.00000113645
 10
1374.000000320826
 20
659.00000113645
  0
LWPOLYLINE
  5
125F
330
1245
100
AcDbEntity
  8
LAYER
 48
5.0
100
AcDbPolyline
 90
        4
 70
   129
 43
0.0
 10
644.000000320826
 20
629.00000113645
 10
644.000000320826
 20
1139.00000113645
 10
1404.000000320826
 20
1139.00000113645
 10
1404.000000320826
 20
629.00000113645
  0
LINE
  5
1260
330
1245
100
AcDbEntity
  8
DASHED
 48
0.15
100
AcDbLine
 10
487.402517805308
 20
1235.00000113645
 30
0.0
 11
487.402517805308
 21
1223.00000113645
 31
0.0
  0
LINE
  5
1261
330
1245
100
AcDbEntity
  8
DASHED
 48
0.15
100
AcDbLine
 10
517.402517805308
 20
1235.00000113645
 30
0.0
 11
487.402517805308
 21
1235.00000113645
 31
0.0
  0
LINE
  5
1262
330
1245
100
AcDbEntity
  8
DASHED
 48
0.15
100
AcDbLine
 10
517.402517805308
 20
1223.00000113645
 30
0.0
 11
487.402517805308
 21
1223.00000113645
 31
0.0
  0
LINE
  5
1263
330
1245
100
AcDbEntity
  8
DASHED
 48
0.15
100
AcDbLine
 10
436.500000320826
 20
1139.00000113645
 30
0.0
 11
456.500000320826
 21
1109.00000113645
 31
0.0
  0
LINE
  5
1264
330
1245
100
AcDbEntity
  8
DASHED
 48
0.15
100
AcDbLine
 10
524.000000320826
 20
609.00000113645
 30
0.0
 11
554.0000003208261
 21
579.00000113645
 31
0.0
  0
LINE
  5
1265
330
1245
100
AcDbEntity
  8
DASHED
 48
0.15
100
AcDbLine
 10
456.500000320826
 20
659.00000113645
 30
0.0
 11
436.500000320826
 21
629.00000113645
 31
0.0
  0
LINE
  5
1266
330
1245
100
AcDbEntity
  8
DASHED
 48
0.15
100
AcDbLine
 10
516.5000003208261
 20
1329.00000113645
 30
0.0
 11
524.000000320826
 21
609.00000113645
 31
0.0
  0
LINE
  5
1267
330
1245
100
AcDbEntity
  8
DASHED
 48
0.15
100
AcDbLine
 10
456.500000320826
 20
659.00000113645
 30
0.0
 11
456.500000320826
 21
1109.00000113645
 31
0.0
  0
DIMENSION
  5
1268
330
1245
100
AcDbEntity
  8
DIM
100
AcDbDimension
  2
*D47
 10
392.4822699002854
 20
1164.723594773122
 30
0.0
 11
432.4822699002853
 21
1199.723594773122
 31
0.0
 12
496.5000003208261
 22
490.0000011364499
 32
0.0
 71
     5
 42
80.0
  3
Standerd
100
AcDbAlignedDimension
 13
516.5000003208261
 23
1329.00000113645
 33
0.0
 14
436.500000320826
 24
1329.00000113645
 34
0.0
100
AcDbRotatedDimension
  0
DIMENSION
  5
1269
330
1245
100
AcDbEntity
  8
DIM
100
AcDbDimension
  2
*D46
 10
1567.482269900285
 20
1164.723594773122
 30
0.0
 11
1527.482269900285
 21
1199.723594773122
 31
0.0
 12
496.5000003208261
 22
490.0000011364499
 32
0.0
 71
     5
 42
80.0
  3
Standerd
100
AcDbAlignedDimension
 13
1531.500000320826
 23
1329.00000113645
 33
0.0
 14
1611.500000320826
 24
1329.00000113645
 34
0.0
100
AcDbRotatedDimension
  0
DIMENSION
  5
126A
330
1245
100
AcDbEntity
  8
DIM
100
AcDbDimension
  2
*D45
 10
472.4822699002853
 20
1164.723594773122
 30
0.0
 11
979.9822699002854
 21
1199.723594773122
 31
0.0
 12
496.5000003208261
 22
490.0000011364499
 32
0.0
 71
     5
 42
1015.0
  3
Standerd
100
AcDbAlignedDimension
 13
1531.500000320826
 23
1329.00000113645
 33
0.0
 14
516.5000003208261
 24
1329.00000113645
 34
0.0
100
AcDbRotatedDimension
  0
DIMENSION
  5
126B
330
1245
100
AcDbEntity
  8
DIM
100
AcDbDimension
  2
*D44
 10
1611.500000320826
 20
30.00000113645001
 30
0.0
 11
1024.000000320826
 21
65.00000113645
 31
0.0
 12
496.5000003208261
 22
490.0000011364499
 32
0.0
 71
     5
 42
1175.0
  3
Standerd
100
AcDbAlignedDimension
 13
436.500000320826
 23
478.0000011364499
 33
0.0
 14
1611.500000320826
 24
478.0000011364499
 34
0.0
100
AcDbRotatedDimension
  0
DIMENSION
  5
126C
330
1245
100
AcDbEntity
  8
DIM
100
AcDbDimension
  2
*D43
 10
1524.000000320826
 20
180.00000113645
 30
0.0
 11
1024.000000320826
 21
215.00000113645
 31
0.0
 12
496.5000003208261
 22
490.0000011364499
 32
0.0
 71
     5
 42
1000.0
  3
Standerd
100
AcDbAlignedDimension
 13
524.000000320826
 23
609.00000113645
 33
0.0
 14
1524.000000320826
 24
609.00000113645
 34
0.0
100
AcDbRotatedDimension
  0
DIMENSION
  5
126D
330
1245
100
AcDbEntity
  8
DIM
100
AcDbDimension
  2
*D42
 10
1374.000000320826
 20
330.00000113645
 30
0.0
 11
1024.000000320826
 21
365.00000113645
 31
0.0
 12
496.5000003208261
 22
490.0000011364499
 32
0.0
 71
     5
 42
700.0
  3
Standerd
100
AcDbAlignedDimension
 13
674.000000320826
 23
659.00000113645
 33
0.0
 14
1374.000000320826
 24
659.00000113645
 34
0.0
100
AcDbRotatedDimension
  0
TEXT
  5
126E
330
1245
100
AcDbEntity
  8
TXT
100
AcDbText
 10
-13.49999967917392
 20
1250.00000113645
 30
0.0
 40
60.0
  1
B1-750
 41
1.5
100
AcDbText
  0
DIMENSION
  5
126F
330
1245
100
AcDbEntity
  8
DIM
100
AcDbDimension
  2
*D41
 10
1761.500000320826
 20
659.00000113645
 30
0.0
 11
1761.500000320826
 21
570.1010595897119
 31
0.0
 12
496.5000003208261
 22
490.0000011364499
 32
0.0
 70
   128
 71
     5
 42
190.0
  3
Standerd
100
AcDbAlignedDimension
 13
1602.500000320826
 23
469.0000011364499
 33
0.0
 14
1591.500000320826
 24
659.00000113645
 34
0.0
 50
90.0
100
AcDbRotatedDimension
  0
DIMENSION
  5
1270
330
1245
100
AcDbEntity
  8
DIM
100
AcDbDimension
  2
*D40
 10
2061.500000320826
 20
1329.00000113645
 30
0.0
 11
2026.500000320826
 21
899.00000113645
 31
0.0
 12
496.5000003208261
 22
490.0000011364499
 32
0.0
 71
     5
 42
860.0
  3
Standerd
100
AcDbAlignedDimension
 13
1602.500000320826
 23
469.0000011364499
 33
0.0
 14
1611.500000320826
 24
1329.00000113645
 34
0.0
 50
90.0
100
AcDbRotatedDimension
  0
DIMENSION
  5
1271
330
1245
100
AcDbEntity
  8
DIM
100
AcDbDimension
  2
*D39
 10
1911.500000320826
 20
469.0000011364499
 30
0.0
 11
1876.500000320826
 21
524.0000011364501
 31
0.0
 12
496.5000003208261
 22
490.0000011364499
 32
0.0
 71
     5
 42
110.0
  3
Standerd
100
AcDbAlignedDimension
 13
1494.500000320826
 23
579.00000113645
 33
0.0
 14
1602.500000320826
 24
469.0000011364499
 34
0.0
 50
90.0
100
AcDbRotatedDimension
  0
DIMENSION
  5
1272
330
1245
100
AcDbEntity
  8
DIM
100
AcDbDimension
  2
*D38
 10
1911.500000320826
 20
579.0000011364498
 30
0.0
 11
1876.500000320826
 21
954.0000011364503
 31
0.0
 12
496.5000003208261
 22
490.0000011364499
 32
0.0
 71
     5
 42
750.0
  3
Standerd
100
AcDbAlignedDimension
 13
1611.500000320826
 23
1329.00000113645
 33
0.0
 14
1494.500000320826
 24
579.00000113645
 34
0.0
 50
90.0
100
AcDbRotatedDimension
  0
DIMENSION
  5
1273
330
1245
100
AcDbEntity
  8
DIM
100
AcDbDimension
  2
*D37
 10
1761.500000320826
 20
659.00000113645
 30
0.0
 11
1726.500000320825
 21
884.0000011364502
 31
0.0
 12
496.5000003208261
 22
490.0000011364499
 32
0.0
 71
     5
 42
450.0
  3
Standerd
100
AcDbAlignedDimension
 13
1591.500000320826
 23
1109.00000113645
 33
0.0
 14
1591.500000320826
 24
659.00000113645
 34
0.0
 50
90.0
100
AcDbRotatedDimension
  0
DIMENSION
  5
1274
330
1245
100
AcDbEntity
  8
DIM
100
AcDbDimension
  2
*D36
 10
1761.500000320826
 20
1329.00000113645
 30
0.0
 11
1726.496063312952
 21
1219.00000113645
 31
0.0
 12
496.5000003208261
 22
490.0000011364499
 32
0.0
 71
     5
 42
220.0
  3
Standerd
100
AcDbAlignedDimension
 13
1591.500000320826
 23
1109.00000113645
 33
0.0
 14
1611.500000320826
 24
1329.00000113645
 34
0.0
 50
90.0
100
AcDbRotatedDimension
  0
LINE
  5
1275
330
1245
100
AcDbEntity
  8
DASHED
 48
0.15
100
AcDbLine
 10
824.000000320826
 20
1209.00000113645
 30
0.0
 11
824.000000320826
 21
1249.00000113645
 31
0.0
  0
MTEXT
  5
1276
102
{ACAD_REACTORS
330
1277
102
}
330
1245
100
AcDbEntity
  8
TXT
100
AcDbMText
 10
908.4308844366315
 20
1401.826704898933
 30
0.0
 40
40.0
 41
0.0
 71
     1
 72
     1
  1
M12ｲﾝｻｰﾄ
 73
     1
 44
1.0
  0
LEADER
  5
1277
330
1245
100
AcDbEntity
  8
TXT
100
AcDbLeader
  3
Standerd1
 73
     0
 74
     0
 75
     1
 40
40.00787401574803
 41
190.0
 76
     3
 10
824.000000320826
 20
1237.00000113645
 30
0.0
 10
893.2508844366315
 20
1381.826704898934
 30
0.0
 10
893.4308844366315
 20
1381.826704898934
 30
0.0
340
1276
213
0.0
223
-20.0
233
0.0
1001
ACAD
1000
DSTYLE
1002
{
1070
   147
1040
15.0
1070
    77
1070
     0
1002
}
  0
LINE
  5
1278
330
1245
100
AcDbEntity
  8
DASHED
 48
0.15
100
AcDbLine
 10
804.0000003208261
 20
1229.00000113645
 30
0.0
 11
844.0000003208261
 21
1229.00000113645
 31
0.0
  0
CIRCLE
  5
1279
330
1245
100
AcDbEntity
  8
DASHED
 48
0.15
100
AcDbCircle
 10
824.000000320826
 20
1229.00000113645
 30
0.0
 40
8.0
  0
LINE
  5
127A
330
1245
100
AcDbEntity
  8
DASHED
 48
0.15
100
AcDbLine
 10
1224.000000320826
 20
1209.00000113645
 30
0.0
 11
1224.000000320826
 21
1249.00000113645
 31
0.0
  0
LINE
  5
127B
330
1245
100
AcDbEntity
  8
DASHED
 48
0.15
100
AcDbLine
 10
1204.000000320826
 20
1229.00000113645
 30
0.0
 11
1244.000000320826
 21
1229.00000113645
 31
0.0
  0
CIRCLE
  5
127C
330
1245
100
AcDbEntity
  8
DASHED
 48
0.15
100
AcDbCircle
 10
1224.000000320826
 20
1229.00000113645
 30
0.0
 40
8.0
  0
LEADER
  5
127D
330
1245
100
AcDbEntity
  8
TXT
100
AcDbLeader
  3
Standerd1
 73
     0
 74
     0
 75
     1
 40
40.00000000000001
 41
456.7830808016392
 76
     3
 10
1379.000000320826
 20
604.00000113645
 30
0.0
 10
1745.013382163683
 20
275.4607871403373
 30
0.0
 10
1745.193382163683
 20
275.4607871403373
 30
0.0
340
127E
213
0.0
223
-20.0
233
0.0
1001
ACAD
1000
DSTYLE
1002
{
1070
   147
1040
15.0
1070
    77
1070
     0
1002
}
  0
MTEXT
  5
127E
102
{ACAD_REACTORS
330
127D
102
}
330
1245
100
AcDbEntity
  8
TXT
100
AcDbMText
 10
1760.193382163683
 20
295.4607871403373
 30
0.0
 40
40.0
 41
0.0
 71
     1
 72
     1
  1
吊りﾌｯｸ引込用ﾌｯｸ兼用
 73
     1
 44
1.0
  0
ENDBLK
  5
1280
330
1245
100
AcDbEntity
  8
0
100
AcDbBlockEnd
  0
BLOCK
  5
12C6
330
12BB
100
AcDbEntity
  8
0
100
AcDbBlockBegin
  2
*D49
 70
     1
 10
0.0
 20
0.0
 30
0.0
  3
*D49
  1

  0
LINE
  5
1668
330
12BB
100
AcDbEntity
  8
DIM
 62
     0
370
    -2
100
AcDbLine
 10
6298.494423746633
 20
4153.459624601273
 30
0.0
 11
6265.194661023337
 21
4029.183218237945
 31
0.0
  0
LINE
  5
1669
330
12BB
100
AcDbEntity
  8
DIM
 62
     0
370
    -2
100
AcDbLine
 10
6218.494423746633
 20
4153.459624601273
 30
0.0
 11
6185.194661023338
 21
4029.183218237945
 31
0.0
  0
LINE
  5
166A
330
12BB
100
AcDbEntity
  8
DIM
 62
     0
370
    -2
100
AcDbLine
 10
6313.23313679627
 20
4059.183218237945
 30
0.0
 11
6353.23313679627
 21
4059.183218237945
 31
0.0
  0
LINE
  5
166B
330
12BB
100
AcDbEntity
  8
DIM
 62
     0
370
    -2
100
AcDbLine
 10
6153.23313679627
 20
4059.183218237945
 30
0.0
 11
6113.233136796271
 21
4059.183218237945
 31
0.0
  0
SOLID
  5
166C
330
12BB
100
AcDbEntity
  8
DIM
 62
     0
100
AcDbTrace
 10
6313.23313679627
 20
4065.849884904611
 30
0.0
 11
6313.23313679627
 21
4052.516551571279
 31
0.0
 12
6273.233136796271
 22
4059.183218237945
 32
0.0
 13
6273.233136796271
 23
4059.183218237945
 33
0.0
  0
SOLID
  5
166D
330
12BB
100
AcDbEntity
  8
DIM
 62
     0
100
AcDbTrace
 10
6153.23313679627
 20
4065.849884904611
 30
0.0
 11
6153.23313679627
 21
4052.516551571279
 31
0.0
 12
6193.233136796271
 22
4059.183218237945
 32
0.0
 13
6193.233136796271
 23
4059.183218237945
 33
0.0
  0
MTEXT
  5
166E
330
12BB
100
AcDbEntity
  8
DIM
 62
     0
100
AcDbMText
 10
6233.233136796271
 20
4094.183218237946
 30
0.0
 40
40.0
 41
0.0
 71
     5
 72
     1
  1
80
 73
     1
 44
1.0
  0
POINT
  5
166F
330
12BB
100
AcDbEntity
  8
Defpoints
 62
     0
100
AcDbPoint
 10
6317.250867216811
 20
4223.459624601273
 30
0.0
  0
POINT
  5
1670
330
12BB
100
AcDbEntity
  8
Defpoints
 62
     0
100
AcDbPoint
 10
6237.250867216811
 20
4223.459624601273
 30
0.0
  0
POINT
  5
1671
330
12BB
100
AcDbEntity
  8
Defpoints
 62
     0
100
AcDbPoint
 10
6193.233136796271
 20
4059.183218237945
 30
0.0
  0
ENDBLK
  5
12C7
330
12BB
100
AcDbEntity
  8
0
100
AcDbBlockEnd
  0
BLOCK
  5
12D3
330
12C8
100
AcDbEntity
  8
0
100
AcDbBlockBegin
  2
*D50
 70
     1
 10
0.0
 20
0.0
 30
0.0
  3
*D50
  1

  0
LINE
  5
165E
330
12C8
100
AcDbEntity
  8
DIM
 62
     0
370
    -2
100
AcDbLine
 10
7313.494423746632
 20
4153.459624601273
 30
0.0
 11
7280.194661023337
 21
4029.183218237945
 31
0.0
  0
LINE
  5
165F
330
12C8
100
AcDbEntity
  8
DIM
 62
     0
370
    -2
100
AcDbLine
 10
7393.494423746632
 20
4153.459624601273
 30
0.0
 11
7360.194661023337
 21
4029.183218237945
 31
0.0
  0
LINE
  5
1660
330
12C8
100
AcDbEntity
  8
DIM
 62
     0
370
    -2
100
AcDbLine
 10
7248.233136796272
 20
4059.183218237945
 30
0.0
 11
7208.233136796271
 21
4059.183218237945
 31
0.0
  0
LINE
  5
1661
330
12C8
100
AcDbEntity
  8
DIM
 62
     0
370
    -2
100
AcDbLine
 10
7408.233136796271
 20
4059.183218237945
 30
0.0
 11
7448.233136796272
 21
4059.183218237945
 31
0.0
  0
SOLID
  5
1662
330
12C8
100
AcDbEntity
  8
DIM
 62
     0
100
AcDbTrace
 10
7248.233136796272
 20
4065.849884904611
 30
0.0
 11
7248.233136796272
 21
4052.516551571279
 31
0.0
 12
7288.233136796271
 22
4059.183218237945
 32
0.0
 13
7288.233136796271
 23
4059.183218237945
 33
0.0
  0
SOLID
  5
1663
330
12C8
100
AcDbEntity
  8
DIM
 62
     0
100
AcDbTrace
 10
7408.233136796271
 20
4065.849884904611
 30
0.0
 11
7408.233136796271
 21
4052.516551571279
 31
0.0
 12
7368.23313679627
 22
4059.183218237945
 32
0.0
 13
7368.23313679627
 23
4059.183218237945
 33
0.0
  0
MTEXT
  5
1664
330
12C8
100
AcDbEntity
  8
DIM
 62
     0
100
AcDbMText
 10
7328.233136796271
 20
4094.183218237946
 30
0.0
 40
40.0
 41
0.0
 71
     5
 72
     1
  1
80
 73
     1
 44
1.0
  0
POINT
  5
1665
330
12C8
100
AcDbEntity
  8
Defpoints
 62
     0
100
AcDbPoint
 10
7332.250867216811
 20
4223.459624601273
 30
0.0
  0
POINT
  5
1666
330
12C8
100
AcDbEntity
  8
Defpoints
 62
     0
100
AcDbPoint
 10
7412.250867216811
 20
4223.459624601273
 30
0.0
  0
POINT
  5
1667
330
12C8
100
AcDbEntity
  8
Defpoints
 62
     0
100
AcDbPoint
 10
7368.23313679627
 20
4059.183218237945
 30
0.0
  0
ENDBLK
  5
12D4
330
12C8
100
AcDbEntity
  8
0
100
AcDbBlockEnd
  0
BLOCK
  5
12DF
330
12D5
100
AcDbEntity
  8
0
100
AcDbBlockBegin
  2
*D51
 70
     1
 10
0.0
 20
0.0
 30
0.0
  3
*D51
  1

  0
LINE
  5
1655
330
12D5
100
AcDbEntity
  8
DIM
 62
     0
370
    -2
100
AcDbLine
 10
7313.494423746632
 20
4153.459624601273
 30
0.0
 11
7280.194661023337
 21
4029.183218237945
 31
0.0
  0
LINE
  5
1656
330
12D5
100
AcDbEntity
  8
DIM
 62
     0
370
    -2
100
AcDbLine
 10
6298.494423746633
 20
4153.459624601273
 30
0.0
 11
6265.194661023337
 21
4029.183218237945
 31
0.0
  0
LINE
  5
1657
330
12D5
100
AcDbEntity
  8
DIM
 62
     0
370
    -2
100
AcDbLine
 10
7248.233136796272
 20
4059.183218237945
 30
0.0
 11
6313.23313679627
 21
4059.183218237945
 31
0.0
  0
SOLID
  5
1658
330
12D5
100
AcDbEntity
  8
DIM
 62
     0
100
AcDbTrace
 10
7248.233136796272
 20
4065.849884904611
 30
0.0
 11
7248.233136796272
 21
4052.516551571279
 31
0.0
 12
7288.233136796271
 22
4059.183218237945
 32
0.0
 13
7288.233136796271
 23
4059.183218237945
 33
0.0
  0
SOLID
  5
1659
330
12D5
100
AcDbEntity
  8
DIM
 62
     0
100
AcDbTrace
 10
6313.23313679627
 20
4065.849884904611
 30
0.0
 11
6313.23313679627
 21
4052.516551571279
 31
0.0
 12
6273.233136796271
 22
4059.183218237945
 32
0.0
 13
6273.233136796271
 23
4059.183218237945
 33
0.0
  0
MTEXT
  5
165A
330
12D5
100
AcDbEntity
  8
DIM
 62
     0
100
AcDbMText
 10
6780.73313679627
 20
4094.183218237946
 30
0.0
 40
40.0
 41
0.0
 71
     5
 72
     1
  1
1015
 73
     1
 44
1.0
  0
POINT
  5
165B
330
12D5
100
AcDbEntity
  8
Defpoints
 62
     0
100
AcDbPoint
 10
7332.250867216811
 20
4223.459624601273
 30
0.0
  0
POINT
  5
165C
330
12D5
100
AcDbEntity
  8
Defpoints
 62
     0
100
AcDbPoint
 10
6317.250867216811
 20
4223.459624601273
 30
0.0
  0
POINT
  5
165D
330
12D5
100
AcDbEntity
  8
Defpoints
 62
     0
100
AcDbPoint
 10
6273.233136796271
 20
4059.183218237945
 30
0.0
  0
ENDBLK
  5
12E0
330
12D5
100
AcDbEntity
  8
0
100
AcDbBlockEnd
  0
BLOCK
  5
12EB
330
12E1
100
AcDbEntity
  8
0
100
AcDbBlockBegin
  2
*D52
 70
     1
 10
0.0
 20
0.0
 30
0.0
  3
*D52
  1

  0
LINE
  5
164C
330
12E1
100
AcDbEntity
  8
DIM
 62
     0
370
    -2
100
AcDbLine
 10
6237.250867216811
 20
3302.459624601274
 30
0.0
 11
6237.250867216811
 21
2894.459624601274
 31
0.0
  0
LINE
  5
164D
330
12E1
100
AcDbEntity
  8
DIM
 62
     0
370
    -2
100
AcDbLine
 10
7412.250867216811
 20
3302.459624601274
 30
0.0
 11
7412.250867216811
 21
2894.459624601274
 31
0.0
  0
LINE
  5
164E
330
12E1
100
AcDbEntity
  8
DIM
 62
     0
370
    -2
100
AcDbLine
 10
6277.250867216811
 20
2924.459624601274
 30
0.0
 11
7372.250867216812
 21
2924.459624601274
 31
0.0
  0
SOLID
  5
164F
330
12E1
100
AcDbEntity
  8
DIM
 62
     0
100
AcDbTrace
 10
6277.250867216811
 20
2931.12629126794
 30
0.0
 11
6277.250867216811
 21
2917.792957934607
 31
0.0
 12
6237.250867216811
 22
2924.459624601274
 32
0.0
 13
6237.250867216811
 23
2924.459624601274
 33
0.0
  0
SOLID
  5
1650
330
12E1
100
AcDbEntity
  8
DIM
 62
     0
100
AcDbTrace
 10
7372.250867216812
 20
2931.12629126794
 30
0.0
 11
7372.250867216812
 21
2917.792957934607
 31
0.0
 12
7412.250867216811
 22
2924.459624601274
 32
0.0
 13
7412.250867216811
 23
2924.459624601274
 33
0.0
  0
MTEXT
  5
1651
330
12E1
100
AcDbEntity
  8
DIM
 62
     0
100
AcDbMText
 10
6824.750867216811
 20
2959.459624601274
 30
0.0
 40
40.0
 41
0.0
 71
     5
 72
     1
  1
1175
 73
     1
 44
1.0
  0
POINT
  5
1652
330
12E1
100
AcDbEntity
  8
Defpoints
 62
     0
100
AcDbPoint
 10
6237.250867216811
 20
3372.459624601274
 30
0.0
  0
POINT
  5
1653
330
12E1
100
AcDbEntity
  8
Defpoints
 62
     0
100
AcDbPoint
 10
7412.250867216811
 20
3372.459624601274
 30
0.0
  0
POINT
  5
1654
330
12E1
100
AcDbEntity
  8
Defpoints
 62
     0
100
AcDbPoint
 10
7412.250867216811
 20
2924.459624601274
 30
0.0
  0
ENDBLK
  5
12EC
330
12E1
100
AcDbEntity
  8
0
100
AcDbBlockEnd
  0
BLOCK
  5
12F7
330
12ED
100
AcDbEntity
  8
0
100
AcDbBlockBegin
  2
*D53
 70
     1
 10
0.0
 20
0.0
 30
0.0
  3
*D53
  1

  0
LINE
  5
1643
330
12ED
100
AcDbEntity
  8
DIM
 62
     0
370
    -2
100
AcDbLine
 10
6324.750867216812
 20
3433.459624601274
 30
0.0
 11
6324.750867216812
 21
3044.459624601274
 31
0.0
  0
LINE
  5
1644
330
12ED
100
AcDbEntity
  8
DIM
 62
     0
370
    -2
100
AcDbLine
 10
7324.750867216811
 20
3433.459624601274
 30
0.0
 11
7324.750867216811
 21
3044.459624601274
 31
0.0
  0
LINE
  5
1645
330
12ED
100
AcDbEntity
  8
DIM
 62
     0
370
    -2
100
AcDbLine
 10
6364.750867216812
 20
3074.459624601273
 30
0.0
 11
7284.750867216811
 21
3074.459624601273
 31
0.0
  0
SOLID
  5
1646
330
12ED
100
AcDbEntity
  8
DIM
 62
     0
100
AcDbTrace
 10
6364.750867216812
 20
3081.12629126794
 30
0.0
 11
6364.750867216812
 21
3067.792957934607
 31
0.0
 12
6324.750867216812
 22
3074.459624601273
 32
0.0
 13
6324.750867216812
 23
3074.459624601273
 33
0.0
  0
SOLID
  5
1647
330
12ED
100
AcDbEntity
  8
DIM
 62
     0
100
AcDbTrace
 10
7284.750867216811
 20
3081.12629126794
 30
0.0
 11
7284.750867216811
 21
3067.792957934607
 31
0.0
 12
7324.750867216811
 22
3074.459624601273
 32
0.0
 13
7324.750867216811
 23
3074.459624601273
 33
0.0
  0
MTEXT
  5
1648
330
12ED
100
AcDbEntity
  8
DIM
 62
     0
100
AcDbMText
 10
6824.750867216811
 20
3109.459624601274
 30
0.0
 40
40.0
 41
0.0
 71
     5
 72
     1
  1
1000
 73
     1
 44
1.0
  0
POINT
  5
1649
330
12ED
100
AcDbEntity
  8
Defpoints
 62
     0
100
AcDbPoint
 10
6324.750867216812
 20
3503.459624601273
 30
0.0
  0
POINT
  5
164A
330
12ED
100
AcDbEntity
  8
Defpoints
 62
     0
100
AcDbPoint
 10
7324.750867216811
 20
3503.459624601273
 30
0.0
  0
POINT
  5
164B
330
12ED
100
AcDbEntity
  8
Defpoints
 62
     0
100
AcDbPoint
 10
7324.750867216811
 20
3074.459624601273
 30
0.0
  0
ENDBLK
  5
12F8
330
12ED
100
AcDbEntity
  8
0
100
AcDbBlockEnd
  0
BLOCK
  5
1303
330
12F9
100
AcDbEntity
  8
0
100
AcDbBlockBegin
  2
*D54
 70
     1
 10
0.0
 20
0.0
 30
0.0
  3
*D54
  1

  0
LINE
  5
163A
330
12F9
100
AcDbEntity
  8
DIM
 62
     0
370
    -2
100
AcDbLine
 10
6474.750867216811
 20
3483.459624601274
 30
0.0
 11
6474.750867216811
 21
3194.459624601274
 31
0.0
  0
LINE
  5
163B
330
12F9
100
AcDbEntity
  8
DIM
 62
     0
370
    -2
100
AcDbLine
 10
7174.750867216811
 20
3483.459624601274
 30
0.0
 11
7174.750867216811
 21
3194.459624601274
 31
0.0
  0
LINE
  5
163C
330
12F9
100
AcDbEntity
  8
DIM
 62
     0
370
    -2
100
AcDbLine
 10
6514.750867216811
 20
3224.459624601273
 30
0.0
 11
7134.750867216812
 21
3224.459624601273
 31
0.0
  0
SOLID
  5
163D
330
12F9
100
AcDbEntity
  8
DIM
 62
     0
100
AcDbTrace
 10
6514.750867216811
 20
3231.12629126794
 30
0.0
 11
6514.750867216811
 21
3217.792957934607
 31
0.0
 12
6474.750867216811
 22
3224.459624601273
 32
0.0
 13
6474.750867216811
 23
3224.459624601273
 33
0.0
  0
SOLID
  5
163E
330
12F9
100
AcDbEntity
  8
DIM
 62
     0
100
AcDbTrace
 10
7134.750867216812
 20
3231.12629126794
 30
0.0
 11
7134.750867216812
 21
3217.792957934607
 31
0.0
 12
7174.750867216811
 22
3224.459624601273
 32
0.0
 13
7174.750867216811
 23
3224.459624601273
 33
0.0
  0
MTEXT
  5
163F
330
12F9
100
AcDbEntity
  8
DIM
 62
     0
100
AcDbMText
 10
6824.750867216811
 20
3259.459624601273
 30
0.0
 40
40.0
 41
0.0
 71
     5
 72
     1
  1
700
 73
     1
 44
1.0
  0
POINT
  5
1640
330
12F9
100
AcDbEntity
  8
Defpoints
 62
     0
100
AcDbPoint
 10
6474.750867216811
 20
3553.459624601273
 30
0.0
  0
POINT
  5
1641
330
12F9
100
AcDbEntity
  8
Defpoints
 62
     0
100
AcDbPoint
 10
7174.750867216811
 20
3553.459624601273
 30
0.0
  0
POINT
  5
1642
330
12F9
100
AcDbEntity
  8
Defpoints
 62
     0
100
AcDbPoint
 10
7174.750867216811
 20
3224.459624601273
 30
0.0
  0
ENDBLK
  5
1304
330
12F9
100
AcDbEntity
  8
0
100
AcDbBlockEnd
  0
BLOCK
  5
130F
330
1305
100
AcDbEntity
  8
0
100
AcDbBlockBegin
  2
*D55
 70
     1
 10
0.0
 20
0.0
 30
0.0
  3
*D55
  1

  0
LINE
  5
1631
330
1305
100
AcDbEntity
  8
DIM
 62
     0
370
    -2
100
AcDbLine
 10
7473.250867216812
 20
3363.459624601274
 30
0.0
 11
7592.250867216812
 21
3363.459624601274
 31
0.0
  0
LINE
  5
1632
330
1305
100
AcDbEntity
  8
DIM
 62
     0
370
    -2
100
AcDbLine
 10
7462.250867216811
 20
3553.459624601273
 30
0.0
 11
7592.250867216812
 21
3553.459624601273
 31
0.0
  0
LINE
  5
1633
330
1305
100
AcDbEntity
  8
DIM
 62
     0
370
    -2
100
AcDbLine
 10
7562.250867216812
 20
3403.459624601274
 30
0.0
 11
7562.250867216812
 21
3513.459624601273
 31
0.0
  0
SOLID
  5
1634
330
1305
100
AcDbEntity
  8
DIM
 62
     0
100
AcDbTrace
 10
7555.584200550146
 20
3403.459624601274
 30
0.0
 11
7568.91753388348
 21
3403.459624601274
 31
0.0
 12
7562.250867216812
 22
3363.459624601274
 32
0.0
 13
7562.250867216812
 23
3363.459624601274
 33
0.0
  0
SOLID
  5
1635
330
1305
100
AcDbEntity
  8
DIM
 62
     0
100
AcDbTrace
 10
7555.584200550146
 20
3513.459624601273
 30
0.0
 11
7568.91753388348
 21
3513.459624601273
 31
0.0
 12
7562.250867216812
 22
3553.459624601273
 32
0.0
 13
7562.250867216812
 23
3553.459624601273
 33
0.0
  0
MTEXT
  5
1636
330
1305
100
AcDbEntity
  8
DIM
 62
     0
100
AcDbMText
 10
7527.250867216811
 20
3464.560683054536
 30
0.0
 40
40.0
 41
0.0
 71
     5
 72
     1
  1
190
 11
0.0000000000000001
 21
1.0
 31
0.0
 73
     1
 44
1.0
  0
POINT
  5
1637
330
1305
100
AcDbEntity
  8
Defpoints
 62
     0
100
AcDbPoint
 10
7403.250867216812
 20
3363.459624601274
 30
0.0
  0
POINT
  5
1638
330
1305
100
AcDbEntity
  8
Defpoints
 62
     0
100
AcDbPoint
 10
7392.250867216812
 20
3553.459624601273
 30
0.0
  0
POINT
  5
1639
330
1305
100
AcDbEntity
  8
Defpoints
 62
     0
100
AcDbPoint
 10
7562.250867216812
 20
3553.459624601273
 30
0.0
  0
ENDBLK
  5
1310
330
1305
100
AcDbEntity
  8
0
100
AcDbBlockEnd
  0
BLOCK
  5
131B
330
1311
100
AcDbEntity
  8
0
100
AcDbBlockBegin
  2
*D56
 70
     1
 10
0.0
 20
0.0
 30
0.0
  3
*D56
  1

  0
LINE
  5
1628
330
1311
100
AcDbEntity
  8
DIM
 62
     0
370
    -2
100
AcDbLine
 10
7473.250867216812
 20
3363.459624601274
 30
0.0
 11
7892.250867216812
 21
3363.459624601274
 31
0.0
  0
LINE
  5
1629
330
1311
100
AcDbEntity
  8
DIM
 62
     0
370
    -2
100
AcDbLine
 10
7482.250867216811
 20
4223.459624601273
 30
0.0
 11
7892.250867216812
 21
4223.459624601273
 31
0.0
  0
LINE
  5
162A
330
1311
100
AcDbEntity
  8
DIM
 62
     0
370
    -2
100
AcDbLine
 10
7862.250867216811
 20
3403.459624601274
 30
0.0
 11
7862.250867216811
 21
4183.459624601273
 31
0.0
  0
SOLID
  5
162B
330
1311
100
AcDbEntity
  8
DIM
 62
     0
100
AcDbTrace
 10
7855.584200550144
 20
3403.459624601274
 30
0.0
 11
7868.917533883479
 21
3403.459624601274
 31
0.0
 12
7862.250867216811
 22
3363.459624601274
 32
0.0
 13
7862.250867216811
 23
3363.459624601274
 33
0.0
  0
SOLID
  5
162C
330
1311
100
AcDbEntity
  8
DIM
 62
     0
100
AcDbTrace
 10
7855.584200550144
 20
4183.459624601273
 30
0.0
 11
7868.917533883479
 21
4183.459624601273
 31
0.0
 12
7862.250867216811
 22
4223.459624601273
 32
0.0
 13
7862.250867216811
 23
4223.459624601273
 33
0.0
  0
MTEXT
  5
162D
330
1311
100
AcDbEntity
  8
DIM
 62
     0
100
AcDbMText
 10
7827.25086721681
 20
3793.459624601275
 30
0.0
 40
40.0
 41
0.0
 71
     5
 72
     1
  1
860
 11
0.0000000000000001
 21
1.0
 31
0.0
 73
     1
 44
1.0
  0
POINT
  5
162E
330
1311
100
AcDbEntity
  8
Defpoints
 62
     0
100
AcDbPoint
 10
7403.250867216812
 20
3363.459624601274
 30
0.0
  0
POINT
  5
162F
330
1311
100
AcDbEntity
  8
Defpoints
 62
     0
100
AcDbPoint
 10
7412.250867216811
 20
4223.459624601273
 30
0.0
  0
POINT
  5
1630
330
1311
100
AcDbEntity
  8
Defpoints
 62
     0
100
AcDbPoint
 10
7862.250867216811
 20
4223.459624601273
 30
0.0
  0
ENDBLK
  5
131C
330
1311
100
AcDbEntity
  8
0
100
AcDbBlockEnd
  0
BLOCK
  5
1328
330
131D
100
AcDbEntity
  8
0
100
AcDbBlockBegin
  2
*D57
 70
     1
 10
0.0
 20
0.0
 30
0.0
  3
*D57
  1

  0
LINE
  5
161E
330
131D
100
AcDbEntity
  8
DIM
 62
     0
370
    -2
100
AcDbLine
 10
7365.250867216811
 20
3473.459624601274
 30
0.0
 11
7742.250867216812
 21
3473.459624601274
 31
0.0
  0
LINE
  5
161F
330
131D
100
AcDbEntity
  8
DIM
 62
     0
370
    -2
100
AcDbLine
 10
7473.250867216812
 20
3363.459624601274
 30
0.0
 11
7742.250867216812
 21
3363.459624601274
 31
0.0
  0
LINE
  5
1620
330
131D
100
AcDbEntity
  8
DIM
 62
     0
370
    -2
100
AcDbLine
 10
7712.250867216811
 20
3513.459624601273
 30
0.0
 11
7712.250867216811
 21
3553.459624601273
 31
0.0
  0
LINE
  5
1621
330
131D
100
AcDbEntity
  8
DIM
 62
     0
370
    -2
100
AcDbLine
 10
7712.250867216811
 20
3323.459624601273
 30
0.0
 11
7712.250867216811
 21
3283.459624601274
 31
0.0
  0
SOLID
  5
1622
330
131D
100
AcDbEntity
  8
DIM
 62
     0
100
AcDbTrace
 10
7705.584200550145
 20
3513.459624601273
 30
0.0
 11
7718.917533883479
 21
3513.459624601273
 31
0.0
 12
7712.250867216811
 22
3473.459624601274
 32
0.0
 13
7712.250867216811
 23
3473.459624601274
 33
0.0
  0
SOLID
  5
1623
330
131D
100
AcDbEntity
  8
DIM
 62
     0
100
AcDbTrace
 10
7705.584200550145
 20
3323.459624601273
 30
0.0
 11
7718.917533883479
 21
3323.459624601273
 31
0.0
 12
7712.250867216811
 22
3363.459624601274
 32
0.0
 13
7712.250867216811
 23
3363.459624601274
 33
0.0
  0
MTEXT
  5
1624
330
131D
100
AcDbEntity
  8
DIM
 62
     0
100
AcDbMText
 10
7677.25086721681
 20
3418.459624601275
 30
0.0
 40
40.0
 41
0.0
 71
     5
 72
     1
  1
110
 11
0.0000000000000001
 21
1.0
 31
0.0
 73
     1
 44
1.0
  0
POINT
  5
1625
330
131D
100
AcDbEntity
  8
Defpoints
 62
     0
100
AcDbPoint
 10
7295.250867216812
 20
3473.459624601274
 30
0.0
  0
POINT
  5
1626
330
131D
100
AcDbEntity
  8
Defpoints
 62
     0
100
AcDbPoint
 10
7403.250867216812
 20
3363.459624601274
 30
0.0
  0
POINT
  5
1627
330
131D
100
AcDbEntity
  8
Defpoints
 62
     0
100
AcDbPoint
 10
7712.250867216811
 20
3363.459624601274
 30
0.0
  0
ENDBLK
  5
1329
330
131D
100
AcDbEntity
  8
0
100
AcDbBlockEnd
  0
BLOCK
  5
1334
330
132A
100
AcDbEntity
  8
0
100
AcDbBlockBegin
  2
*D58
 70
     1
 10
0.0
 20
0.0
 30
0.0
  3
*D58
  1

  0
LINE
  5
1615
330
132A
100
AcDbEntity
  8
DIM
 62
     0
370
    -2
100
AcDbLine
 10
7482.250867216811
 20
4223.459624601273
 30
0.0
 11
7742.250867216812
 21
4223.459624601273
 31
0.0
  0
LINE
  5
1616
330
132A
100
AcDbEntity
  8
DIM
 62
     0
370
    -2
100
AcDbLine
 10
7365.250867216811
 20
3473.459624601274
 30
0.0
 11
7742.250867216812
 21
3473.459624601274
 31
0.0
  0
LINE
  5
1617
330
132A
100
AcDbEntity
  8
DIM
 62
     0
370
    -2
100
AcDbLine
 10
7712.250867216811
 20
4183.459624601273
 30
0.0
 11
7712.250867216811
 21
3513.459624601273
 31
0.0
  0
SOLID
  5
1618
330
132A
100
AcDbEntity
  8
DIM
 62
     0
100
AcDbTrace
 10
7705.584200550145
 20
4183.459624601273
 30
0.0
 11
7718.917533883479
 21
4183.459624601273
 31
0.0
 12
7712.250867216811
 22
4223.459624601273
 32
0.0
 13
7712.250867216811
 23
4223.459624601273
 33
0.0
  0
SOLID
  5
1619
330
132A
100
AcDbEntity
  8
DIM
 62
     0
100
AcDbTrace
 10
7705.584200550145
 20
3513.459624601273
 30
0.0
 11
7718.917533883479
 21
3513.459624601273
 31
0.0
 12
7712.250867216811
 22
3473.459624601274
 32
0.0
 13
7712.250867216811
 23
3473.459624601274
 33
0.0
  0
MTEXT
  5
161A
330
132A
100
AcDbEntity
  8
DIM
 62
     0
100
AcDbMText
 10
7677.25086721681
 20
3848.459624601275
 30
0.0
 40
40.0
 41
0.0
 71
     5
 72
     1
  1
750
 11
0.0000000000000001
 21
1.0
 31
0.0
 73
     1
 44
1.0
  0
POINT
  5
161B
330
132A
100
AcDbEntity
  8
Defpoints
 62
     0
100
AcDbPoint
 10
7412.250867216811
 20
4223.459624601273
 30
0.0
  0
POINT
  5
161C
330
132A
100
AcDbEntity
  8
Defpoints
 62
     0
100
AcDbPoint
 10
7295.250867216812
 20
3473.459624601274
 30
0.0
  0
POINT
  5
161D
330
132A
100
AcDbEntity
  8
Defpoints
 62
     0
100
AcDbPoint
 10
7712.250867216811
 20
3473.459624601274
 30
0.0
  0
ENDBLK
  5
1335
330
132A
100
AcDbEntity
  8
0
100
AcDbBlockEnd
  0
BLOCK
  5
1340
330
1336
100
AcDbEntity
  8
0
100
AcDbBlockBegin
  2
*D59
 70
     1
 10
0.0
 20
0.0
 30
0.0
  3
*D59
  1

  0
LINE
  5
160C
330
1336
100
AcDbEntity
  8
DIM
 62
     0
370
    -2
100
AcDbLine
 10
7462.250867216811
 20
4003.459624601273
 30
0.0
 11
7592.250867216812
 21
4003.459624601273
 31
0.0
  0
LINE
  5
160D
330
1336
100
AcDbEntity
  8
DIM
 62
     0
370
    -2
100
AcDbLine
 10
7462.250867216811
 20
3553.459624601273
 30
0.0
 11
7592.250867216812
 21
3553.459624601273
 31
0.0
  0
LINE
  5
160E
330
1336
100
AcDbEntity
  8
DIM
 62
     0
370
    -2
100
AcDbLine
 10
7562.25086721681
 20
3963.459624601274
 30
0.0
 11
7562.25086721681
 21
3593.459624601274
 31
0.0
  0
SOLID
  5
160F
330
1336
100
AcDbEntity
  8
DIM
 62
     0
100
AcDbTrace
 10
7555.584200550145
 20
3963.459624601274
 30
0.0
 11
7568.917533883478
 21
3963.459624601274
 31
0.0
 12
7562.25086721681
 22
4003.459624601273
 32
0.0
 13
7562.25086721681
 23
4003.459624601273
 33
0.0
  0
SOLID
  5
1610
330
1336
100
AcDbEntity
  8
DIM
 62
     0
100
AcDbTrace
 10
7555.584200550145
 20
3593.459624601274
 30
0.0
 11
7568.917533883478
 21
3593.459624601274
 31
0.0
 12
7562.25086721681
 22
3553.459624601273
 32
0.0
 13
7562.25086721681
 23
3553.459624601273
 33
0.0
  0
MTEXT
  5
1611
330
1336
100
AcDbEntity
  8
DIM
 62
     0
100
AcDbMText
 10
7527.25086721681
 20
3778.459624601275
 30
0.0
 40
40.0
 41
0.0
 71
     5
 72
     1
  1
450
 11
0.0000000000000001
 21
1.0
 31
0.0
 73
     1
 44
1.0
  0
POINT
  5
1612
330
1336
100
AcDbEntity
  8
Defpoints
 62
     0
100
AcDbPoint
 10
7392.250867216812
 20
4003.459624601273
 30
0.0
  0
POINT
  5
1613
330
1336
100
AcDbEntity
  8
Defpoints
 62
     0
100
AcDbPoint
 10
7392.250867216812
 20
3553.459624601273
 30
0.0
  0
POINT
  5
1614
330
1336
100
AcDbEntity
  8
Defpoints
 62
     0
100
AcDbPoint
 10
7562.25086721681
 20
3553.459624601273
 30
0.0
  0
ENDBLK
  5
1341
330
1336
100
AcDbEntity
  8
0
100
AcDbBlockEnd
  0
BLOCK
  5
134C
330
1342
100
AcDbEntity
  8
0
100
AcDbBlockBegin
  2
*D60
 70
     1
 10
0.0
 20
0.0
 30
0.0
  3
*D60
  1

  0
LINE
  5
1603
330
1342
100
AcDbEntity
  8
DIM
 62
     0
370
    -2
100
AcDbLine
 10
7462.250867216811
 20
4003.459624601273
 30
0.0
 11
7592.250867216812
 21
4003.459624601273
 31
0.0
  0
LINE
  5
1604
330
1342
100
AcDbEntity
  8
DIM
 62
     0
370
    -2
100
AcDbLine
 10
7482.250867216811
 20
4223.459624601273
 30
0.0
 11
7592.250867216812
 21
4223.459624601273
 31
0.0
  0
LINE
  5
1605
330
1342
100
AcDbEntity
  8
DIM
 62
     0
370
    -2
100
AcDbLine
 10
7562.25086721681
 20
4043.459624601274
 30
0.0
 11
7562.25086721681
 21
4183.459624601273
 31
0.0
  0
SOLID
  5
1606
330
1342
100
AcDbEntity
  8
DIM
 62
     0
100
AcDbTrace
 10
7555.584200550145
 20
4043.459624601274
 30
0.0
 11
7568.917533883478
 21
4043.459624601274
 31
0.0
 12
7562.25086721681
 22
4003.459624601273
 32
0.0
 13
7562.25086721681
 23
4003.459624601273
 33
0.0
  0
SOLID
  5
1607
330
1342
100
AcDbEntity
  8
DIM
 62
     0
100
AcDbTrace
 10
7555.584200550145
 20
4183.459624601273
 30
0.0
 11
7568.917533883478
 21
4183.459624601273
 31
0.0
 12
7562.25086721681
 22
4223.459624601273
 32
0.0
 13
7562.25086721681
 23
4223.459624601273
 33
0.0
  0
MTEXT
  5
1608
330
1342
100
AcDbEntity
  8
DIM
 62
     0
100
AcDbMText
 10
7527.246930208936
 20
4113.459624601274
 30
0.0
 40
40.0
 41
0.0
 71
     5
 72
     1
  1
220
 11
0.0000000000000001
 21
1.0
 31
0.0
 73
     1
 44
1.0
  0
POINT
  5
1609
330
1342
100
AcDbEntity
  8
Defpoints
 62
     0
100
AcDbPoint
 10
7392.250867216812
 20
4003.459624601273
 30
0.0
  0
POINT
  5
160A
330
1342
100
AcDbEntity
  8
Defpoints
 62
     0
100
AcDbPoint
 10
7412.250867216811
 20
4223.459624601273
 30
0.0
  0
POINT
  5
160B
330
1342
100
AcDbEntity
  8
Defpoints
 62
     0
100
AcDbPoint
 10
7562.25086721681
 20
4223.459624601273
 30
0.0
  0
ENDBLK
  5
134D
330
1342
100
AcDbEntity
  8
0
100
AcDbBlockEnd
  0
BLOCK
  5
159C
330
1592
100
AcDbEntity
  8
0
100
AcDbBlockBegin
  2
*D61
 70
     1
 10
0.0
 20
0.0
 30
0.0
  3
*D61
  1

  0
LINE
  5
1CF6
330
1592
100
AcDbEntity
  8
TXT
 62
     0
370
    -2
100
AcDbLine
 10
7314.750867216812
 20
4583.459624601274
 30
0.0
 11
8042.250867216813
 21
4583.459624601274
 31
0.0
  0
LINE
  5
1CF7
330
1592
100
AcDbEntity
  8
TXT
 62
     0
370
    -2
100
AcDbLine
 10
7473.250867216812
 20
3363.459624601274
 30
0.0
 11
8042.250867216813
 21
3363.459624601274
 31
0.0
  0
LINE
  5
1CF8
330
1592
100
AcDbEntity
  8
TXT
 62
     0
370
    -2
100
AcDbLine
 10
8012.250867216812
 20
4543.459624601274
 30
0.0
 11
8012.250867216812
 21
3403.459624601274
 31
0.0
  0
SOLID
  5
1CF9
330
1592
100
AcDbEntity
  8
TXT
 62
     0
100
AcDbTrace
 10
8005.584200550144
 20
4543.459624601274
 30
0.0
 11
8018.917533883479
 21
4543.459624601274
 31
0.0
 12
8012.250867216812
 22
4583.459624601274
 32
0.0
 13
8012.250867216812
 23
4583.459624601274
 33
0.0
  0
SOLID
  5
1CFA
330
1592
100
AcDbEntity
  8
TXT
 62
     0
100
AcDbTrace
 10
8005.584200550144
 20
3403.459624601274
 30
0.0
 11
8018.917533883479
 21
3403.459624601274
 31
0.0
 12
8012.250867216812
 22
3363.459624601274
 32
0.0
 13
8012.250867216812
 23
3363.459624601274
 33
0.0
  0
MTEXT
  5
1CFB
330
1592
100
AcDbEntity
  8
TXT
 62
     0
100
AcDbMText
 10
7977.246930208936
 20
3973.459624601275
 30
0.0
 40
40.0
 41
0.0
 71
     5
 72
     1
  1
1220
 11
0.0000000000000001
 21
1.0
 31
0.0
 73
     1
 44
1.0
  0
POINT
  5
1CFC
330
1592
100
AcDbEntity
  8
Defpoints
 62
     0
100
AcDbPoint
 10
7244.750867216811
 20
4583.459624601274
 30
0.0
  0
POINT
  5
1CFD
330
1592
100
AcDbEntity
  8
Defpoints
 62
     0
100
AcDbPoint
 10
7403.250867216812
 20
3363.459624601274
 30
0.0
  0
POINT
  5
1CFE
330
1592
100
AcDbEntity
  8
Defpoints
 62
     0
100
AcDbPoint
 10
8012.250867216812
 20
3363.459624601274
 30
0.0
  0
ENDBLK
  5
159D
330
1592
100
AcDbEntity
  8
0
100
AcDbBlockEnd
  0
BLOCK
  5
1A1B
330
1A11
100
AcDbEntity
  8
0
100
AcDbBlockBegin
  2
*D80
 70
     1
 10
0.0
 20
0.0
 30
0.0
  3
*D80
  1

  0
LINE
  5
1B1B
330
1A11
100
AcDbEntity
  8
DIM
 62
     0
370
    -2
100
AcDbLine
 10
6507.011909017494
 20
4748.459624601273
 30
0.0
 11
6485.044215590946
 21
4688.103882954329
 31
0.0
  0
LINE
  5
1B1C
330
1A11
100
AcDbEntity
  8
DIM
 62
     0
370
    -2
100
AcDbLine
 10
7117.011909017493
 20
4748.459624601273
 30
0.0
 11
7095.044215590945
 21
4688.103882954329
 31
0.0
  0
LINE
  5
1B1D
330
1A11
100
AcDbEntity
  8
DIM
 62
     0
370
    -2
100
AcDbLine
 10
6535.963322618932
 20
4718.103882954329
 30
0.0
 11
7065.963322618931
 21
4718.103882954329
 31
0.0
  0
SOLID
  5
1B1E
330
1A11
100
AcDbEntity
  8
DIM
 62
     0
100
AcDbTrace
 10
6535.963322618932
 20
4724.770549620995
 30
0.0
 11
6535.963322618932
 21
4711.437216287662
 31
0.0
 12
6495.963322618931
 22
4718.103882954329
 32
0.0
 13
6495.963322618931
 23
4718.103882954329
 33
0.0
  0
SOLID
  5
1B1F
330
1A11
100
AcDbEntity
  8
DIM
 62
     0
100
AcDbTrace
 10
7065.963322618931
 20
4724.770549620995
 30
0.0
 11
7065.963322618931
 21
4711.437216287662
 31
0.0
 12
7105.963322618932
 22
4718.103882954329
 32
0.0
 13
7105.963322618932
 23
4718.103882954329
 33
0.0
  0
MTEXT
  5
1B20
330
1A11
100
AcDbEntity
  8
DIM
 62
     0
100
AcDbMText
 10
6800.963322618932
 20
4753.103882954328
 30
0.0
 40
40.0
 41
0.0
 71
     5
 72
     1
  1
610
 73
     1
 44
1.0
  0
POINT
  5
1B21
330
1A11
100
AcDbEntity
  8
Defpoints
 62
     0
100
AcDbPoint
 10
6519.750867216811
 20
4783.459624601273
 30
0.0
  0
POINT
  5
1B22
330
1A11
100
AcDbEntity
  8
Defpoints
 62
     0
100
AcDbPoint
 10
7129.750867216812
 20
4783.459624601273
 30
0.0
  0
POINT
  5
1B23
330
1A11
100
AcDbEntity
  8
Defpoints
 62
     0
100
AcDbPoint
 10
7105.963322618932
 20
4718.103882954329
 30
0.0
  0
ENDBLK
  5
1A1C
330
1A11
100
AcDbEntity
  8
0
100
AcDbBlockEnd
  0
BLOCK
  5
1A27
330
1A1D
100
AcDbEntity
  8
0
100
AcDbBlockBegin
  2
*D81
 70
     1
 10
0.0
 20
0.0
 30
0.0
  3
*D81
  1

  0
LINE
  5
1B12
330
1A1D
100
AcDbEntity
  8
DIM
 62
     0
370
    -2
100
AcDbLine
 10
7412.250867216811
 20
4844.459624601274
 30
0.0
 11
7412.250867216811
 21
5213.459624601274
 31
0.0
  0
LINE
  5
1B13
330
1A1D
100
AcDbEntity
  8
DIM
 62
     0
370
    -2
100
AcDbLine
 10
6237.250867216811
 20
4844.459624601274
 30
0.0
 11
6237.250867216811
 21
5213.459624601274
 31
0.0
  0
LINE
  5
1B14
330
1A1D
100
AcDbEntity
  8
DIM
 62
     0
370
    -2
100
AcDbLine
 10
7372.250867216812
 20
5183.459624601273
 30
0.0
 11
6277.250867216811
 21
5183.459624601273
 31
0.0
  0
SOLID
  5
1B15
330
1A1D
100
AcDbEntity
  8
DIM
 62
     0
100
AcDbTrace
 10
7372.250867216812
 20
5190.12629126794
 30
0.0
 11
7372.250867216812
 21
5176.792957934607
 31
0.0
 12
7412.250867216811
 22
5183.459624601273
 32
0.0
 13
7412.250867216811
 23
5183.459624601273
 33
0.0
  0
SOLID
  5
1B16
330
1A1D
100
AcDbEntity
  8
DIM
 62
     0
100
AcDbTrace
 10
6277.250867216811
 20
5190.12629126794
 30
0.0
 11
6277.250867216811
 21
5176.792957934607
 31
0.0
 12
6237.250867216811
 22
5183.459624601273
 32
0.0
 13
6237.250867216811
 23
5183.459624601273
 33
0.0
  0
MTEXT
  5
1B17
330
1A1D
100
AcDbEntity
  8
DIM
 62
     0
100
AcDbMText
 10
6824.750867216811
 20
5218.459624601273
 30
0.0
 40
40.0
 41
0.0
 71
     5
 72
     1
  1
1175
 73
     1
 44
1.0
  0
POINT
  5
1B18
330
1A1D
100
AcDbEntity
  8
Defpoints
 62
     0
100
AcDbPoint
 10
7412.250867216811
 20
4774.459624601273
 30
0.0
  0
POINT
  5
1B19
330
1A1D
100
AcDbEntity
  8
Defpoints
 62
     0
100
AcDbPoint
 10
6237.250867216811
 20
4774.459624601273
 30
0.0
  0
POINT
  5
1B1A
330
1A1D
100
AcDbEntity
  8
Defpoints
 62
     0
100
AcDbPoint
 10
6237.250867216811
 20
5183.459624601273
 30
0.0
  0
ENDBLK
  5
1A28
330
1A1D
100
AcDbEntity
  8
0
100
AcDbBlockEnd
  0
BLOCK
  5
1A34
330
1A29
100
AcDbEntity
  8
0
100
AcDbBlockBegin
  2
*D82
 70
     1
 10
0.0
 20
0.0
 30
0.0
  3
*D82
  1

  0
LINE
  5
1B08
330
1A29
100
AcDbEntity
  8
DIM
 62
     0
370
    -2
100
AcDbLine
 10
7314.750867216812
 20
4883.459624601274
 30
0.0
 11
7892.250867216812
 21
4883.459624601274
 31
0.0
  0
LINE
  5
1B09
330
1A29
100
AcDbEntity
  8
DIM
 62
     0
370
    -2
100
AcDbLine
 10
7473.250867216812
 20
4783.459624601273
 30
0.0
 11
7892.250867216812
 21
4783.459624601273
 31
0.0
  0
LINE
  5
1B0A
330
1A29
100
AcDbEntity
  8
DIM
 62
     0
370
    -2
100
AcDbLine
 10
7862.250867216811
 20
4923.459624601274
 30
0.0
 11
7862.250867216811
 21
4963.459624601274
 31
0.0
  0
LINE
  5
1B0B
330
1A29
100
AcDbEntity
  8
DIM
 62
     0
370
    -2
100
AcDbLine
 10
7862.250867216811
 20
4743.459624601274
 30
0.0
 11
7862.250867216811
 21
4703.459624601273
 31
0.0
  0
SOLID
  5
1B0C
330
1A29
100
AcDbEntity
  8
DIM
 62
     0
100
AcDbTrace
 10
7855.584200550144
 20
4923.459624601274
 30
0.0
 11
7868.917533883479
 21
4923.459624601274
 31
0.0
 12
7862.250867216811
 22
4883.459624601274
 32
0.0
 13
7862.250867216811
 23
4883.459624601274
 33
0.0
  0
SOLID
  5
1B0D
330
1A29
100
AcDbEntity
  8
DIM
 62
     0
100
AcDbTrace
 10
7855.584200550144
 20
4743.459624601274
 30
0.0
 11
7868.917533883479
 21
4743.459624601274
 31
0.0
 12
7862.250867216811
 22
4783.459624601273
 32
0.0
 13
7862.250867216811
 23
4783.459624601273
 33
0.0
  0
MTEXT
  5
1B0E
330
1A29
100
AcDbEntity
  8
DIM
 62
     0
100
AcDbMText
 10
7827.25086721681
 20
4833.459624601275
 30
0.0
 40
40.0
 41
0.0
 71
     5
 72
     1
  1
100
 11
0.0000000000000001
 21
1.0
 31
0.0
 73
     1
 44
1.0
  0
POINT
  5
1B0F
330
1A29
100
AcDbEntity
  8
Defpoints
 62
     0
100
AcDbPoint
 10
7244.750867216811
 20
4883.459624601274
 30
0.0
  0
POINT
  5
1B10
330
1A29
100
AcDbEntity
  8
Defpoints
 62
     0
100
AcDbPoint
 10
7403.250867216812
 20
4783.459624601273
 30
0.0
  0
POINT
  5
1B11
330
1A29
100
AcDbEntity
  8
Defpoints
 62
     0
100
AcDbPoint
 10
7862.250867216811
 20
4783.459624601273
 30
0.0
  0
ENDBLK
  5
1A35
330
1A29
100
AcDbEntity
  8
0
100
AcDbBlockEnd
  0
BLOCK
  5
1A40
330
1A36
100
AcDbEntity
  8
0
100
AcDbBlockBegin
  2
*D83
 70
     1
 10
0.0
 20
0.0
 30
0.0
  3
*D83
  1

  0
LINE
  5
1AFF
330
1A36
100
AcDbEntity
  8
DIM
 62
     0
370
    -2
100
AcDbLine
 10
7473.250867216812
 20
4783.459624601273
 30
0.0
 11
7892.250867216812
 21
4783.459624601273
 31
0.0
  0
LINE
  5
1B00
330
1A36
100
AcDbEntity
  8
DIM
 62
     0
370
    -2
100
AcDbLine
 10
7482.250867216811
 20
4223.459624601273
 30
0.0
 11
7892.250867216812
 21
4223.459624601273
 31
0.0
  0
LINE
  5
1B01
330
1A36
100
AcDbEntity
  8
DIM
 62
     0
370
    -2
100
AcDbLine
 10
7862.250867216811
 20
4743.459624601274
 30
0.0
 11
7862.250867216811
 21
4263.459624601273
 31
0.0
  0
SOLID
  5
1B02
330
1A36
100
AcDbEntity
  8
DIM
 62
     0
100
AcDbTrace
 10
7855.584200550144
 20
4743.459624601274
 30
0.0
 11
7868.917533883479
 21
4743.459624601274
 31
0.0
 12
7862.250867216811
 22
4783.459624601273
 32
0.0
 13
7862.250867216811
 23
4783.459624601273
 33
0.0
  0
SOLID
  5
1B03
330
1A36
100
AcDbEntity
  8
DIM
 62
     0
100
AcDbTrace
 10
7855.584200550144
 20
4263.459624601273
 30
0.0
 11
7868.917533883479
 21
4263.459624601273
 31
0.0
 12
7862.250867216811
 22
4223.459624601273
 32
0.0
 13
7862.250867216811
 23
4223.459624601273
 33
0.0
  0
MTEXT
  5
1B04
330
1A36
100
AcDbEntity
  8
DIM
 62
     0
100
AcDbMText
 10
7827.25086721681
 20
4503.459624601275
 30
0.0
 40
40.0
 41
0.0
 71
     5
 72
     1
  1
560
 11
0.0000000000000001
 21
1.0
 31
0.0
 73
     1
 44
1.0
  0
POINT
  5
1B05
330
1A36
100
AcDbEntity
  8
Defpoints
 62
     0
100
AcDbPoint
 10
7403.250867216812
 20
4783.459624601273
 30
0.0
  0
POINT
  5
1B06
330
1A36
100
AcDbEntity
  8
Defpoints
 62
     0
100
AcDbPoint
 10
7412.250867216811
 20
4223.459624601273
 30
0.0
  0
POINT
  5
1B07
330
1A36
100
AcDbEntity
  8
Defpoints
 62
     0
100
AcDbPoint
 10
7862.250867216811
 20
4223.459624601273
 30
0.0
  0
ENDBLK
  5
1A41
330
1A36
100
AcDbEntity
  8
0
100
AcDbBlockEnd
  0
BLOCK
  5
1A4D
330
1A42
100
AcDbEntity
  8
0
100
AcDbBlockBegin
  2
*D84
 70
     1
 10
0.0
 20
0.0
 30
0.0
  3
*D84
  1

  0
LINE
  5
1AF5
330
1A42
100
AcDbEntity
  8
DIM
 62
     0
370
    -2
100
AcDbLine
 10
7473.250867216812
 20
4783.459624601273
 30
0.0
 11
7742.250867216812
 21
4783.459624601273
 31
0.0
  0
LINE
  5
1AF6
330
1A42
100
AcDbEntity
  8
DIM
 62
     0
370
    -2
100
AcDbLine
 10
7365.250867216811
 20
4673.459624601274
 30
0.0
 11
7742.250867216812
 21
4673.459624601274
 31
0.0
  0
LINE
  5
1AF7
330
1A42
100
AcDbEntity
  8
DIM
 62
     0
370
    -2
100
AcDbLine
 10
7712.250867216811
 20
4823.459624601273
 30
0.0
 11
7712.250867216811
 21
4863.459624601273
 31
0.0
  0
LINE
  5
1AF8
330
1A42
100
AcDbEntity
  8
DIM
 62
     0
370
    -2
100
AcDbLine
 10
7712.250867216811
 20
4633.459624601274
 30
0.0
 11
7712.250867216811
 21
4593.459624601273
 31
0.0
  0
SOLID
  5
1AF9
330
1A42
100
AcDbEntity
  8
DIM
 62
     0
100
AcDbTrace
 10
7705.584200550145
 20
4823.459624601273
 30
0.0
 11
7718.917533883479
 21
4823.459624601273
 31
0.0
 12
7712.250867216811
 22
4783.459624601273
 32
0.0
 13
7712.250867216811
 23
4783.459624601273
 33
0.0
  0
SOLID
  5
1AFA
330
1A42
100
AcDbEntity
  8
DIM
 62
     0
100
AcDbTrace
 10
7705.584200550145
 20
4633.459624601274
 30
0.0
 11
7718.917533883479
 21
4633.459624601274
 31
0.0
 12
7712.250867216811
 22
4673.459624601274
 32
0.0
 13
7712.250867216811
 23
4673.459624601274
 33
0.0
  0
MTEXT
  5
1AFB
330
1A42
100
AcDbEntity
  8
DIM
 62
     0
100
AcDbMText
 10
7677.25086721681
 20
4728.459624601274
 30
0.0
 40
40.0
 41
0.0
 71
     5
 72
     1
  1
110
 11
0.0000000000000001
 21
1.0
 31
0.0
 73
     1
 44
1.0
  0
POINT
  5
1AFC
330
1A42
100
AcDbEntity
  8
Defpoints
 62
     0
100
AcDbPoint
 10
7403.250867216812
 20
4783.459624601273
 30
0.0
  0
POINT
  5
1AFD
330
1A42
100
AcDbEntity
  8
Defpoints
 62
     0
100
AcDbPoint
 10
7295.250867216812
 20
4673.459624601274
 30
0.0
  0
POINT
  5
1AFE
330
1A42
100
AcDbEntity
  8
Defpoints
 62
     0
100
AcDbPoint
 10
7712.250867216811
 20
4673.459624601274
 30
0.0
  0
ENDBLK
  5
1A4E
330
1A42
100
AcDbEntity
  8
0
100
AcDbBlockEnd
  0
BLOCK
  5
1A59
330
1A4F
100
AcDbEntity
  8
0
100
AcDbBlockBegin
  2
*D85
 70
     1
 10
0.0
 20
0.0
 30
0.0
  3
*D85
  1

  0
LINE
  5
1AEC
330
1A4F
100
AcDbEntity
  8
DIM
 62
     0
370
    -2
100
AcDbLine
 10
7365.250867216811
 20
4673.459624601274
 30
0.0
 11
7742.250867216812
 21
4673.459624601274
 31
0.0
  0
LINE
  5
1AED
330
1A4F
100
AcDbEntity
  8
DIM
 62
     0
370
    -2
100
AcDbLine
 10
7482.250867216811
 20
4223.459624601273
 30
0.0
 11
7742.250867216812
 21
4223.459624601273
 31
0.0
  0
LINE
  5
1AEE
330
1A4F
100
AcDbEntity
  8
DIM
 62
     0
370
    -2
100
AcDbLine
 10
7712.250867216811
 20
4633.459624601274
 30
0.0
 11
7712.250867216811
 21
4263.459624601273
 31
0.0
  0
SOLID
  5
1AEF
330
1A4F
100
AcDbEntity
  8
DIM
 62
     0
100
AcDbTrace
 10
7705.584200550145
 20
4633.459624601274
 30
0.0
 11
7718.917533883479
 21
4633.459624601274
 31
0.0
 12
7712.250867216811
 22
4673.459624601274
 32
0.0
 13
7712.250867216811
 23
4673.459624601274
 33
0.0
  0
SOLID
  5
1AF0
330
1A4F
100
AcDbEntity
  8
DIM
 62
     0
100
AcDbTrace
 10
7705.584200550145
 20
4263.459624601273
 30
0.0
 11
7718.917533883479
 21
4263.459624601273
 31
0.0
 12
7712.250867216811
 22
4223.459624601273
 32
0.0
 13
7712.250867216811
 23
4223.459624601273
 33
0.0
  0
MTEXT
  5
1AF1
330
1A4F
100
AcDbEntity
  8
DIM
 62
     0
100
AcDbMText
 10
7677.25086721681
 20
4448.459624601274
 30
0.0
 40
40.0
 41
0.0
 71
     5
 72
     1
  1
450
 11
0.0000000000000001
 21
1.0
 31
0.0
 73
     1
 44
1.0
  0
POINT
  5
1AF2
330
1A4F
100
AcDbEntity
  8
Defpoints
 62
     0
100
AcDbPoint
 10
7295.250867216812
 20
4673.459624601274
 30
0.0
  0
POINT
  5
1AF3
330
1A4F
100
AcDbEntity
  8
Defpoints
 62
     0
100
AcDbPoint
 10
7412.250867216811
 20
4223.459624601273
 30
0.0
  0
POINT
  5
1AF4
330
1A4F
100
AcDbEntity
  8
Defpoints
 62
     0
100
AcDbPoint
 10
7712.250867216811
 20
4223.459624601273
 30
0.0
  0
ENDBLK
  5
1A5A
330
1A4F
100
AcDbEntity
  8
0
100
AcDbBlockEnd
  0
BLOCK
  5
1A65
330
1A5B
100
AcDbEntity
  8
0
100
AcDbBlockBegin
  2
*D86
 70
     1
 10
0.0
 20
0.0
 30
0.0
  3
*D86
  1

  0
LINE
  5
1AE3
330
1A5B
100
AcDbEntity
  8
DIM
 62
     0
370
    -2
100
AcDbLine
 10
6524.750867216811
 20
4953.459624601273
 30
0.0
 11
6524.750867216811
 21
5063.459624601273
 31
0.0
  0
LINE
  5
1AE4
330
1A5B
100
AcDbEntity
  8
DIM
 62
     0
370
    -2
100
AcDbLine
 10
6389.750867216811
 20
4938.459624601273
 30
0.0
 11
6389.750867216811
 21
5063.459624601273
 31
0.0
  0
LINE
  5
1AE5
330
1A5B
100
AcDbEntity
  8
DIM
 62
     0
370
    -2
100
AcDbLine
 10
6484.750867216812
 20
5033.459624601274
 30
0.0
 11
6429.750867216812
 21
5033.459624601274
 31
0.0
  0
SOLID
  5
1AE6
330
1A5B
100
AcDbEntity
  8
DIM
 62
     0
100
AcDbTrace
 10
6484.750867216812
 20
5040.126291267941
 30
0.0
 11
6484.750867216812
 21
5026.792957934606
 31
0.0
 12
6524.750867216811
 22
5033.459624601274
 32
0.0
 13
6524.750867216811
 23
5033.459624601274
 33
0.0
  0
SOLID
  5
1AE7
330
1A5B
100
AcDbEntity
  8
DIM
 62
     0
100
AcDbTrace
 10
6429.750867216812
 20
5040.126291267941
 30
0.0
 11
6429.750867216812
 21
5026.792957934606
 31
0.0
 12
6389.750867216811
 22
5033.459624601274
 32
0.0
 13
6389.750867216811
 23
5033.459624601274
 33
0.0
  0
MTEXT
  5
1AE8
330
1A5B
100
AcDbEntity
  8
DIM
 62
     0
100
AcDbMText
 10
6457.250867216811
 20
5068.459624601274
 30
0.0
 40
40.0
 41
0.0
 71
     5
 72
     1
  1
135
 73
     1
 44
1.0
  0
POINT
  5
1AE9
330
1A5B
100
AcDbEntity
  8
Defpoints
 62
     0
100
AcDbPoint
 10
6524.750867216811
 20
4883.459624601274
 30
0.0
  0
POINT
  5
1AEA
330
1A5B
100
AcDbEntity
  8
Defpoints
 62
     0
100
AcDbPoint
 10
6389.750867216811
 20
4868.459624601274
 30
0.0
  0
POINT
  5
1AEB
330
1A5B
100
AcDbEntity
  8
Defpoints
 62
     0
100
AcDbPoint
 10
6389.750867216811
 20
5033.459624601274
 30
0.0
  0
ENDBLK
  5
1A66
330
1A5B
100
AcDbEntity
  8
0
100
AcDbBlockEnd
  0
BLOCK
  5
1A71
330
1A67
100
AcDbEntity
  8
0
100
AcDbBlockBegin
  2
*D87
 70
     1
 10
0.0
 20
0.0
 30
0.0
  3
*D87
  1

  0
LINE
  5
1ADA
330
1A67
100
AcDbEntity
  8
DIM
 62
     0
370
    -2
100
AcDbLine
 10
6524.750867216811
 20
4953.459624601273
 30
0.0
 11
6524.750867216811
 21
5063.459624601273
 31
0.0
  0
LINE
  5
1ADB
330
1A67
100
AcDbEntity
  8
DIM
 62
     0
370
    -2
100
AcDbLine
 10
7124.75086721681
 20
4953.459624601273
 30
0.0
 11
7124.75086721681
 21
5063.459624601273
 31
0.0
  0
LINE
  5
1ADC
330
1A67
100
AcDbEntity
  8
DIM
 62
     0
370
    -2
100
AcDbLine
 10
6564.750867216812
 20
5033.459624601274
 30
0.0
 11
7084.750867216811
 21
5033.459624601274
 31
0.0
  0
SOLID
  5
1ADD
330
1A67
100
AcDbEntity
  8
DIM
 62
     0
100
AcDbTrace
 10
6564.750867216812
 20
5040.126291267941
 30
0.0
 11
6564.750867216812
 21
5026.792957934606
 31
0.0
 12
6524.750867216811
 22
5033.459624601274
 32
0.0
 13
6524.750867216811
 23
5033.459624601274
 33
0.0
  0
SOLID
  5
1ADE
330
1A67
100
AcDbEntity
  8
DIM
 62
     0
100
AcDbTrace
 10
7084.750867216811
 20
5040.126291267941
 30
0.0
 11
7084.750867216811
 21
5026.792957934606
 31
0.0
 12
7124.75086721681
 22
5033.459624601274
 32
0.0
 13
7124.75086721681
 23
5033.459624601274
 33
0.0
  0
MTEXT
  5
1ADF
330
1A67
100
AcDbEntity
  8
DIM
 62
     0
100
AcDbMText
 10
6836.505996698766
 20
5068.459624601274
 30
0.0
 40
40.0
 41
0.0
 71
     5
 72
     1
  1
600
 73
     1
 44
1.0
  0
POINT
  5
1AE0
330
1A67
100
AcDbEntity
  8
Defpoints
 62
     0
100
AcDbPoint
 10
6524.750867216811
 20
4883.459624601274
 30
0.0
  0
POINT
  5
1AE1
330
1A67
100
AcDbEntity
  8
Defpoints
 62
     0
100
AcDbPoint
 10
7124.75086721681
 20
4883.459624601274
 30
0.0
  0
POINT
  5
1AE2
330
1A67
100
AcDbEntity
  8
Defpoints
 62
     0
100
AcDbPoint
 10
7124.75086721681
 20
5033.459624601274
 30
0.0
  0
ENDBLK
  5
1A72
330
1A67
100
AcDbEntity
  8
0
100
AcDbBlockEnd
  0
BLOCK
  5
1A7D
330
1A73
100
AcDbEntity
  8
0
100
AcDbBlockBegin
  2
*D88
 70
     1
 10
0.0
 20
0.0
 30
0.0
  3
*D88
  1

  0
LINE
  5
1AD1
330
1A73
100
AcDbEntity
  8
DIM
 62
     0
370
    -2
100
AcDbLine
 10
7124.75086721681
 20
4953.459624601273
 30
0.0
 11
7124.75086721681
 21
5063.459624601273
 31
0.0
  0
LINE
  5
1AD2
330
1A73
100
AcDbEntity
  8
DIM
 62
     0
370
    -2
100
AcDbLine
 10
7259.750867216812
 20
4938.459624601273
 30
0.0
 11
7259.750867216812
 21
5063.459624601273
 31
0.0
  0
LINE
  5
1AD3
330
1A73
100
AcDbEntity
  8
DIM
 62
     0
370
    -2
100
AcDbLine
 10
7164.750867216811
 20
5033.459624601274
 30
0.0
 11
7219.750867216811
 21
5033.459624601274
 31
0.0
  0
SOLID
  5
1AD4
330
1A73
100
AcDbEntity
  8
DIM
 62
     0
100
AcDbTrace
 10
7164.750867216811
 20
5040.126291267941
 30
0.0
 11
7164.750867216811
 21
5026.792957934606
 31
0.0
 12
7124.75086721681
 22
5033.459624601274
 32
0.0
 13
7124.75086721681
 23
5033.459624601274
 33
0.0
  0
SOLID
  5
1AD5
330
1A73
100
AcDbEntity
  8
DIM
 62
     0
100
AcDbTrace
 10
7219.750867216811
 20
5040.126291267941
 30
0.0
 11
7219.750867216811
 21
5026.792957934606
 31
0.0
 12
7259.750867216812
 22
5033.459624601274
 32
0.0
 13
7259.750867216812
 23
5033.459624601274
 33
0.0
  0
MTEXT
  5
1AD6
330
1A73
100
AcDbEntity
  8
DIM
 62
     0
100
AcDbMText
 10
7192.250867216812
 20
5068.459624601274
 30
0.0
 40
40.0
 41
0.0
 71
     5
 72
     1
  1
135
 73
     1
 44
1.0
  0
POINT
  5
1AD7
330
1A73
100
AcDbEntity
  8
Defpoints
 62
     0
100
AcDbPoint
 10
7124.75086721681
 20
4883.459624601274
 30
0.0
  0
POINT
  5
1AD8
330
1A73
100
AcDbEntity
  8
Defpoints
 62
     0
100
AcDbPoint
 10
7259.750867216812
 20
4868.459624601274
 30
0.0
  0
POINT
  5
1AD9
330
1A73
100
AcDbEntity
  8
Defpoints
 62
     0
100
AcDbPoint
 10
7259.750867216812
 20
5033.459624601274
 30
0.0
  0
ENDBLK
  5
1A7E
330
1A73
100
AcDbEntity
  8
0
100
AcDbBlockEnd
  0
BLOCK
  5
1B3D
330
1B3C
100
AcDbEntity
  8
0
100
AcDbBlockBegin
  2
*D89
 70
     1
 10
0.0
 20
0.0
 30
0.0
  3
*D89
  1

  0
LINE
  5
1B3E
330
1B3C
100
AcDbEntity
  8
DIM
 62
     0
370
    -2
100
AcDbLine
 10
887.5
 20
430.0
 30
0.0
 11
887.5
 21
540.0
 31
0.0
  0
LINE
  5
1B3F
330
1B3C
100
AcDbEntity
  8
DIM
 62
     0
370
    -2
100
AcDbLine
 10
1022.5
 20
415.0
 30
0.0
 11
1022.5
 21
540.0
 31
0.0
  0
LINE
  5
1B40
330
1B3C
100
AcDbEntity
  8
DIM
 62
     0
370
    -2
100
AcDbLine
 10
927.5
 20
510.0
 30
0.0
 11
982.5000000000001
 21
510.0
 31
0.0
  0
SOLID
  5
1B41
330
1B3C
100
AcDbEntity
  8
DIM
 62
     0
100
AcDbTrace
 10
927.5
 20
516.6666666666666
 30
0.0
 11
927.5
 21
503.3333333333333
 31
0.0
 12
887.5
 22
510.0
 32
0.0
 13
887.5
 23
510.0
 33
0.0
  0
SOLID
  5
1B42
330
1B3C
100
AcDbEntity
  8
DIM
 62
     0
100
AcDbTrace
 10
982.5000000000001
 20
516.6666666666666
 30
0.0
 11
982.5000000000001
 21
503.3333333333333
 31
0.0
 12
1022.5
 22
510.0
 32
0.0
 13
1022.5
 23
510.0
 33
0.0
  0
MTEXT
  5
1B43
330
1B3C
100
AcDbEntity
  8
DIM
 62
     0
100
AcDbMText
 10
955.0
 20
545.0
 30
0.0
 40
40.0
 41
0.0
 71
     5
 72
     1
  1
135
 73
     1
 44
1.0
  0
POINT
  5
1B44
330
1B3C
100
AcDbEntity
  8
Defpoints
 62
     0
100
AcDbPoint
 10
887.5
 20
360.0
 30
0.0
  0
POINT
  5
1B45
330
1B3C
100
AcDbEntity
  8
Defpoints
 62
     0
100
AcDbPoint
 10
1022.5
 20
345.0
 30
0.0
  0
POINT
  5
1B46
330
1B3C
100
AcDbEntity
  8
Defpoints
 62
     0
100
AcDbPoint
 10
1022.5
 20
510.0
 30
0.0
  0
ENDBLK
  5
1B47
330
1B3C
100
AcDbEntity
  8
0
100
AcDbBlockEnd
  0
BLOCK
  5
1B49
330
1B48
100
AcDbEntity
  8
0
100
AcDbBlockBegin
  2
*D90
 70
     1
 10
0.0
 20
0.0
 30
0.0
  3
*D90
  1

  0
LINE
  5
1B4A
330
1B48
100
AcDbEntity
  8
DIM
 62
     0
370
    -2
100
AcDbLine
 10
287.5
 20
430.0
 30
0.0
 11
287.5
 21
540.0
 31
0.0
  0
LINE
  5
1B4B
330
1B48
100
AcDbEntity
  8
DIM
 62
     0
370
    -2
100
AcDbLine
 10
887.5
 20
430.0
 30
0.0
 11
887.5
 21
540.0
 31
0.0
  0
LINE
  5
1B4C
330
1B48
100
AcDbEntity
  8
DIM
 62
     0
370
    -2
100
AcDbLine
 10
327.5
 20
510.0
 30
0.0
 11
847.4999999999999
 21
510.0
 31
0.0
  0
SOLID
  5
1B4D
330
1B48
100
AcDbEntity
  8
DIM
 62
     0
100
AcDbTrace
 10
327.5
 20
516.6666666666666
 30
0.0
 11
327.5
 21
503.3333333333333
 31
0.0
 12
287.5
 22
510.0
 32
0.0
 13
287.5
 23
510.0
 33
0.0
  0
SOLID
  5
1B4E
330
1B48
100
AcDbEntity
  8
DIM
 62
     0
100
AcDbTrace
 10
847.4999999999999
 20
516.6666666666666
 30
0.0
 11
847.4999999999999
 21
503.3333333333333
 31
0.0
 12
887.5
 22
510.0
 32
0.0
 13
887.5
 23
510.0
 33
0.0
  0
MTEXT
  5
1B4F
330
1B48
100
AcDbEntity
  8
DIM
 62
     0
100
AcDbMText
 10
599.255129481954
 20
545.0
 30
0.0
 40
40.0
 41
0.0
 71
     5
 72
     1
  1
600
 73
     1
 44
1.0
  0
POINT
  5
1B50
330
1B48
100
AcDbEntity
  8
Defpoints
 62
     0
100
AcDbPoint
 10
287.5
 20
360.0
 30
0.0
  0
POINT
  5
1B51
330
1B48
100
AcDbEntity
  8
Defpoints
 62
     0
100
AcDbPoint
 10
887.5
 20
360.0
 30
0.0
  0
POINT
  5
1B52
330
1B48
100
AcDbEntity
  8
Defpoints
 62
     0
100
AcDbPoint
 10
887.5
 20
510.0
 30
0.0
  0
ENDBLK
  5
1B53
330
1B48
100
AcDbEntity
  8
0
100
AcDbBlockEnd
  0
BLOCK
  5
1B55
330
1B54
100
AcDbEntity
  8
0
100
AcDbBlockBegin
  2
*D91
 70
     1
 10
0.0
 20
0.0
 30
0.0
  3
*D91
  1

  0
LINE
  5
1B56
330
1B54
100
AcDbEntity
  8
DIM
 62
     0
370
    -2
100
AcDbLine
 10
287.5
 20
430.0
 30
0.0
 11
287.5
 21
540.0
 31
0.0
  0
LINE
  5
1B57
330
1B54
100
AcDbEntity
  8
DIM
 62
     0
370
    -2
100
AcDbLine
 10
152.5
 20
415.0
 30
0.0
 11
152.5
 21
540.0
 31
0.0
  0
LINE
  5
1B58
330
1B54
100
AcDbEntity
  8
DIM
 62
     0
370
    -2
100
AcDbLine
 10
247.5
 20
510.0
 30
0.0
 11
192.5
 21
510.0
 31
0.0
  0
SOLID
  5
1B59
330
1B54
100
AcDbEntity
  8
DIM
 62
     0
100
AcDbTrace
 10
247.5
 20
516.6666666666666
 30
0.0
 11
247.5
 21
503.3333333333333
 31
0.0
 12
287.5
 22
510.0
 32
0.0
 13
287.5
 23
510.0
 33
0.0
  0
SOLID
  5
1B5A
330
1B54
100
AcDbEntity
  8
DIM
 62
     0
100
AcDbTrace
 10
192.5
 20
516.6666666666666
 30
0.0
 11
192.5
 21
503.3333333333333
 31
0.0
 12
152.5
 22
510.0
 32
0.0
 13
152.5
 23
510.0
 33
0.0
  0
MTEXT
  5
1B5B
330
1B54
100
AcDbEntity
  8
DIM
 62
     0
100
AcDbMText
 10
220.0
 20
545.0
 30
0.0
 40
40.0
 41
0.0
 71
     5
 72
     1
  1
135
 73
     1
 44
1.0
  0
POINT
  5
1B5C
330
1B54
100
AcDbEntity
  8
Defpoints
 62
     0
100
AcDbPoint
 10
287.5
 20
360.0
 30
0.0
  0
POINT
  5
1B5D
330
1B54
100
AcDbEntity
  8
Defpoints
 62
     0
100
AcDbPoint
 10
152.5
 20
345.0
 30
0.0
  0
POINT
  5
1B5E
330
1B54
100
AcDbEntity
  8
Defpoints
 62
     0
100
AcDbPoint
 10
152.5
 20
510.0
 30
0.0
  0
ENDBLK
  5
1B5F
330
1B54
100
AcDbEntity
  8
0
100
AcDbBlockEnd
  0
BLOCK
  5
1B61
330
1B60
100
AcDbEntity
  8
0
100
AcDbBlockBegin
  2
*D92
 70
     1
 10
0.0
 20
0.0
 30
0.0
  3
*D92
  1

  0
LINE
  5
1B62
330
1B60
100
AcDbEntity
  8
DIM
 62
     0
370
    -2
100
AcDbLine
 10
1128.0
 20
150.0
 30
0.0
 11
1505.0
 21
149.9999999999998
 31
0.0
  0
LINE
  5
1B63
330
1B60
100
AcDbEntity
  8
DIM
 62
     0
370
    -2
100
AcDbLine
 10
1245.0
 20
-0.0000000000000198
 30
0.0
 11
1505.0
 21
-0.0000000000000935
 31
0.0
  0
LINE
  5
1B64
330
1B60
100
AcDbEntity
  8
DIM
 62
     0
370
    -2
100
AcDbLine
 10
1475.0
 20
109.9999999999998
 30
0.0
 11
1475.0
 21
39.99999999999992
 31
0.0
  0
SOLID
  5
1B65
330
1B60
100
AcDbEntity
  8
DIM
 62
     0
100
AcDbTrace
 10
1468.333333333333
 20
109.9999999999998
 30
0.0
 11
1481.666666666667
 21
109.9999999999998
 31
0.0
 12
1475.0
 22
149.9999999999998
 32
0.0
 13
1475.0
 23
149.9999999999998
 33
0.0
  0
SOLID
  5
1B66
330
1B60
100
AcDbEntity
  8
DIM
 62
     0
100
AcDbTrace
 10
1468.333333333333
 20
39.99999999999992
 30
0.0
 11
1481.666666666667
 21
39.99999999999992
 31
0.0
 12
1475.0
 22
-0.000000000000085
 32
0.0
 13
1475.0
 23
-0.000000000000085
 33
0.0
  0
MTEXT
  5
1B67
330
1B60
100
AcDbEntity
  8
DIM
 62
     0
100
AcDbMText
 10
1440.0
 20
75.00000000000014
 30
0.0
 40
40.0
 41
0.0
 71
     5
 72
     1
  1
150
 11
0.0000000000000001
 21
1.0
 31
0.0
 73
     1
 44
1.0
  0
POINT
  5
1B68
330
1B60
100
AcDbEntity
  8
Defpoints
 62
     0
100
AcDbPoint
 10
1058.0
 20
150.0
 30
0.0
  0
POINT
  5
1B69
330
1B60
100
AcDbEntity
  8
Defpoints
 62
     0
100
AcDbPoint
 10
1175.0
 20
0.0
 30
0.0
  0
POINT
  5
1B6A
330
1B60
100
AcDbEntity
  8
Defpoints
 62
     0
100
AcDbPoint
 10
1475.0
 20
-0.000000000000085
 30
0.0
  0
ENDBLK
  5
1B6B
330
1B60
100
AcDbEntity
  8
0
100
AcDbBlockEnd
  0
BLOCK
  5
1B6D
330
1B6C
100
AcDbEntity
  8
0
100
AcDbBlockBegin
  2
*D93
 70
     1
 10
0.0
 20
0.0
 30
0.0
  3
*D93
  1

  0
LINE
  5
1B6E
330
1B6C
100
AcDbEntity
  8
DIM
 62
     0
370
    -2
100
AcDbLine
 10
1236.0
 20
260.0
 30
0.0
 11
1505.0
 21
260.0
 31
0.0
  0
LINE
  5
1B6F
330
1B6C
100
AcDbEntity
  8
DIM
 62
     0
370
    -2
100
AcDbLine
 10
1128.0
 20
150.0
 30
0.0
 11
1505.0
 21
149.9999999999998
 31
0.0
  0
LINE
  5
1B70
330
1B6C
100
AcDbEntity
  8
DIM
 62
     0
370
    -2
100
AcDbLine
 10
1475.0
 20
219.9999999999999
 30
0.0
 11
1475.0
 21
189.9999999999998
 31
0.0
  0
SOLID
  5
1B71
330
1B6C
100
AcDbEntity
  8
DIM
 62
     0
100
AcDbTrace
 10
1468.333333333333
 20
220.0
 30
0.0
 11
1481.666666666667
 21
219.9999999999999
 31
0.0
 12
1475.0
 22
260.0
 32
0.0
 13
1475.0
 23
260.0
 33
0.0
  0
SOLID
  5
1B72
330
1B6C
100
AcDbEntity
  8
DIM
 62
     0
100
AcDbTrace
 10
1468.333333333333
 20
189.9999999999998
 30
0.0
 11
1481.666666666667
 21
189.9999999999998
 31
0.0
 12
1475.0
 22
149.9999999999998
 32
0.0
 13
1475.0
 23
149.9999999999998
 33
0.0
  0
MTEXT
  5
1B73
330
1B6C
100
AcDbEntity
  8
DIM
 62
     0
100
AcDbMText
 10
1440.0
 20
205.0000000000002
 30
0.0
 40
40.0
 41
0.0
 71
     5
 72
     1
  1
110
 11
0.0000000000000001
 21
1.0
 31
0.0
 73
     1
 44
1.0
  0
POINT
  5
1B74
330
1B6C
100
AcDbEntity
  8
Defpoints
 62
     0
100
AcDbPoint
 10
1166.0
 20
260.0
 30
0.0
  0
POINT
  5
1B75
330
1B6C
100
AcDbEntity
  8
Defpoints
 62
     0
100
AcDbPoint
 10
1058.0
 20
150.0
 30
0.0
  0
POINT
  5
1B76
330
1B6C
100
AcDbEntity
  8
Defpoints
 62
     0
100
AcDbPoint
 10
1475.0
 20
149.9999999999998
 30
0.0
  0
ENDBLK
  5
1B77
330
1B6C
100
AcDbEntity
  8
0
100
AcDbBlockEnd
  0
BLOCK
  5
1B79
330
1B78
100
AcDbEntity
  8
0
100
AcDbBlockBegin
  2
*D94
 70
     1
 10
0.0
 20
0.0
 30
0.0
  3
*D94
  1

  0
LINE
  5
1B7A
330
1B78
100
AcDbEntity
  8
DIM
 62
     0
370
    -2
100
AcDbLine
 10
1236.0
 20
260.0
 30
0.0
 11
1655.0
 21
259.9999999999999
 31
0.0
  0
LINE
  5
1B7B
330
1B78
100
AcDbEntity
  8
DIM
 62
     0
370
    -2
100
AcDbLine
 10
1245.0
 20
-0.0000000000000198
 30
0.0
 11
1655.0
 21
-0.000000000000136
 31
0.0
  0
LINE
  5
1B7C
330
1B78
100
AcDbEntity
  8
DIM
 62
     0
370
    -2
100
AcDbLine
 10
1625.0
 20
219.9999999999999
 30
0.0
 11
1625.0
 21
39.99999999999987
 31
0.0
  0
SOLID
  5
1B7D
330
1B78
100
AcDbEntity
  8
DIM
 62
     0
100
AcDbTrace
 10
1618.333333333333
 20
219.9999999999999
 30
0.0
 11
1631.666666666666
 21
219.9999999999999
 31
0.0
 12
1625.0
 22
260.0
 32
0.0
 13
1625.0
 23
260.0
 33
0.0
  0
SOLID
  5
1B7E
330
1B78
100
AcDbEntity
  8
DIM
 62
     0
100
AcDbTrace
 10
1618.333333333333
 20
39.99999999999987
 30
0.0
 11
1631.666666666666
 21
39.99999999999987
 31
0.0
 12
1625.0
 22
-0.0000000000001275
 32
0.0
 13
1625.0
 23
-0.0000000000001275
 33
0.0
  0
MTEXT
  5
1B7F
330
1B78
100
AcDbEntity
  8
DIM
 62
     0
100
AcDbMText
 10
1589.996062992126
 20
130.0000000000002
 30
0.0
 40
40.0
 41
0.0
 71
     5
 72
     1
  1
260
 11
0.0000000000000001
 21
1.0
 31
0.0
 73
     1
 44
1.0
  0
POINT
  5
1B80
330
1B78
100
AcDbEntity
  8
Defpoints
 62
     0
100
AcDbPoint
 10
1166.0
 20
260.0
 30
0.0
  0
POINT
  5
1B81
330
1B78
100
AcDbEntity
  8
Defpoints
 62
     0
100
AcDbPoint
 10
1175.0
 20
0.0
 30
0.0
  0
POINT
  5
1B82
330
1B78
100
AcDbEntity
  8
Defpoints
 62
     0
100
AcDbPoint
 10
1625.0
 20
-0.0000000000001275
 30
0.0
  0
ENDBLK
  5
1B83
330
1B78
100
AcDbEntity
  8
0
100
AcDbBlockEnd
  0
BLOCK
  5
1B85
330
1B84
100
AcDbEntity
  8
0
100
AcDbBlockBegin
  2
*D95
 70
     1
 10
0.0
 20
0.0
 30
0.0
  3
*D95
  1

  0
LINE
  5
1B86
330
1B84
100
AcDbEntity
  8
DIM
 62
     0
370
    -2
100
AcDbLine
 10
1077.5
 20
360.0
 30
0.0
 11
1655.0
 21
359.9999999999998
 31
0.0
  0
LINE
  5
1B87
330
1B84
100
AcDbEntity
  8
DIM
 62
     0
370
    -2
100
AcDbLine
 10
1236.0
 20
260.0
 30
0.0
 11
1655.0
 21
259.9999999999999
 31
0.0
  0
LINE
  5
1B88
330
1B84
100
AcDbEntity
  8
DIM
 62
     0
370
    -2
100
AcDbLine
 10
1625.0
 20
399.9999999999998
 30
0.0
 11
1625.0
 21
439.9999999999998
 31
0.0
  0
LINE
  5
1B89
330
1B84
100
AcDbEntity
  8
DIM
 62
     0
370
    -2
100
AcDbLine
 10
1625.0
 20
219.9999999999999
 30
0.0
 11
1625.0
 21
179.9999999999999
 31
0.0
  0
SOLID
  5
1B8A
330
1B84
100
AcDbEntity
  8
DIM
 62
     0
100
AcDbTrace
 10
1618.333333333333
 20
399.9999999999998
 30
0.0
 11
1631.666666666667
 21
399.9999999999998
 31
0.0
 12
1625.0
 22
359.9999999999998
 32
0.0
 13
1625.0
 23
359.9999999999998
 33
0.0
  0
SOLID
  5
1B8B
330
1B84
100
AcDbEntity
  8
DIM
 62
     0
100
AcDbTrace
 10
1618.333333333333
 20
219.9999999999999
 30
0.0
 11
1631.666666666667
 21
219.9999999999999
 31
0.0
 12
1625.0
 22
260.0
 32
0.0
 13
1625.0
 23
260.0
 33
0.0
  0
MTEXT
  5
1B8C
330
1B84
100
AcDbEntity
  8
DIM
 62
     0
100
AcDbMText
 10
1590.0
 20
310.0000000000001
 30
0.0
 40
40.0
 41
0.0
 71
     5
 72
     1
  1
100
 11
0.0000000000000001
 21
1.0
 31
0.0
 73
     1
 44
1.0
  0
POINT
  5
1B8D
330
1B84
100
AcDbEntity
  8
Defpoints
 62
     0
100
AcDbPoint
 10
1007.5
 20
360.0
 30
0.0
  0
POINT
  5
1B8E
330
1B84
100
AcDbEntity
  8
Defpoints
 62
     0
100
AcDbPoint
 10
1166.0
 20
260.0
 30
0.0
  0
POINT
  5
1B8F
330
1B84
100
AcDbEntity
  8
Defpoints
 62
     0
100
AcDbPoint
 10
1625.0
 20
260.0
 30
0.0
  0
ENDBLK
  5
1B90
330
1B84
100
AcDbEntity
  8
0
100
AcDbBlockEnd
  0
BLOCK
  5
1B92
330
1B91
100
AcDbEntity
  8
0
100
AcDbBlockBegin
  2
*D96
 70
     1
 10
0.0
 20
0.0
 30
0.0
  3
*D96
  1

  0
LINE
  5
1B93
330
1B91
100
AcDbEntity
  8
DIM
 62
     0
370
    -2
100
AcDbLine
 10
1175.0
 20
321.0
 30
0.0
 11
1175.0
 21
690.0
 31
0.0
  0
LINE
  5
1B94
330
1B91
100
AcDbEntity
  8
DIM
 62
     0
370
    -2
100
AcDbLine
 10
0.0000000000000043
 20
321.0
 30
0.0
 11
0.0000000000000269
 21
690.0
 31
0.0
  0
LINE
  5
1B95
330
1B91
100
AcDbEntity
  8
DIM
 62
     0
370
    -2
100
AcDbLine
 10
1135.0
 20
660.0
 30
0.0
 11
40.00000000000002
 21
660.0
 31
0.0
  0
SOLID
  5
1B96
330
1B91
100
AcDbEntity
  8
DIM
 62
     0
100
AcDbTrace
 10
1135.0
 20
666.6666666666666
 30
0.0
 11
1135.0
 21
653.3333333333334
 31
0.0
 12
1175.0
 22
660.0
 32
0.0
 13
1175.0
 23
660.0
 33
0.0
  0
SOLID
  5
1B97
330
1B91
100
AcDbEntity
  8
DIM
 62
     0
100
AcDbTrace
 10
40.00000000000002
 20
666.6666666666666
 30
0.0
 11
40.00000000000002
 21
653.3333333333334
 31
0.0
 12
0.000000000000025
 22
660.0
 32
0.0
 13
0.000000000000025
 23
660.0
 33
0.0
  0
MTEXT
  5
1B98
330
1B91
100
AcDbEntity
  8
DIM
 62
     0
100
AcDbMText
 10
587.5
 20
695.0
 30
0.0
 40
40.0
 41
0.0
 71
     5
 72
     1
  1
1175
 73
     1
 44
1.0
  0
POINT
  5
1B99
330
1B91
100
AcDbEntity
  8
Defpoints
 62
     0
100
AcDbPoint
 10
1175.0
 20
251.0
 30
0.0
  0
POINT
  5
1B9A
330
1B91
100
AcDbEntity
  8
Defpoints
 62
     0
100
AcDbPoint
 10
0.0
 20
251.0
 30
0.0
  0
POINT
  5
1B9B
330
1B91
100
AcDbEntity
  8
Defpoints
 62
     0
100
AcDbPoint
 10
0.000000000000025
 20
660.0
 30
0.0
  0
ENDBLK
  5
1B9C
330
1B91
100
AcDbEntity
  8
0
100
AcDbBlockEnd
  0
BLOCK
  5
1B9E
330
1B9D
100
AcDbEntity
  8
0
100
AcDbBlockBegin
  2
*D97
 70
     1
 10
0.0
 20
0.0
 30
0.0
  3
*D97
  1

  0
LINE
  5
1B9F
330
1B9D
100
AcDbEntity
  8
DIM
 62
     0
370
    -2
100
AcDbLine
 10
269.761041800683
 20
225.0
 30
0.0
 11
247.7933483741342
 21
164.6442583530556
 31
0.0
  0
LINE
  5
1BA0
330
1B9D
100
AcDbEntity
  8
DIM
 62
     0
370
    -2
100
AcDbLine
 10
879.7610418006829
 20
225.0
 30
0.0
 11
857.7933483741341
 21
164.6442583530556
 31
0.0
  0
LINE
  5
1BA1
330
1B9D
100
AcDbEntity
  8
DIM
 62
     0
370
    -2
100
AcDbLine
 10
298.7124554021203
 20
194.6442583530556
 30
0.0
 11
828.7124554021202
 21
194.6442583530556
 31
0.0
  0
SOLID
  5
1BA2
330
1B9D
100
AcDbEntity
  8
DIM
 62
     0
100
AcDbTrace
 10
298.7124554021203
 20
201.3109250197223
 30
0.0
 11
298.7124554021203
 21
187.977591686389
 31
0.0
 12
258.7124554021203
 22
194.6442583530556
 32
0.0
 13
258.7124554021203
 23
194.6442583530556
 33
0.0
  0
SOLID
  5
1BA3
330
1B9D
100
AcDbEntity
  8
DIM
 62
     0
100
AcDbTrace
 10
828.7124554021202
 20
201.3109250197223
 30
0.0
 11
828.7124554021202
 21
187.977591686389
 31
0.0
 12
868.7124554021202
 22
194.6442583530556
 32
0.0
 13
868.7124554021202
 23
194.6442583530556
 33
0.0
  0
MTEXT
  5
1BA4
330
1B9D
100
AcDbEntity
  8
DIM
 62
     0
100
AcDbMText
 10
563.7124554021203
 20
229.6442583530557
 30
0.0
 40
40.0
 41
0.0
 71
     5
 72
     1
  1
610
 73
     1
 44
1.0
  0
POINT
  5
1BA5
330
1B9D
100
AcDbEntity
  8
Defpoints
 62
     0
100
AcDbPoint
 10
282.5
 20
260.0
 30
0.0
  0
POINT
  5
1BA6
330
1B9D
100
AcDbEntity
  8
Defpoints
 62
     0
100
AcDbPoint
 10
892.5
 20
260.0
 30
0.0
  0
POINT
  5
1BA7
330
1B9D
100
AcDbEntity
  8
Defpoints
 62
     0
100
AcDbPoint
 10
868.7124554021202
 20
194.6442583530556
 30
0.0
  0
ENDBLK
  5
1BA8
330
1B9D
100
AcDbEntity
  8
0
100
AcDbBlockEnd
  0
BLOCK
  5
1BED
330
1BE3
100
AcDbEntity
  8
0
100
AcDbBlockBegin
  2
*D99
 70
     1
 10
0.0
 20
0.0
 30
0.0
  3
*D99
  1

  0
LINE
  5
1CED
330
1BE3
100
AcDbEntity
  8
DIM
 62
     0
370
    -2
100
AcDbLine
 10
6507.011909017494
 20
4448.459624601273
 30
0.0
 11
6485.044215590946
 21
4388.103882954329
 31
0.0
  0
LINE
  5
1CEE
330
1BE3
100
AcDbEntity
  8
DIM
 62
     0
370
    -2
100
AcDbLine
 10
7117.011909017493
 20
4448.459624601273
 30
0.0
 11
7095.044215590945
 21
4388.103882954329
 31
0.0
  0
LINE
  5
1CEF
330
1BE3
100
AcDbEntity
  8
DIM
 62
     0
370
    -2
100
AcDbLine
 10
6535.963322618932
 20
4418.103882954329
 30
0.0
 11
7065.963322618931
 21
4418.103882954329
 31
0.0
  0
SOLID
  5
1CF0
330
1BE3
100
AcDbEntity
  8
DIM
 62
     0
100
AcDbTrace
 10
6535.963322618932
 20
4424.770549620997
 30
0.0
 11
6535.963322618932
 21
4411.437216287662
 31
0.0
 12
6495.963322618931
 22
4418.103882954329
 32
0.0
 13
6495.963322618931
 23
4418.103882954329
 33
0.0
  0
SOLID
  5
1CF1
330
1BE3
100
AcDbEntity
  8
DIM
 62
     0
100
AcDbTrace
 10
7065.963322618931
 20
4424.770549620997
 30
0.0
 11
7065.963322618931
 21
4411.437216287662
 31
0.0
 12
7105.963322618932
 22
4418.103882954329
 32
0.0
 13
7105.963322618932
 23
4418.103882954329
 33
0.0
  0
MTEXT
  5
1CF2
330
1BE3
100
AcDbEntity
  8
DIM
 62
     0
100
AcDbMText
 10
6800.963322618932
 20
4453.103882954329
 30
0.0
 40
40.0
 41
0.0
 71
     5
 72
     1
  1
610
 73
     1
 44
1.0
  0
POINT
  5
1CF3
330
1BE3
100
AcDbEntity
  8
Defpoints
 62
     0
100
AcDbPoint
 10
6519.750867216811
 20
4483.459624601273
 30
0.0
  0
POINT
  5
1CF4
330
1BE3
100
AcDbEntity
  8
Defpoints
 62
     0
100
AcDbPoint
 10
7129.750867216812
 20
4483.459624601273
 30
0.0
  0
POINT
  5
1CF5
330
1BE3
100
AcDbEntity
  8
Defpoints
 62
     0
100
AcDbPoint
 10
7105.963322618932
 20
4418.103882954329
 30
0.0
  0
ENDBLK
  5
1BEE
330
1BE3
100
AcDbEntity
  8
0
100
AcDbBlockEnd
  0
BLOCK
  5
1BF9
330
1BEF
100
AcDbEntity
  8
0
100
AcDbBlockBegin
  2
*D100
 70
     1
 10
0.0
 20
0.0
 30
0.0
  3
*D100
  1

  0
LINE
  5
1CE4
330
1BEF
100
AcDbEntity
  8
DIM
 62
     0
370
    -2
100
AcDbLine
 10
7412.250867216811
 20
4544.459624601273
 30
0.0
 11
7412.250867216811
 21
4913.459624601273
 31
0.0
  0
LINE
  5
1CE5
330
1BEF
100
AcDbEntity
  8
DIM
 62
     0
370
    -2
100
AcDbLine
 10
6237.250867216811
 20
4544.459624601273
 30
0.0
 11
6237.250867216811
 21
4913.459624601273
 31
0.0
  0
LINE
  5
1CE6
330
1BEF
100
AcDbEntity
  8
DIM
 62
     0
370
    -2
100
AcDbLine
 10
7372.250867216812
 20
4883.459624601274
 30
0.0
 11
6277.250867216811
 21
4883.459624601274
 31
0.0
  0
SOLID
  5
1CE7
330
1BEF
100
AcDbEntity
  8
DIM
 62
     0
100
AcDbTrace
 10
7372.250867216812
 20
4890.12629126794
 30
0.0
 11
7372.250867216812
 21
4876.792957934607
 31
0.0
 12
7412.250867216811
 22
4883.459624601274
 32
0.0
 13
7412.250867216811
 23
4883.459624601274
 33
0.0
  0
SOLID
  5
1CE8
330
1BEF
100
AcDbEntity
  8
DIM
 62
     0
100
AcDbTrace
 10
6277.250867216811
 20
4890.12629126794
 30
0.0
 11
6277.250867216811
 21
4876.792957934607
 31
0.0
 12
6237.250867216811
 22
4883.459624601274
 32
0.0
 13
6237.250867216811
 23
4883.459624601274
 33
0.0
  0
MTEXT
  5
1CE9
330
1BEF
100
AcDbEntity
  8
DIM
 62
     0
100
AcDbMText
 10
6824.750867216811
 20
4918.459624601274
 30
0.0
 40
40.0
 41
0.0
 71
     5
 72
     1
  1
1175
 73
     1
 44
1.0
  0
POINT
  5
1CEA
330
1BEF
100
AcDbEntity
  8
Defpoints
 62
     0
100
AcDbPoint
 10
7412.250867216811
 20
4474.459624601273
 30
0.0
  0
POINT
  5
1CEB
330
1BEF
100
AcDbEntity
  8
Defpoints
 62
     0
100
AcDbPoint
 10
6237.250867216811
 20
4474.459624601273
 30
0.0
  0
POINT
  5
1CEC
330
1BEF
100
AcDbEntity
  8
Defpoints
 62
     0
100
AcDbPoint
 10
6237.250867216811
 20
4883.459624601274
 30
0.0
  0
ENDBLK
  5
1BFA
330
1BEF
100
AcDbEntity
  8
0
100
AcDbBlockEnd
  0
BLOCK
  5
1C06
330
1BFB
100
AcDbEntity
  8
0
100
AcDbBlockBegin
  2
*D101
 70
     1
 10
0.0
 20
0.0
 30
0.0
  3
*D101
  1

  0
LINE
  5
1CDA
330
1BFB
100
AcDbEntity
  8
DIM
 62
     0
370
    -2
100
AcDbLine
 10
7314.750867216812
 20
4583.459624601274
 30
0.0
 11
7892.250867216812
 21
4583.459624601274
 31
0.0
  0
LINE
  5
1CDB
330
1BFB
100
AcDbEntity
  8
DIM
 62
     0
370
    -2
100
AcDbLine
 10
7473.250867216812
 20
4483.459624601273
 30
0.0
 11
7892.250867216812
 21
4483.459624601273
 31
0.0
  0
LINE
  5
1CDC
330
1BFB
100
AcDbEntity
  8
DIM
 62
     0
370
    -2
100
AcDbLine
 10
7862.250867216811
 20
4623.459624601273
 30
0.0
 11
7862.250867216811
 21
4663.459624601273
 31
0.0
  0
LINE
  5
1CDD
330
1BFB
100
AcDbEntity
  8
DIM
 62
     0
370
    -2
100
AcDbLine
 10
7862.250867216811
 20
4443.459624601273
 30
0.0
 11
7862.250867216811
 21
4403.459624601273
 31
0.0
  0
SOLID
  5
1CDE
330
1BFB
100
AcDbEntity
  8
DIM
 62
     0
100
AcDbTrace
 10
7855.584200550144
 20
4623.459624601273
 30
0.0
 11
7868.917533883479
 21
4623.459624601273
 31
0.0
 12
7862.250867216811
 22
4583.459624601274
 32
0.0
 13
7862.250867216811
 23
4583.459624601274
 33
0.0
  0
SOLID
  5
1CDF
330
1BFB
100
AcDbEntity
  8
DIM
 62
     0
100
AcDbTrace
 10
7855.584200550144
 20
4443.459624601273
 30
0.0
 11
7868.917533883479
 21
4443.459624601273
 31
0.0
 12
7862.250867216811
 22
4483.459624601273
 32
0.0
 13
7862.250867216811
 23
4483.459624601273
 33
0.0
  0
MTEXT
  5
1CE0
330
1BFB
100
AcDbEntity
  8
DIM
 62
     0
100
AcDbMText
 10
7827.25086721681
 20
4533.459624601274
 30
0.0
 40
40.0
 41
0.0
 71
     5
 72
     1
  1
100
 11
0.0000000000000001
 21
1.0
 31
0.0
 73
     1
 44
1.0
  0
POINT
  5
1CE1
330
1BFB
100
AcDbEntity
  8
Defpoints
 62
     0
100
AcDbPoint
 10
7244.750867216811
 20
4583.459624601274
 30
0.0
  0
POINT
  5
1CE2
330
1BFB
100
AcDbEntity
  8
Defpoints
 62
     0
100
AcDbPoint
 10
7403.250867216812
 20
4483.459624601273
 30
0.0
  0
POINT
  5
1CE3
330
1BFB
100
AcDbEntity
  8
Defpoints
 62
     0
100
AcDbPoint
 10
7862.250867216811
 20
4483.459624601273
 30
0.0
  0
ENDBLK
  5
1C07
330
1BFB
100
AcDbEntity
  8
0
100
AcDbBlockEnd
  0
BLOCK
  5
1C12
330
1C08
100
AcDbEntity
  8
0
100
AcDbBlockBegin
  2
*D102
 70
     1
 10
0.0
 20
0.0
 30
0.0
  3
*D102
  1

  0
LINE
  5
1CD1
330
1C08
100
AcDbEntity
  8
DIM
 62
     0
370
    -2
100
AcDbLine
 10
7473.250867216812
 20
4483.459624601273
 30
0.0
 11
7892.250867216812
 21
4483.459624601273
 31
0.0
  0
LINE
  5
1CD2
330
1C08
100
AcDbEntity
  8
DIM
 62
     0
370
    -2
100
AcDbLine
 10
7482.250867216811
 20
4223.459624601273
 30
0.0
 11
7892.250867216812
 21
4223.459624601273
 31
0.0
  0
LINE
  5
1CD3
330
1C08
100
AcDbEntity
  8
DIM
 62
     0
370
    -2
100
AcDbLine
 10
7862.250867216811
 20
4443.459624601273
 30
0.0
 11
7862.250867216811
 21
4263.459624601273
 31
0.0
  0
SOLID
  5
1CD4
330
1C08
100
AcDbEntity
  8
DIM
 62
     0
100
AcDbTrace
 10
7855.584200550144
 20
4443.459624601273
 30
0.0
 11
7868.917533883479
 21
4443.459624601273
 31
0.0
 12
7862.250867216811
 22
4483.459624601273
 32
0.0
 13
7862.250867216811
 23
4483.459624601273
 33
0.0
  0
SOLID
  5
1CD5
330
1C08
100
AcDbEntity
  8
DIM
 62
     0
100
AcDbTrace
 10
7855.584200550144
 20
4263.459624601273
 30
0.0
 11
7868.917533883479
 21
4263.459624601273
 31
0.0
 12
7862.250867216811
 22
4223.459624601273
 32
0.0
 13
7862.250867216811
 23
4223.459624601273
 33
0.0
  0
MTEXT
  5
1CD6
330
1C08
100
AcDbEntity
  8
DIM
 62
     0
100
AcDbMText
 10
7827.246930208936
 20
4353.459624601274
 30
0.0
 40
40.0
 41
0.0
 71
     5
 72
     1
  1
260
 11
0.0000000000000001
 21
1.0
 31
0.0
 73
     1
 44
1.0
  0
POINT
  5
1CD7
330
1C08
100
AcDbEntity
  8
Defpoints
 62
     0
100
AcDbPoint
 10
7403.250867216812
 20
4483.459624601273
 30
0.0
  0
POINT
  5
1CD8
330
1C08
100
AcDbEntity
  8
Defpoints
 62
     0
100
AcDbPoint
 10
7412.250867216811
 20
4223.459624601273
 30
0.0
  0
POINT
  5
1CD9
330
1C08
100
AcDbEntity
  8
Defpoints
 62
     0
100
AcDbPoint
 10
7862.250867216811
 20
4223.459624601273
 30
0.0
  0
ENDBLK
  5
1C13
330
1C08
100
AcDbEntity
  8
0
100
AcDbBlockEnd
  0
BLOCK
  5
1C1E
330
1C14
100
AcDbEntity
  8
0
100
AcDbBlockBegin
  2
*D103
 70
     1
 10
0.0
 20
0.0
 30
0.0
  3
*D103
  1

  0
LINE
  5
1CC7
330
1C14
100
AcDbEntity
  8
DIM
 62
     0
370
    -2
100
AcDbLine
 10
7473.250867216812
 20
4483.459624601273
 30
0.0
 11
7742.250867216812
 21
4483.459624601273
 31
0.0
  0
LINE
  5
1CC8
330
1C14
100
AcDbEntity
  8
DIM
 62
     0
370
    -2
100
AcDbLine
 10
7365.250867216811
 20
4373.459624601273
 30
0.0
 11
7742.250867216812
 21
4373.459624601273
 31
0.0
  0
LINE
  5
1CC9
330
1C14
100
AcDbEntity
  8
DIM
 62
     0
370
    -2
100
AcDbLine
 10
7712.250867216811
 20
4523.459624601273
 30
0.0
 11
7712.250867216811
 21
4563.459624601273
 31
0.0
  0
LINE
  5
1CCA
330
1C14
100
AcDbEntity
  8
DIM
 62
     0
370
    -2
100
AcDbLine
 10
7712.250867216811
 20
4333.459624601274
 30
0.0
 11
7712.250867216811
 21
4293.459624601274
 31
0.0
  0
SOLID
  5
1CCB
330
1C14
100
AcDbEntity
  8
DIM
 62
     0
100
AcDbTrace
 10
7705.584200550145
 20
4523.459624601273
 30
0.0
 11
7718.917533883479
 21
4523.459624601273
 31
0.0
 12
7712.250867216811
 22
4483.459624601273
 32
0.0
 13
7712.250867216811
 23
4483.459624601273
 33
0.0
  0
SOLID
  5
1CCC
330
1C14
100
AcDbEntity
  8
DIM
 62
     0
100
AcDbTrace
 10
7705.584200550145
 20
4333.459624601274
 30
0.0
 11
7718.917533883479
 21
4333.459624601274
 31
0.0
 12
7712.250867216811
 22
4373.459624601273
 32
0.0
 13
7712.250867216811
 23
4373.459624601273
 33
0.0
  0
MTEXT
  5
1CCD
330
1C14
100
AcDbEntity
  8
DIM
 62
     0
100
AcDbMText
 10
7677.25086721681
 20
4428.459624601274
 30
0.0
 40
40.0
 41
0.0
 71
     5
 72
     1
  1
110
 11
0.0000000000000001
 21
1.0
 31
0.0
 73
     1
 44
1.0
  0
POINT
  5
1CCE
330
1C14
100
AcDbEntity
  8
Defpoints
 62
     0
100
AcDbPoint
 10
7403.250867216812
 20
4483.459624601273
 30
0.0
  0
POINT
  5
1CCF
330
1C14
100
AcDbEntity
  8
Defpoints
 62
     0
100
AcDbPoint
 10
7295.250867216812
 20
4373.459624601273
 30
0.0
  0
POINT
  5
1CD0
330
1C14
100
AcDbEntity
  8
Defpoints
 62
     0
100
AcDbPoint
 10
7712.250867216811
 20
4373.459624601273
 30
0.0
  0
ENDBLK
  5
1C1F
330
1C14
100
AcDbEntity
  8
0
100
AcDbBlockEnd
  0
BLOCK
  5
1C2A
330
1C20
100
AcDbEntity
  8
0
100
AcDbBlockBegin
  2
*D104
 70
     1
 10
0.0
 20
0.0
 30
0.0
  3
*D104
  1

  0
LINE
  5
1CBE
330
1C20
100
AcDbEntity
  8
DIM
 62
     0
370
    -2
100
AcDbLine
 10
7365.250867216811
 20
4373.459624601273
 30
0.0
 11
7742.250867216812
 21
4373.459624601273
 31
0.0
  0
LINE
  5
1CBF
330
1C20
100
AcDbEntity
  8
DIM
 62
     0
370
    -2
100
AcDbLine
 10
7482.250867216811
 20
4223.459624601273
 30
0.0
 11
7742.250867216812
 21
4223.459624601273
 31
0.0
  0
LINE
  5
1CC0
330
1C20
100
AcDbEntity
  8
DIM
 62
     0
370
    -2
100
AcDbLine
 10
7712.250867216811
 20
4333.459624601274
 30
0.0
 11
7712.250867216811
 21
4263.459624601273
 31
0.0
  0
SOLID
  5
1CC1
330
1C20
100
AcDbEntity
  8
DIM
 62
     0
100
AcDbTrace
 10
7705.584200550145
 20
4333.459624601274
 30
0.0
 11
7718.917533883479
 21
4333.459624601274
 31
0.0
 12
7712.250867216811
 22
4373.459624601273
 32
0.0
 13
7712.250867216811
 23
4373.459624601273
 33
0.0
  0
SOLID
  5
1CC2
330
1C20
100
AcDbEntity
  8
DIM
 62
     0
100
AcDbTrace
 10
7705.584200550145
 20
4263.459624601273
 30
0.0
 11
7718.917533883479
 21
4263.459624601273
 31
0.0
 12
7712.250867216811
 22
4223.459624601273
 32
0.0
 13
7712.250867216811
 23
4223.459624601273
 33
0.0
  0
MTEXT
  5
1CC3
330
1C20
100
AcDbEntity
  8
DIM
 62
     0
100
AcDbMText
 10
7677.25086721681
 20
4298.459624601274
 30
0.0
 40
40.0
 41
0.0
 71
     5
 72
     1
  1
150
 11
0.0000000000000001
 21
1.0
 31
0.0
 73
     1
 44
1.0
  0
POINT
  5
1CC4
330
1C20
100
AcDbEntity
  8
Defpoints
 62
     0
100
AcDbPoint
 10
7295.250867216812
 20
4373.459624601273
 30
0.0
  0
POINT
  5
1CC5
330
1C20
100
AcDbEntity
  8
Defpoints
 62
     0
100
AcDbPoint
 10
7412.250867216811
 20
4223.459624601273
 30
0.0
  0
POINT
  5
1CC6
330
1C20
100
AcDbEntity
  8
Defpoints
 62
     0
100
AcDbPoint
 10
7712.250867216811
 20
4223.459624601273
 30
0.0
  0
ENDBLK
  5
1C2B
330
1C20
100
AcDbEntity
  8
0
100
AcDbBlockEnd
  0
BLOCK
  5
1C36
330
1C2C
100
AcDbEntity
  8
0
100
AcDbBlockBegin
  2
*D105
 70
     1
 10
0.0
 20
0.0
 30
0.0
  3
*D105
  1

  0
LINE
  5
1CB5
330
1C2C
100
AcDbEntity
  8
DIM
 62
     0
370
    -2
100
AcDbLine
 10
6524.750867216811
 20
4653.459624601273
 30
0.0
 11
6524.750867216811
 21
4763.459624601273
 31
0.0
  0
LINE
  5
1CB6
330
1C2C
100
AcDbEntity
  8
DIM
 62
     0
370
    -2
100
AcDbLine
 10
6389.750867216811
 20
4638.459624601273
 30
0.0
 11
6389.750867216811
 21
4763.459624601273
 31
0.0
  0
LINE
  5
1CB7
330
1C2C
100
AcDbEntity
  8
DIM
 62
     0
370
    -2
100
AcDbLine
 10
6484.750867216812
 20
4733.459624601273
 30
0.0
 11
6429.750867216812
 21
4733.459624601273
 31
0.0
  0
SOLID
  5
1CB8
330
1C2C
100
AcDbEntity
  8
DIM
 62
     0
100
AcDbTrace
 10
6484.750867216812
 20
4740.12629126794
 30
0.0
 11
6484.750867216812
 21
4726.792957934606
 31
0.0
 12
6524.750867216811
 22
4733.459624601273
 32
0.0
 13
6524.750867216811
 23
4733.459624601273
 33
0.0
  0
SOLID
  5
1CB9
330
1C2C
100
AcDbEntity
  8
DIM
 62
     0
100
AcDbTrace
 10
6429.750867216812
 20
4740.12629126794
 30
0.0
 11
6429.750867216812
 21
4726.792957934606
 31
0.0
 12
6389.750867216811
 22
4733.459624601273
 32
0.0
 13
6389.750867216811
 23
4733.459624601273
 33
0.0
  0
MTEXT
  5
1CBA
330
1C2C
100
AcDbEntity
  8
DIM
 62
     0
100
AcDbMText
 10
6457.250867216811
 20
4768.459624601273
 30
0.0
 40
40.0
 41
0.0
 71
     5
 72
     1
  1
135
 73
     1
 44
1.0
  0
POINT
  5
1CBB
330
1C2C
100
AcDbEntity
  8
Defpoints
 62
     0
100
AcDbPoint
 10
6524.750867216811
 20
4583.459624601274
 30
0.0
  0
POINT
  5
1CBC
330
1C2C
100
AcDbEntity
  8
Defpoints
 62
     0
100
AcDbPoint
 10
6389.750867216811
 20
4568.459624601273
 30
0.0
  0
POINT
  5
1CBD
330
1C2C
100
AcDbEntity
  8
Defpoints
 62
     0
100
AcDbPoint
 10
6389.750867216811
 20
4733.459624601273
 30
0.0
  0
ENDBLK
  5
1C37
330
1C2C
100
AcDbEntity
  8
0
100
AcDbBlockEnd
  0
BLOCK
  5
1C42
330
1C38
100
AcDbEntity
  8
0
100
AcDbBlockBegin
  2
*D106
 70
     1
 10
0.0
 20
0.0
 30
0.0
  3
*D106
  1

  0
LINE
  5
1CAC
330
1C38
100
AcDbEntity
  8
DIM
 62
     0
370
    -2
100
AcDbLine
 10
6524.750867216811
 20
4653.459624601273
 30
0.0
 11
6524.750867216811
 21
4763.459624601273
 31
0.0
  0
LINE
  5
1CAD
330
1C38
100
AcDbEntity
  8
DIM
 62
     0
370
    -2
100
AcDbLine
 10
7124.75086721681
 20
4653.459624601273
 30
0.0
 11
7124.75086721681
 21
4763.459624601273
 31
0.0
  0
LINE
  5
1CAE
330
1C38
100
AcDbEntity
  8
DIM
 62
     0
370
    -2
100
AcDbLine
 10
6564.750867216812
 20
4733.459624601273
 30
0.0
 11
7084.750867216811
 21
4733.459624601273
 31
0.0
  0
SOLID
  5
1CAF
330
1C38
100
AcDbEntity
  8
DIM
 62
     0
100
AcDbTrace
 10
6564.750867216812
 20
4740.12629126794
 30
0.0
 11
6564.750867216812
 21
4726.792957934606
 31
0.0
 12
6524.750867216811
 22
4733.459624601273
 32
0.0
 13
6524.750867216811
 23
4733.459624601273
 33
0.0
  0
SOLID
  5
1CB0
330
1C38
100
AcDbEntity
  8
DIM
 62
     0
100
AcDbTrace
 10
7084.750867216811
 20
4740.12629126794
 30
0.0
 11
7084.750867216811
 21
4726.792957934606
 31
0.0
 12
7124.75086721681
 22
4733.459624601273
 32
0.0
 13
7124.75086721681
 23
4733.459624601273
 33
0.0
  0
MTEXT
  5
1CB1
330
1C38
100
AcDbEntity
  8
DIM
 62
     0
100
AcDbMText
 10
6836.505996698766
 20
4768.459624601273
 30
0.0
 40
40.0
 41
0.0
 71
     5
 72
     1
  1
600
 73
     1
 44
1.0
  0
POINT
  5
1CB2
330
1C38
100
AcDbEntity
  8
Defpoints
 62
     0
100
AcDbPoint
 10
6524.750867216811
 20
4583.459624601274
 30
0.0
  0
POINT
  5
1CB3
330
1C38
100
AcDbEntity
  8
Defpoints
 62
     0
100
AcDbPoint
 10
7124.75086721681
 20
4583.459624601274
 30
0.0
  0
POINT
  5
1CB4
330
1C38
100
AcDbEntity
  8
Defpoints
 62
     0
100
AcDbPoint
 10
7124.75086721681
 20
4733.459624601273
 30
0.0
  0
ENDBLK
  5
1C43
330
1C38
100
AcDbEntity
  8
0
100
AcDbBlockEnd
  0
BLOCK
  5
1C4E
330
1C44
100
AcDbEntity
  8
0
100
AcDbBlockBegin
  2
*D107
 70
     1
 10
0.0
 20
0.0
 30
0.0
  3
*D107
  1

  0
LINE
  5
1CA3
330
1C44
100
AcDbEntity
  8
DIM
 62
     0
370
    -2
100
AcDbLine
 10
7124.75086721681
 20
4653.459624601273
 30
0.0
 11
7124.75086721681
 21
4763.459624601273
 31
0.0
  0
LINE
  5
1CA4
330
1C44
100
AcDbEntity
  8
DIM
 62
     0
370
    -2
100
AcDbLine
 10
7259.750867216812
 20
4638.459624601273
 30
0.0
 11
7259.750867216812
 21
4763.459624601273
 31
0.0
  0
LINE
  5
1CA5
330
1C44
100
AcDbEntity
  8
DIM
 62
     0
370
    -2
100
AcDbLine
 10
7164.750867216811
 20
4733.459624601273
 30
0.0
 11
7219.750867216811
 21
4733.459624601273
 31
0.0
  0
SOLID
  5
1CA6
330
1C44
100
AcDbEntity
  8
DIM
 62
     0
100
AcDbTrace
 10
7164.750867216811
 20
4740.12629126794
 30
0.0
 11
7164.750867216811
 21
4726.792957934606
 31
0.0
 12
7124.75086721681
 22
4733.459624601273
 32
0.0
 13
7124.75086721681
 23
4733.459624601273
 33
0.0
  0
SOLID
  5
1CA7
330
1C44
100
AcDbEntity
  8
DIM
 62
     0
100
AcDbTrace
 10
7219.750867216811
 20
4740.12629126794
 30
0.0
 11
7219.750867216811
 21
4726.792957934606
 31
0.0
 12
7259.750867216812
 22
4733.459624601273
 32
0.0
 13
7259.750867216812
 23
4733.459624601273
 33
0.0
  0
MTEXT
  5
1CA8
330
1C44
100
AcDbEntity
  8
DIM
 62
     0
100
AcDbMText
 10
7192.250867216812
 20
4768.459624601273
 30
0.0
 40
40.0
 41
0.0
 71
     5
 72
     1
  1
135
 73
     1
 44
1.0
  0
POINT
  5
1CA9
330
1C44
100
AcDbEntity
  8
Defpoints
 62
     0
100
AcDbPoint
 10
7124.75086721681
 20
4583.459624601274
 30
0.0
  0
POINT
  5
1CAA
330
1C44
100
AcDbEntity
  8
Defpoints
 62
     0
100
AcDbPoint
 10
7259.750867216812
 20
4568.459624601273
 30
0.0
  0
POINT
  5
1CAB
330
1C44
100
AcDbEntity
  8
Defpoints
 62
     0
100
AcDbPoint
 10
7259.750867216812
 20
4733.459624601273
 30
0.0
  0
ENDBLK
  5
1C4F
330
1C44
100
AcDbEntity
  8
0
100
AcDbBlockEnd
  0
ENDSEC
  0
SECTION
  2
ENTITIES
  0
LINE
  5
5BF
330
1F
100
AcDbEntity
  8
CENTER
 48
5.0
100
AcDbLine
 10
997.2440349961699
 20
2975.031741326356
 30
0.0
 11
4592.244034996169
 21
2975.031741326355
 31
0.0
  0
LINE
  5
5C0
330
1F
100
AcDbEntity
  8
CENTER
 48
5.0
100
AcDbLine
 10
2794.74403499617
 20
4772.531741326354
 30
0.0
 11
2794.74403499617
 21
1177.531741326355
 31
0.0
  0
TEXT
  5
658
330
1F
100
AcDbEntity
  8
TXT
 48
5.0
100
AcDbText
 10
5973.333333333333
 20
1270.0
 30
0.0
 40
100.0
  1
削孔数
 72
     4
 11
6140.0
 21
1320.0
 31
0.0
100
AcDbText
  0
TEXT
  5
659
330
1F
100
AcDbEntity
  8
TXT
 48
5.0
100
AcDbText
 10
5952.5
 20
1830.0
 30
0.0
 40
100.0
  1
製品No
 72
     4
 11
6140.0
 21
1880.0
 31
0.0
100
AcDbText
  0
TEXT
  5
65A
330
1F
100
AcDbEntity
  8
TXT
 48
5.0
100
AcDbText
 10
5976.666666666667
 20
1970.0
 30
0.0
 40
100.0
  1
工事名
 72
     4
 11
6140.0
 21
2020.0
 31
0.0
100
AcDbText
  0
TEXT
  5
65B
330
1F
100
AcDbEntity
  8
TXT
 48
5.0
100
AcDbText
 10
5976.666666666667
 20
2110.0
 30
0.0
 40
100.0
  1
業者名
 72
     4
 11
6140.0
 21
2160.0
 31
0.0
100
AcDbText
  0
TEXT
  5
65F
330
1F
100
AcDbEntity
  8
TXT
 48
5.0
100
AcDbText
 10
5973.333333333333
 20
1690.0
 30
0.0
 40
100.0
  1
蓋荷重
 72
     4
 11
6140.0
 21
1740.0
 31
0.0
100
AcDbText
  0
LWPOLYLINE
  5
660
330
1F
100
AcDbEntity
  8
TXT
100
AcDbPolyline
 90
        2
 70
     0
 43
0.0
 10
5890.0
 20
830.0
 10
5890.0
 20
690.0
  0
LWPOLYLINE
  5
661
330
1F
100
AcDbEntity
  8
TXT
100
AcDbPolyline
 90
        3
 70
     0
 43
0.0
 10
5890.0
 20
970.0
 10
5890.0
 20
970.0
 10
5890.0
 20
830.0
  0
TEXT
  5
662
330
1F
100
AcDbEntity
  8
TXT
 48
5.0
100
AcDbText
 10
7159.688653826011
 20
1129.975832049015
 30
0.0
 40
100.0
  1
φ 90　　　　個
 72
     4
 11
7616.53003701739
 21
1180.0
 31
0.0
100
AcDbText
  0
TEXT
  5
663
330
1F
100
AcDbEntity
  8
TXT
 48
5.0
100
AcDbText
 10
7164.863370350724
 20
990.0
 30
0.0
 40
100.0
  1
φ100　　　　個
 72
     4
 11
7616.53003701739
 21
1040.0
 31
0.0
100
AcDbText
  0
TEXT
  5
664
330
1F
100
AcDbEntity
  8
TXT
 48
5.0
100
AcDbText
 10
7164.863370350724
 20
849.990157480315
 30
0.0
 40
100.0
  1
φ120　　　　個
 72
     4
 11
7616.53003701739
 21
900.0
 31
0.0
100
AcDbText
  0
TEXT
  5
665
330
1F
100
AcDbEntity
  8
TXT
 48
5.0
100
AcDbText
 10
7164.863370350724
 20
710.0
 30
0.0
 40
100.0
  1
φ150　　　　個
 72
     4
 11
7616.53003701739
 21
760.0
 31
0.0
100
AcDbText
  0
TEXT
  5
666
330
1F
100
AcDbEntity
  8
TXT
 48
5.0
100
AcDbText
 10
7154.863370350724
 20
569.990157480315
 30
0.0
 40
100.0
  1
φ206　　　　個
 72
     4
 11
7616.53003701739
 21
620.0
 31
0.0
100
AcDbText
  0
LINE
  5
667
330
1F
100
AcDbEntity
  8
TXT
100
AcDbLine
 10
6650.0
 20
1390.0
 30
0.0
 11
7650.0
 21
1390.0
 31
0.0
  0
LINE
  5
669
330
1F
100
AcDbEntity
  8
TXT
100
AcDbLine
 10
7650.0
 20
1810.0
 30
0.0
 11
5890.0
 21
1810.0
 31
0.0
  0
LINE
  5
66A
330
1F
100
AcDbEntity
  8
TXT
100
AcDbLine
 10
5890.0
 20
1810.0
 30
0.0
 11
5890.0
 21
1390.0
 31
0.0
  0
LINE
  5
66B
330
1F
100
AcDbEntity
  8
TXT
100
AcDbLine
 10
6650.0
 20
1250.0
 30
0.0
 11
7650.0
 21
1250.0
 31
0.0
  0
LINE
  5
66D
330
1F
100
AcDbEntity
  8
TXT
100
AcDbLine
 10
8150.0
 20
1390.0
 30
0.0
 11
6390.0
 21
1390.0
 31
0.0
  0
LINE
  5
66E
330
1F
100
AcDbEntity
  8
TXT
100
AcDbLine
 10
5890.0
 20
1390.0
 30
0.0
 11
5890.0
 21
1250.0
 31
0.0
  0
LINE
  5
66F
330
1F
100
AcDbEntity
  8
TXT
100
AcDbLine
 10
6650.0
 20
1110.0
 30
0.0
 11
7650.0
 21
1110.0
 31
0.0
  0
LINE
  5
671
330
1F
100
AcDbEntity
  8
TXT
100
AcDbLine
 10
8150.0
 20
1250.0
 30
0.0
 11
6390.0
 21
1250.0
 31
0.0
  0
LINE
  5
672
330
1F
100
AcDbEntity
  8
TXT
100
AcDbLine
 10
5890.0
 20
1250.0
 30
0.0
 11
5890.0
 21
1110.0
 31
0.0
  0
LINE
  5
673
330
1F
100
AcDbEntity
  8
TXT
100
AcDbLine
 10
6390.0
 20
970.0
 30
0.0
 11
7650.0
 21
970.0
 31
0.0
  0
LINE
  5
675
330
1F
100
AcDbEntity
  8
TXT
100
AcDbLine
 10
8150.0
 20
1110.0
 30
0.0
 11
6390.0
 21
1110.0
 31
0.0
  0
LINE
  5
676
330
1F
100
AcDbEntity
  8
TXT
100
AcDbLine
 10
5890.0
 20
1110.0
 30
0.0
 11
5890.0
 21
970.0
 31
0.0
  0
LINE
  5
677
330
1F
100
AcDbEntity
  8
TXT
100
AcDbLine
 10
5890.0
 20
690.0
 30
0.0
 11
5890.0
 21
550.0
 31
0.0
  0
LINE
  5
678
330
1F
100
AcDbEntity
  8
TXT
100
AcDbLine
 10
5890.0
 20
550.0
 30
0.0
 11
7650.0
 21
550.0
 31
0.0
  0
LINE
  5
67A
330
1F
100
AcDbEntity
  8
TXT
100
AcDbLine
 10
7650.0
 20
690.0
 30
0.0
 11
6390.0
 21
690.0
 31
0.0
  0
LINE
  5
67B
330
1F
100
AcDbEntity
  8
TXT
100
AcDbLine
 10
6390.0
 20
690.0
 30
0.0
 11
8150.0
 21
690.0
 31
0.0
  0
LINE
  5
67D
330
1F
100
AcDbEntity
  8
TXT
100
AcDbLine
 10
7650.0
 20
830.0
 30
0.0
 11
6390.0
 21
830.0
 31
0.0
  0
CIRCLE
  5
67F
330
1F
100
AcDbEntity
  8
TXT
 48
5.0
100
AcDbCircle
 10
7820.0
 20
440.0
 30
0.0
 40
75.0
  0
TEXT
  5
680
330
1F
100
AcDbEntity
  8
TXT
 48
5.0
100
AcDbText
 10
7756.984251968503
 20
416.2401574803149
 30
0.0
 40
50.0
  1
φ150
 41
0.8
 72
     4
 11
7820.0
 21
440.0
 31
0.0
100
AcDbText
  0
CIRCLE
  5
687
330
1F
100
AcDbEntity
  8
TXT
 48
5.0
100
AcDbCircle
 10
7600.0
 20
440.0
 30
0.0
 40
60.0
  0
TEXT
  5
688
330
1F
100
AcDbEntity
  8
TXT
 48
5.0
100
AcDbText
 10
7536.984251968504
 20
419.9960629921259
 30
0.0
 40
40.0
  1
φ120
 72
     4
 11
7600.0
 21
440.0
 31
0.0
100
AcDbText
  0
CIRCLE
  5
689
330
1F
100
AcDbEntity
  8
TXT
 48
5.0
100
AcDbCircle
 10
7380.0
 20
440.0
 30
0.0
 40
50.0
  0
TEXT
  5
68A
330
1F
100
AcDbEntity
  8
TXT
 48
5.0
100
AcDbText
 10
7330.375098425196
 20
418.6161417322834
 30
0.0
 40
45.0
  1
φ100
 41
0.7
 72
     4
 11
7380.0
 21
440.0
 31
0.0
100
AcDbText
  0
TEXT
  5
68B
330
1F
100
AcDbEntity
  8
TXT
 48
5.0
100
AcDbText
 10
7118.195062719912
 20
418.6052661543404
 30
0.0
 40
45.0
  1
φ90
 41
0.7
 72
     4
 11
7160.0
 21
440.0
 31
0.0
100
AcDbText
  0
CIRCLE
  5
68C
330
1F
100
AcDbEntity
  8
TXT
 48
5.0
100
AcDbCircle
 10
7160.0
 20
440.0
 30
0.0
 40
45.0
  0
TEXT
  5
68D
330
1F
100
AcDbEntity
  8
TXT
 48
5.0
100
AcDbText
 10
6917.937598425196
 20
417.4999999999999
 30
0.0
 40
45.0
  1
80
 41
0.7
 72
     4
 11
6940.0
 21
440.0
 31
0.0
100
AcDbText
  0
CIRCLE
  5
68E
330
1F
100
AcDbEntity
  8
TXT
 48
5.0
100
AcDbCircle
 10
6940.0
 20
440.0
 30
0.0
 40
40.0
  0
CIRCLE
  5
68F
330
1F
100
AcDbEntity
  8
TXT
 48
5.0
100
AcDbCircle
 10
6720.0
 20
440.0
 30
0.0
 40
35.0
  0
TEXT
  5
690
330
1F
100
AcDbEntity
  8
TXT
 48
5.0
100
AcDbText
 10
6697.937598425196
 20
417.4999999999999
 30
0.0
 40
45.0
  1
70
 41
0.7
 72
     4
 11
6720.0
 21
440.0
 31
0.0
100
AcDbText
  0
CIRCLE
  5
691
330
1F
100
AcDbEntity
  8
TXT
 48
5.0
100
AcDbCircle
 10
6500.0
 20
440.0
 30
0.0
 40
26.0
  0
TEXT
  5
692
330
1F
100
AcDbEntity
  8
TXT
 48
5.0
100
AcDbText
 10
6480.581214566929
 20
420.8332656110285
 30
0.0
 40
38.0
  1
52
 41
0.7
 72
     4
 11
6500.0
 21
440.0
 31
0.0
100
AcDbText
  0
LINE
  5
693
330
1F
100
AcDbEntity
  8
TXT
 48
5.0
100
AcDbLine
 10
6120.0
 20
550.0
 30
0.0
 11
5940.0
 21
550.0
 31
0.0
  0
LINE
  5
694
330
1F
100
AcDbEntity
  8
TXT
 48
5.0
100
AcDbLine
 10
5890.0
 20
550.0
 30
0.0
 11
5890.0
 21
330.0
 31
0.0
  0
LINE
  5
695
330
1F
100
AcDbEntity
  8
TXT
 48
5.0
100
AcDbLine
 10
6390.0
 20
370.0
 30
0.0
 11
6390.0
 21
550.0
 31
0.0
  0
LINE
  5
696
330
1F
100
AcDbEntity
  8
TXT
 48
5.0
100
AcDbLine
 10
6390.0
 20
550.0
 30
0.0
 11
6210.0
 21
550.0
 31
0.0
  0
LINE
  5
697
330
1F
100
AcDbEntity
  8
TXT
 48
5.0
100
AcDbLine
 10
6300.0
 20
550.0
 30
0.0
 11
6120.0
 21
550.0
 31
0.0
  0
TEXT
  5
698
330
1F
100
AcDbEntity
  8
TXT
 48
5.0
100
AcDbText
 10
5961.333333333333
 20
390.0
 30
0.0
 40
100.0
  1
削孔径図
 41
0.8
 72
     4
 11
6140.0
 21
440.0
 31
0.0
100
AcDbText
  0
LINE
  5
699
330
1F
100
AcDbEntity
  8
TXT
 48
5.0
100
AcDbLine
 10
5890.0
 20
330.0
 30
0.0
 11
6390.0
 21
330.0
 31
0.0
  0
LINE
  5
69A
330
1F
100
AcDbEntity
  8
TXT
 48
5.0
100
AcDbLine
 10
6390.0
 20
550.0
 30
0.0
 11
6390.0
 21
2230.0
 31
0.0
  0
MTEXT
  5
6A0
330
1F
100
AcDbEntity
  8
TXT
 48
5.0
100
AcDbMText
 10
77.50268399606375
 20
550.4111166203415
 30
0.0
 40
65.0
 41
2142.0
 71
     1
 72
     5
  1
\U+203B削孔位置は製品の外側から見た場合です。\P\U+203B削孔位置はなるべくノックアウト内で指定して下さい。
 73
     1
 44
1.0
  0
TEXT
  5
CFF
330
1F
100
AcDbEntity
  8
LAYER
100
AcDbText
 10
6921.0
 20
67.66666666666671
 30
0.0
 40
70.0
  1
ＦＡＸ：
 72
     4
 11
7070.0
 21
105.0
 31
0.0
100
AcDbText
  0
TEXT
  5
D00
330
1F
100
AcDbEntity
  8
LAYER
100
AcDbText
 10
6971.333333333332
 20
220.0
 30
0.0
 40
70.0
  1
阿賀コンクリート工業株式会社
 72
     4
 11
7549.999999999998
 21
255.0
 31
0.0
100
AcDbText
  0
TEXT
  5
D02
330
1F
100
AcDbEntity
  8
LAYER
100
AcDbText
 10
4262.666666666666
 20
67.66666666666667
 30
0.0
 40
80.0
  1
要
 72
     4
 11
4299.999999999999
 21
105.0
 31
0.0
100
AcDbText
  0
TEXT
  5
D03
330
1F
100
AcDbEntity
  8
LAYER
100
AcDbText
 10
4261.90476190476
 20
215.0
 30
0.0
 40
80.0
  1
摘
 72
     4
 11
4299.999999999999
 21
255.0
 31
0.0
100
AcDbText
  0
TEXT
  5
D04
330
1F
100
AcDbEntity
  8
LAYER
100
AcDbText
 10
71.00000000000034
 20
130.0
 30
0.0
 40
100.0
  1
種類・呼び名
 41
0.9
 72
     4
 11
380.0000000000003
 21
180.0
 31
0.0
100
AcDbText
  0
LINE
  5
D13
330
1F
100
AcDbEntity
  8
LAYER
100
AcDbLine
 10
730.0000000000003
 20
180.0
 30
0.0
 11
4229.999999999999
 21
180.0
 31
0.0
  0
LINE
  5
D14
330
1F
100
AcDbEntity
  8
LAYER
100
AcDbLine
 10
6390.000000000002
 20
370.0
 30
0.0
 11
6390.000000000002
 21
370.0
 31
0.0
  0
LINE
  5
D15
330
1F
100
AcDbEntity
  8
LAYER
100
AcDbLine
 10
6889.999999999999
 20
330.0
 30
0.0
 11
6889.999999999999
 21
30.0
 31
0.0
  0
LINE
  5
D16
330
1F
100
AcDbEntity
  8
LAYER
100
AcDbLine
 10
4369.999999999999
 20
330.0
 30
0.0
 11
4369.999999999999
 21
30.0
 31
0.0
  0
LINE
  5
D17
330
1F
100
AcDbEntity
  8
LAYER
100
AcDbLine
 10
4229.999999999999
 20
330.0
 30
0.0
 11
4229.999999999999
 21
30.0
 31
0.0
  0
LINE
  5
D18
330
1F
100
AcDbEntity
  8
LAYER
100
AcDbLine
 10
730.0000000000003
 20
330.0
 30
0.0
 11
730.0000000000003
 21
30.0
 31
0.0
  0
LINE
  5
D19
330
1F
100
AcDbEntity
  8
LAYER
100
AcDbLine
 10
30.00000000000037
 20
330.0
 30
0.0
 11
8149.999999999998
 21
330.0
 31
0.0
  0
LWPOLYLINE
  5
D1A
330
1F
100
AcDbEntity
  8
LAYER
100
AcDbPolyline
 90
        4
 70
     1
 43
0.0
 10
30.00000000000037
 20
30.0
 10
30.00000000000037
 20
5685.0
 10
8149.999999999998
 20
5685.0
 10
8149.999999999998
 20
30.0
  0
VIEWPORT
  5
D1B
330
1F
100
AcDbEntity
  8
0
100
AcDbViewport
 10
4090.0
 20
3007.5
 30
0.0
 40
8119.999999999999
 41
5355.0
 69
     0
 12
228.1209015211101
 22
160.8176196896051
 13
0.0
 23
0.0
 14
10.0
 24
10.0
 15
10.0
 25
10.0
 16
0.0
 26
0.0
 36
1.0
 17
0.0
 27
0.0
 37
0.0
 42
50.0
 43
0.0
 44
0.0
 45
267.75
 50
0.0
 51
0.0
 72
   100
 90
    32864
  1

281
     0
 71
     1
 74
     0
110
0.0
120
0.0
130
0.0
111
1.0
121
0.0
131
0.0
112
0.0
122
1.0
132
0.0
 79
     0
146
0.0
170
     0
  0
LWPOLYLINE
  5
D1C
330
1F
100
AcDbEntity
  8
LAYER
100
AcDbPolyline
 90
        4
 70
     1
 43
0.0
 10
8149.999999999998
 20
30.0
 10
30.00000000000094
 20
30.0
 10
30.00000000000094
 20
5685.0
 10
8149.999999999998
 20
5685.0
  0
TEXT
  5
FB1
330
1F
100
AcDbEntity
  8
TXT
  6
Continuous
 48
5.0
100
AcDbText
 10
1426.666666666666
 20
205.0
 30
0.0
 40
100.0
  1
ＦＫ式ハンドホール
 41
2.0
 72
     4
 11
2480.0
 21
255.0
 31
0.0
100
AcDbText
  0
TEXT
  5
FB2
330
1F
100
AcDbEntity
  8
TXT
  6
Continuous
 48
5.0
100
AcDbText
 10
2132.840652099824
 20
57.40456457701923
 30
0.0
 40
100.0
  1
H1009
 41
2.0
 72
     4
 11
2480.0
 21
105.0
 31
0.0
100
AcDbText
  0
TEXT
  5
FB3
330
1F
100
AcDbEntity
  8
TXT
 48
5.0
100
AcDbText
 10
7958.409448818898
 20
409.994094488189
 30
0.0
 40
60.0
  1
φ206
 41
0.8
 72
     4
 11
8040.0
 21
440.0
 31
0.0
100
AcDbText
  0
CIRCLE
  5
FB4
330
1F
100
AcDbEntity
  8
TXT
 48
5.0
100
AcDbCircle
 10
8040.0
 20
440.0
 30
0.0
 40
103.0
  0
LINE
  5
FB9
330
1F
100
AcDbEntity
  8
TXT
 48
5.0
100
AcDbLine
 10
6390.0
 20
550.0
 30
0.0
 11
6390.0
 21
370.0
 31
0.0
  0
LWPOLYLINE
  5
FD6
330
1F
100
AcDbEntity
  8
TXT
100
AcDbPolyline
 90
        4
 70
     1
 43
0.0
 10
6390.0
 20
330.0
 10
6610.0
 20
330.0
 10
6610.0
 20
550.0
 10
6390.0
 20
550.0
  0
LWPOLYLINE
  5
FD7
330
1F
100
AcDbEntity
  8
TXT
100
AcDbPolyline
 90
        4
 70
     1
 43
0.0
 10
6610.0
 20
330.0
 10
6830.0
 20
330.0
 10
6830.0
 20
550.0
 10
6610.0
 20
550.0
  0
LWPOLYLINE
  5
FD8
330
1F
100
AcDbEntity
  8
TXT
100
AcDbPolyline
 90
        4
 70
     1
 43
0.0
 10
6830.0
 20
330.0
 10
7050.0
 20
330.0
 10
7050.0
 20
550.0
 10
6830.0
 20
550.0
  0
LWPOLYLINE
  5
FD9
330
1F
100
AcDbEntity
  8
TXT
100
AcDbPolyline
 90
        4
 70
     1
 43
0.0
 10
7050.0
 20
330.0
 10
7270.0
 20
330.0
 10
7270.0
 20
550.0
 10
7050.0
 20
550.0
  0
LWPOLYLINE
  5
FDA
330
1F
100
AcDbEntity
  8
TXT
100
AcDbPolyline
 90
        4
 70
     1
 43
0.0
 10
7270.0
 20
330.0
 10
7490.0
 20
330.0
 10
7490.0
 20
550.0
 10
7270.0
 20
550.0
  0
LWPOLYLINE
  5
FDB
330
1F
100
AcDbEntity
  8
TXT
100
AcDbPolyline
 90
        4
 70
     1
 43
0.0
 10
7490.0
 20
330.0
 10
7710.0
 20
330.0
 10
7710.0
 20
550.0
 10
7490.0
 20
550.0
  0
LWPOLYLINE
  5
FDC
330
1F
100
AcDbEntity
  8
TXT
100
AcDbPolyline
 90
        4
 70
     1
 43
0.0
 10
7710.0
 20
330.0
 10
7930.0
 20
330.0
 10
7930.0
 20
550.0
 10
7710.0
 20
550.0
  0
LWPOLYLINE
  5
FDD
330
1F
100
AcDbEntity
  8
TXT
100
AcDbPolyline
 90
        4
 70
     1
 43
0.0
 10
7930.0
 20
330.0
 10
8150.0
 20
330.0
 10
8150.0
 20
550.0
 10
7930.0
 20
550.0
  0
LINE
  5
FE6
330
1F
100
AcDbEntity
  8
TXT
100
AcDbLine
 10
6650.0
 20
830.0
 30
0.0
 11
8150.0
 21
830.0
 31
0.0
  0
LINE
  5
FE8
330
1F
100
AcDbEntity
  8
TXT
100
AcDbLine
 10
8150.0
 20
970.0
 30
0.0
 11
6650.0
 21
970.0
 31
0.0
  0
LINE
  5
FE9
330
1F
100
AcDbEntity
  8
TXT
100
AcDbLine
 10
5890.0
 20
1810.0
 30
0.0
 11
8150.0
 21
1810.0
 31
0.0
  0
LINE
  5
FEB
330
1F
100
AcDbEntity
  8
TXT
100
AcDbLine
 10
7650.0
 20
1950.0
 30
0.0
 11
5890.0
 21
1950.0
 31
0.0
  0
LINE
  5
FEC
330
1F
100
AcDbEntity
  8
TXT
100
AcDbLine
 10
5890.0
 20
1950.0
 30
0.0
 11
5890.0
 21
1810.0
 31
0.0
  0
LINE
  5
FED
330
1F
100
AcDbEntity
  8
TXT
100
AcDbLine
 10
5890.0
 20
1950.0
 30
0.0
 11
8150.0
 21
1950.0
 31
0.0
  0
LINE
  5
FEF
330
1F
100
AcDbEntity
  8
TXT
100
AcDbLine
 10
7650.0
 20
2090.0
 30
0.0
 11
5890.0
 21
2090.0
 31
0.0
  0
LINE
  5
FF0
330
1F
100
AcDbEntity
  8
TXT
100
AcDbLine
 10
5890.0
 20
2090.0
 30
0.0
 11
5890.0
 21
1950.0
 31
0.0
  0
LINE
  5
FF1
330
1F
100
AcDbEntity
  8
TXT
100
AcDbLine
 10
5890.0
 20
2090.0
 30
0.0
 11
8150.0
 21
2090.0
 31
0.0
  0
LINE
  5
FF3
330
1F
100
AcDbEntity
  8
TXT
100
AcDbLine
 10
8150.0
 20
2230.0
 30
0.0
 11
5890.0
 21
2230.0
 31
0.0
  0
LINE
  5
FF4
330
1F
100
AcDbEntity
  8
TXT
100
AcDbLine
 10
5890.0
 20
2230.0
 30
0.0
 11
5890.0
 21
2090.0
 31
0.0
  0
LINE
  5
FF7
330
1F
100
AcDbEntity
  8
TXT
100
AcDbLine
 10
8150.0
 20
1950.0
 30
0.0
 11
8150.0
 21
330.0
 31
0.0
  0
TEXT
  5
FF9
330
1F
100
AcDbEntity
  8
LAYER
100
AcDbText
 10
7327.249999999999
 20
70.00000000000003
 30
0.0
 40
70.0
  1
０２５０（６２）５３９４
 41
0.75
 72
     4
 11
7699.999999999999
 21
105.0
 31
0.0
100
AcDbText
  0
TEXT
  5
FFA
330
1F
100
AcDbEntity
  8
TXT
 48
5.0
100
AcDbText
 10
7290.049671180106
 20
2258.252550022637
 30
0.0
 40
80.0
  1
年　　　月　　　日
 72
     4
 11
7706.049671180107
 21
2298.252550022636
 31
0.0
100
AcDbText
  0
TEXT
  5
1000
330
1F
100
AcDbEntity
  8
TXT
  6
Continuous
 48
5.0
100
AcDbText
 10
1652.212213300479
 20
4721.968564363764
 30
0.0
 40
100.0
  1
Ａ面
 41
2.0
 72
     4
 11
1878.878879967146
 21
4768.63523103043
 31
0.0
100
AcDbText
  0
LINE
  5
1005
330
1F
100
AcDbEntity
  8
TXT
100
AcDbLine
 10
8150.0
 20
1390.0
 30
0.0
 11
6390.0
 21
1390.0
 31
0.0
  0
LINE
  5
1006
330
1F
100
AcDbEntity
  8
TXT
100
AcDbLine
 10
8150.0
 20
1530.0
 30
0.0
 11
6390.0
 21
1530.0
 31
0.0
  0
LINE
  5
1007
330
1F
100
AcDbEntity
  8
TXT
100
AcDbLine
 10
6650.0
 20
1390.0
 30
0.0
 11
7650.0
 21
1390.0
 31
0.0
  0
LINE
  5
1008
330
1F
100
AcDbEntity
  8
TXT
100
AcDbLine
 10
8150.0
 20
1670.0
 30
0.0
 11
5890.0
 21
1670.0
 31
0.0
  0
LINE
  5
1009
330
1F
100
AcDbEntity
  8
TXT
100
AcDbLine
 10
6650.0
 20
1530.0
 30
0.0
 11
7650.0
 21
1530.0
 31
0.0
  0
LINE
  5
100A
330
1F
100
AcDbEntity
  8
TXT
100
AcDbLine
 10
6650.0
 20
1670.0
 30
0.0
 11
7650.0
 21
1670.0
 31
0.0
  0
TEXT
  5
100B
330
1F
100
AcDbEntity
  8
TXT
 48
5.0
100
AcDbText
 10
7159.863370350724
 20
1270.0
 30
0.0
 40
100.0
  1
φ 80　　　　個
 72
     4
 11
7616.53003701739
 21
1320.0
 31
0.0
100
AcDbText
  0
TEXT
  5
100C
330
1F
100
AcDbEntity
  8
TXT
 48
5.0
100
AcDbText
 10
7159.863370350724
 20
1410.0
 30
0.0
 40
100.0
  1
φ 70　　　　個
 72
     4
 11
7616.53003701739
 21
1460.0
 31
0.0
100
AcDbText
  0
TEXT
  5
100D
330
1F
100
AcDbEntity
  8
TXT
 48
5.0
100
AcDbText
 10
7159.863370350724
 20
1549.990157480315
 30
0.0
 40
100.0
  1
φ 52　　　　個
 72
     4
 11
7616.53003701739
 21
1600.0
 31
0.0
100
AcDbText
  0
LWPOLYLINE
  5
1282
330
1F
100
AcDbEntity
  8
DASHED
  6
DASHED
 48
2.0
100
AcDbPolyline
 90
        4
 70
     1
 43
0.0
 10
7169.750867216811
 20
3473.459624601274
 10
7169.750867216811
 20
3523.459624601274
 10
7179.750867216812
 20
3523.459624601274
 10
7179.750867216812
 20
3473.459624601274
  0
LWPOLYLINE
  5
1283
330
1F
100
AcDbEntity
  8
DASHED
  6
DASHED
 48
2.0
100
AcDbPolyline
 90
        4
 70
     1
 43
0.0
 10
7169.750867216811
 20
3473.459624601274
 10
7169.750867216811
 20
3523.459624601274
 10
7179.750867216812
 20
3523.459624601274
 10
7179.750867216812
 20
3473.459624601274
  0
LWPOLYLINE
  5
1284
330
1F
100
AcDbEntity
  8
DASHED
  6
DASHED
 48
2.0
100
AcDbPolyline
 90
        4
 70
     1
 43
0.0
 10
7169.750867216811
 20
3473.459624601274
 10
7169.750867216811
 20
3523.459624601274
 10
7179.750867216812
 20
3523.459624601274
 10
7179.750867216812
 20
3473.459624601274
  0
LWPOLYLINE
  5
1285
330
1F
100
AcDbEntity
  8
DASHED
  6
DASHED
 48
2.0
100
AcDbPolyline
 90
        4
 70
     1
 43
0.0
 10
6469.750867216811
 20
3473.459624601274
 10
6469.750867216811
 20
3523.459624601274
 10
6479.750867216812
 20
3523.459624601274
 10
6479.750867216812
 20
3473.459624601274
  0
LWPOLYLINE
  5
1286
330
1F
100
AcDbEntity
  8
DASHED
  6
DASHED
 48
2.0
100
AcDbPolyline
 90
        4
 70
     1
 43
0.0
 10
6469.750867216811
 20
3473.459624601274
 10
6469.750867216811
 20
3523.459624601274
 10
6479.750867216812
 20
3523.459624601274
 10
6479.750867216812
 20
3473.459624601274
  0
LWPOLYLINE
  5
1287
330
1F
100
AcDbEntity
  8
DASHED
  6
DASHED
 48
2.0
100
AcDbPolyline
 90
        4
 70
     1
 43
0.0
 10
6469.750867216811
 20
3473.459624601274
 10
6469.750867216811
 20
3523.459624601274
 10
6479.750867216812
 20
3523.459624601274
 10
6479.750867216812
 20
3473.459624601274
  0
LINE
  5
1288
330
1F
100
AcDbEntity
  8
DASHED
 48
2.0
100
AcDbLine
 10
7331.32369331837
 20
4117.459624601273
 30
0.0
 11
7361.32369331837
 21
4117.459624601273
 31
0.0
  0
LINE
  5
1289
330
1F
100
AcDbEntity
  8
DASHED
 48
2.0
100
AcDbLine
 10
7331.32369331837
 20
4129.459624601273
 30
0.0
 11
7361.32369331837
 21
4129.459624601273
 31
0.0
  0
LINE
  5
128A
330
1F
100
AcDbEntity
  8
DASHED
 48
2.0
100
AcDbLine
 10
7361.32369331837
 20
4129.459624601273
 30
0.0
 11
7361.32369331837
 21
4117.459624601273
 31
0.0
  0
LINE
  5
128B
330
1F
100
AcDbEntity
  8
DASHED
 48
2.0
100
AcDbLine
 10
7412.250867216811
 20
4033.459624601273
 30
0.0
 11
7392.250867216812
 21
4003.459624601273
 31
0.0
  0
LINE
  5
128C
330
1F
100
AcDbEntity
  8
DASHED
 48
2.0
100
AcDbLine
 10
7392.250867216812
 20
3553.459624601273
 30
0.0
 11
7412.250867216811
 21
3523.459624601274
 31
0.0
  0
LINE
  5
128D
330
1F
100
AcDbEntity
  8
DASHED
 48
2.0
100
AcDbLine
 10
7324.750867216811
 20
3503.459624601273
 30
0.0
 11
7332.250867216811
 21
4223.459624601273
 31
0.0
  0
LINE
  5
128E
330
1F
100
AcDbEntity
  8
DASHED
 48
2.0
100
AcDbLine
 10
7392.250867216812
 20
3553.459624601273
 30
0.0
 11
7392.250867216812
 21
4003.459624601273
 31
0.0
  0
LWPOLYLINE
  5
128F
330
1F
100
AcDbEntity
  8
LAYER
 48
5.0
100
AcDbPolyline
 90
        6
 70
   129
 43
0.0
 10
6237.250867216811
 20
3372.459624601274
 10
6237.250867216811
 20
4223.459624601273
 10
7412.250867216811
 20
4223.459624601273
 10
7412.250867216811
 20
3372.459624601274
 10
7403.250867216812
 20
3363.459624601274
 10
6246.250867216811
 20
3363.459624601274
  0
LINE
  5
1290
330
1F
100
AcDbEntity
  8
DASHED
 48
2.0
100
AcDbLine
 10
7294.750867216811
 20
3473.459624601274
 30
0.0
 11
7324.750867216811
 21
3503.459624601273
 31
0.0
  0
LINE
  5
1291
330
1F
100
AcDbEntity
  8
DASHED
 48
2.0
100
AcDbLine
 10
6934.750867216812
 20
3473.459624601274
 30
0.0
 11
6924.750867216811
 21
3453.459624601273
 31
0.0
  0
LINE
  5
1292
330
1F
100
AcDbEntity
  8
DASHED
 48
2.0
100
AcDbLine
 10
6724.750867216811
 20
3453.459624601273
 30
0.0
 11
6714.750867216811
 21
3473.459624601274
 31
0.0
  0
LINE
  5
1293
330
1F
100
AcDbEntity
  8
DASHED
 48
2.0
100
AcDbLine
 10
6924.750867216811
 20
3453.459624601273
 30
0.0
 11
6724.750867216811
 21
3453.459624601273
 31
0.0
  0
LINE
  5
1294
330
1F
100
AcDbEntity
  8
DASHED
 48
2.0
100
AcDbLine
 10
6354.750867216811
 20
3473.459624601274
 30
0.0
 11
6714.750867216811
 21
3473.459624601274
 31
0.0
  0
LINE
  5
1295
330
1F
100
AcDbEntity
  8
DASHED
 48
2.0
100
AcDbLine
 10
6934.750867216812
 20
3473.459624601274
 30
0.0
 11
7294.750867216811
 21
3473.459624601274
 31
0.0
  0
LINE
  5
1296
330
1F
100
AcDbEntity
  8
LAYER
 48
5.0
100
AcDbLine
 10
7174.750867216811
 20
4003.459624601273
 30
0.0
 11
7204.750867216812
 21
4033.459624601273
 31
0.0
  0
LINE
  5
1297
330
1F
100
AcDbEntity
  8
LAYER
 48
5.0
100
AcDbLine
 10
7174.750867216811
 20
3553.459624601273
 30
0.0
 11
7204.750867216812
 21
3523.459624601274
 31
0.0
  0
LINE
  5
1298
330
1F
100
AcDbEntity
  8
LAYER
 48
5.0
100
AcDbLine
 10
6444.750867216811
 20
4033.459624601273
 30
0.0
 11
6474.750867216811
 21
4003.459624601273
 31
0.0
  0
LINE
  5
1299
330
1F
100
AcDbEntity
  8
LAYER
 48
5.0
100
AcDbLine
 10
6444.750867216811
 20
3523.459624601274
 30
0.0
 11
6474.750867216811
 21
3553.459624601273
 31
0.0
  0
LWPOLYLINE
  5
129A
330
1F
100
AcDbEntity
  8
LAYER
 48
5.0
100
AcDbPolyline
 90
        4
 70
   129
 43
0.0
 10
6474.750867216811
 20
3553.459624601273
 10
6474.750867216811
 20
4003.459624601273
 10
7174.750867216811
 20
4003.459624601273
 10
7174.750867216811
 20
3553.459624601273
  0
LWPOLYLINE
  5
129B
330
1F
100
AcDbEntity
  8
LAYER
 48
5.0
100
AcDbPolyline
 90
        4
 70
   129
 43
0.0
 10
6444.750867216811
 20
3523.459624601274
 10
6444.750867216811
 20
4033.459624601273
 10
7204.750867216812
 20
4033.459624601273
 10
7204.750867216812
 20
3523.459624601274
  0
LINE
  5
129C
330
1F
100
AcDbEntity
  8
DASHED
 48
2.0
100
AcDbLine
 10
6288.153384701293
 20
4129.459624601273
 30
0.0
 11
6288.153384701293
 21
4117.459624601273
 31
0.0
  0
LINE
  5
129D
330
1F
100
AcDbEntity
  8
DASHED
 48
2.0
100
AcDbLine
 10
6318.153384701293
 20
4129.459624601273
 30
0.0
 11
6288.153384701293
 21
4129.459624601273
 31
0.0
  0
LINE
  5
129E
330
1F
100
AcDbEntity
  8
DASHED
 48
2.0
100
AcDbLine
 10
6318.153384701293
 20
4117.459624601273
 30
0.0
 11
6288.153384701293
 21
4117.459624601273
 31
0.0
  0
LINE
  5
129F
330
1F
100
AcDbEntity
  8
DASHED
 48
2.0
100
AcDbLine
 10
6237.250867216811
 20
4033.459624601273
 30
0.0
 11
6257.250867216812
 21
4003.459624601273
 31
0.0
  0
LINE
  5
12A0
330
1F
100
AcDbEntity
  8
DASHED
 48
2.0
100
AcDbLine
 10
6324.750867216812
 20
3503.459624601273
 30
0.0
 11
6354.750867216811
 21
3473.459624601274
 31
0.0
  0
LINE
  5
12A1
330
1F
100
AcDbEntity
  8
DASHED
 48
2.0
100
AcDbLine
 10
6257.250867216812
 20
3553.459624601273
 30
0.0
 11
6237.250867216811
 21
3523.459624601274
 31
0.0
  0
LINE
  5
12A2
330
1F
100
AcDbEntity
  8
DASHED
 48
2.0
100
AcDbLine
 10
6317.250867216811
 20
4223.459624601273
 30
0.0
 11
6324.750867216812
 21
3503.459624601273
 31
0.0
  0
LINE
  5
12A3
330
1F
100
AcDbEntity
  8
DASHED
 48
2.0
100
AcDbLine
 10
6257.250867216812
 20
3553.459624601273
 30
0.0
 11
6257.250867216812
 21
4003.459624601273
 31
0.0
  0
DIMENSION
  5
12A4
330
1F
100
AcDbEntity
  8
DIM
100
AcDbDimension
  2
*D49
 10
6193.233136796271
 20
4059.183218237945
 30
0.0
 11
6233.233136796271
 21
4094.183218237946
 31
0.0
 70
    32
 71
     5
 42
80.0
  3
Standerd
100
AcDbAlignedDimension
 13
6317.250867216811
 23
4223.459624601273
 33
0.0
 14
6237.250867216811
 24
4223.459624601273
 34
0.0
100
AcDbRotatedDimension
  0
DIMENSION
  5
12A5
330
1F
100
AcDbEntity
  8
DIM
100
AcDbDimension
  2
*D50
 10
7368.23313679627
 20
4059.183218237945
 30
0.0
 11
7328.233136796271
 21
4094.183218237946
 31
0.0
 70
    32
 71
     5
 42
80.0
  3
Standerd
100
AcDbAlignedDimension
 13
7332.250867216811
 23
4223.459624601273
 33
0.0
 14
7412.250867216811
 24
4223.459624601273
 34
0.0
100
AcDbRotatedDimension
  0
DIMENSION
  5
12A6
330
1F
100
AcDbEntity
  8
DIM
100
AcDbDimension
  2
*D51
 10
6273.233136796271
 20
4059.183218237945
 30
0.0
 11
6780.73313679627
 21
4094.183218237946
 31
0.0
 70
    32
 71
     5
 42
1015.0
  3
Standerd
100
AcDbAlignedDimension
 13
7332.250867216811
 23
4223.459624601273
 33
0.0
 14
6317.250867216811
 24
4223.459624601273
 34
0.0
100
AcDbRotatedDimension
  0
DIMENSION
  5
12A7
330
1F
100
AcDbEntity
  8
DIM
100
AcDbDimension
  2
*D52
 10
7412.250867216811
 20
2924.459624601274
 30
0.0
 11
6824.750867216811
 21
2959.459624601274
 31
0.0
 70
    32
 71
     5
 42
1175.0
  3
Standerd
100
AcDbAlignedDimension
 13
6237.250867216811
 23
3372.459624601274
 33
0.0
 14
7412.250867216811
 24
3372.459624601274
 34
0.0
100
AcDbRotatedDimension
  0
DIMENSION
  5
12A8
330
1F
100
AcDbEntity
  8
DIM
100
AcDbDimension
  2
*D53
 10
7324.750867216811
 20
3074.459624601273
 30
0.0
 11
6824.750867216811
 21
3109.459624601274
 31
0.0
 70
    32
 71
     5
 42
1000.0
  3
Standerd
100
AcDbAlignedDimension
 13
6324.750867216812
 23
3503.459624601273
 33
0.0
 14
7324.750867216811
 24
3503.459624601273
 34
0.0
100
AcDbRotatedDimension
  0
DIMENSION
  5
12A9
330
1F
100
AcDbEntity
  8
DIM
100
AcDbDimension
  2
*D54
 10
7174.750867216811
 20
3224.459624601273
 30
0.0
 11
6824.750867216811
 21
3259.459624601273
 31
0.0
 70
    32
 71
     5
 42
700.0
  3
Standerd
100
AcDbAlignedDimension
 13
6474.750867216811
 23
3553.459624601273
 33
0.0
 14
7174.750867216811
 24
3553.459624601273
 34
0.0
100
AcDbRotatedDimension
  0
TEXT
  5
12AA
330
1F
100
AcDbEntity
  8
TXT
100
AcDbText
 10
5787.250867216812
 20
4144.459624601274
 30
0.0
 40
60.0
  1
B1-750
 41
1.5
100
AcDbText
  0
DIMENSION
  5
12AB
330
1F
100
AcDbEntity
  8
DIM
100
AcDbDimension
  2
*D55
 10
7562.250867216812
 20
3553.459624601273
 30
0.0
 11
7562.25086721681
 21
3464.560683054536
 31
0.0
 70
   160
 71
     5
 42
190.0
  3
Standerd
100
AcDbAlignedDimension
 13
7403.250867216812
 23
3363.459624601274
 33
0.0
 14
7392.250867216812
 24
3553.459624601273
 34
0.0
 50
90.0
100
AcDbRotatedDimension
  0
DIMENSION
  5
12AC
330
1F
100
AcDbEntity
  8
DIM
100
AcDbDimension
  2
*D56
 10
7862.250867216811
 20
4223.459624601273
 30
0.0
 11
7827.25086721681
 21
3793.459624601275
 31
0.0
 70
    32
 71
     5
 42
860.0
  3
Standerd
100
AcDbAlignedDimension
 13
7403.250867216812
 23
3363.459624601274
 33
0.0
 14
7412.250867216811
 24
4223.459624601273
 34
0.0
 50
90.0
100
AcDbRotatedDimension
  0
DIMENSION
  5
12AD
330
1F
100
AcDbEntity
  8
DIM
100
AcDbDimension
  2
*D57
 10
7712.250867216811
 20
3363.459624601274
 30
0.0
 11
7677.25086721681
 21
3418.459624601275
 31
0.0
 70
    32
 71
     5
 42
110.0
  3
Standerd
100
AcDbAlignedDimension
 13
7295.250867216812
 23
3473.459624601274
 33
0.0
 14
7403.250867216812
 24
3363.459624601274
 34
0.0
 50
90.0
100
AcDbRotatedDimension
  0
DIMENSION
  5
12AE
330
1F
100
AcDbEntity
  8
DIM
100
AcDbDimension
  2
*D58
 10
7712.250867216811
 20
3473.459624601274
 30
0.0
 11
7677.25086721681
 21
3848.459624601275
 31
0.0
 70
    32
 71
     5
 42
750.0
  3
Standerd
100
AcDbAlignedDimension
 13
7412.250867216811
 23
4223.459624601273
 33
0.0
 14
7295.250867216812
 24
3473.459624601274
 34
0.0
 50
90.0
100
AcDbRotatedDimension
  0
DIMENSION
  5
12AF
330
1F
100
AcDbEntity
  8
DIM
100
AcDbDimension
  2
*D59
 10
7562.25086721681
 20
3553.459624601273
 30
0.0
 11
7527.25086721681
 21
3778.459624601275
 31
0.0
 70
    32
 71
     5
 42
450.0
  3
Standerd
100
AcDbAlignedDimension
 13
7392.250867216812
 23
4003.459624601273
 33
0.0
 14
7392.250867216812
 24
3553.459624601273
 34
0.0
 50
90.0
100
AcDbRotatedDimension
  0
DIMENSION
  5
12B0
330
1F
100
AcDbEntity
  8
DIM
100
AcDbDimension
  2
*D60
 10
7562.25086721681
 20
4223.459624601273
 30
0.0
 11
7527.246930208936
 21
4113.459624601274
 31
0.0
 70
    32
 71
     5
 42
220.0
  3
Standerd
100
AcDbAlignedDimension
 13
7392.250867216812
 23
4003.459624601273
 33
0.0
 14
7412.250867216811
 24
4223.459624601273
 34
0.0
 50
90.0
100
AcDbRotatedDimension
  0
LINE
  5
12B1
330
1F
100
AcDbEntity
  8
DASHED
 48
0.15
100
AcDbLine
 10
6624.75086721681
 20
4103.459624601273
 30
0.0
 11
6624.75086721681
 21
4143.459624601273
 31
0.0
  0
MTEXT
  5
12B2
102
{ACAD_REACTORS
330
12B3
102
}
330
1F
100
AcDbEntity
  8
TXT
100
AcDbMText
 10
6709.181751332616
 20
4296.286328363757
 30
0.0
 40
40.0
 41
0.0
 71
     1
 72
     1
  1
M12ｲﾝｻｰﾄ
 73
     1
 44
1.0
  0
LEADER
  5
12B3
330
1F
100
AcDbEntity
  8
TXT
100
AcDbLeader
  3
Standerd1
 73
     0
 74
     0
 75
     1
 40
40.00787401574803
 41
190.0
 76
     3
 10
6624.75086721681
 20
4131.459624601273
 30
0.0
 10
6654.181751332616
 20
4276.286328363757
 30
0.0
 10
6694.181751332617
 20
4276.286328363757
 30
0.0
340
12B2
213
0.0
223
-20.0
233
0.0
1001
ACAD
1000
DSTYLE
1002
{
1070
   147
1040
15.0
1070
    77
1070
     0
1002
}
  0
LINE
  5
12B4
330
1F
100
AcDbEntity
  8
DASHED
 48
0.15
100
AcDbLine
 10
6604.750867216812
 20
4123.459624601273
 30
0.0
 11
6644.750867216811
 21
4123.459624601273
 31
0.0
  0
CIRCLE
  5
12B5
330
1F
100
AcDbEntity
  8
DASHED
 48
2.0
100
AcDbCircle
 10
6624.75086721681
 20
4123.459624601273
 30
0.0
 40
8.0
  0
LINE
  5
12B6
330
1F
100
AcDbEntity
  8
DASHED
 48
0.15
100
AcDbLine
 10
7024.750867216811
 20
4103.459624601273
 30
0.0
 11
7024.750867216811
 21
4143.459624601273
 31
0.0
  0
LINE
  5
12B7
330
1F
100
AcDbEntity
  8
DASHED
 48
0.15
100
AcDbLine
 10
7004.750867216812
 20
4123.459624601273
 30
0.0
 11
7044.750867216811
 21
4123.459624601273
 31
0.0
  0
CIRCLE
  5
12B8
330
1F
100
AcDbEntity
  8
DASHED
 48
2.0
100
AcDbCircle
 10
7024.750867216811
 20
4123.459624601273
 30
0.0
 40
8.0
  0
LEADER
  5
12B9
330
1F
100
AcDbEntity
  8
TXT
100
AcDbLeader
  3
Standerd1
 73
     0
 74
     0
 75
     1
 40
40.00000000000001
 41
456.7830808016392
 76
     3
 10
7179.750867216812
 20
3498.459624601274
 30
0.0
 10
7505.944249059668
 20
3169.920410605161
 30
0.0
 10
7545.944249059669
 20
3169.920410605161
 30
0.0
340
12BA
213
0.0
223
-20.0
233
0.0
1001
ACAD
1000
DSTYLE
1002
{
1070
   147
1040
15.0
1070
    77
1070
     0
1002
}
  0
MTEXT
  5
12BA
102
{ACAD_REACTORS
330
12B9
102
}
330
1F
100
AcDbEntity
  8
TXT
100
AcDbMText
 10
7560.944249059669
 20
3189.920410605161
 30
0.0
 40
40.0
 41
0.0
 71
     1
 72
     1
  1
吊りﾌｯｸ引込用ﾌｯｸ兼用
 73
     1
 44
1.0
  0
DIMENSION
  5
1591
330
1F
100
AcDbEntity
  8
TXT
100
AcDbDimension
  2
*D61
 10
8012.250867216812
 20
3363.459624601274
 30
0.0
 11
7977.246930208936
 21
3973.459624601275
 31
0.0
 70
    32
 71
     5
 42
1220.0
  3
Standerd
100
AcDbAlignedDimension
 13
7244.750867216811
 23
4583.459624601274
 33
0.0
 14
7403.250867216812
 24
3363.459624601274
 34
0.0
 50
90.0
100
AcDbRotatedDimension
  0
LWPOLYLINE
  5
169C
330
1F
100
AcDbEntity
  8
LAYER
 48
5.0
100
AcDbPolyline
 90
        8
 70
   129
 43
0.0
 10
2207.24403499617
 20
2396.531741326355
 10
2207.24403499617
 20
3553.531741326355
 10
2216.24403499617
 20
3562.531741326355
 10
3373.24403499617
 20
3562.531741326355
 10
3382.244034996169
 20
3553.531741326355
 10
3382.244034996169
 20
2396.531741326355
 10
3373.24403499617
 20
2387.531741326355
 10
2216.24403499617
 20
2387.531741326355
  0
LWPOLYLINE
  5
16A0
330
1F
100
AcDbEntity
  8
LATER
100
AcDbPolyline
 90
        4
 70
     1
 43
0.0
 10
3123.548688247915
 20
3268.481055518772
 10
3130.61975605978
 20
3275.552123330637
 10
3095.264417000453
 20
3310.907462389965
 10
3088.193349188588
 20
3303.836394578099
  0
LWPOLYLINE
  5
16A1
330
1F
100
AcDbEntity
  8
LATER
100
AcDbPolyline
 90
        4
 70
     1
 43
0.0
 10
3088.193349188587
 20
2646.22708807461
 10
3095.264417000453
 20
2639.156020262744
 10
3130.61975605978
 20
2674.511359322072
 10
3123.548688247915
 20
2681.582427133937
  0
LWPOLYLINE
  5
16A2
330
1F
100
AcDbEntity
  8
LATER
100
AcDbPolyline
 90
        4
 70
     1
 43
0.0
 10
2501.294720803753
 20
3303.836394578099
 10
2494.223652991887
 20
3310.907462389965
 10
2458.86831393256
 20
3275.552123330637
 10
2465.939381744425
 20
3268.481055518773
  0
LWPOLYLINE
  5
16A3
330
1F
100
AcDbEntity
  8
LATER
100
AcDbPolyline
 90
        4
 70
     1
 43
0.0
 10
2465.939381744425
 20
2681.582427133938
 10
2458.86831393256
 20
2674.511359322072
 10
2494.223652991887
 20
2639.156020262744
 10
2501.294720803752
 20
2646.22708807461
  0
CIRCLE
  5
16A6
330
1F
100
AcDbEntity
  8
LATER
100
AcDbCircle
 10
2794.74403499617
 20
2975.031741326355
 30
0.0
 40
300.0
  0
CIRCLE
  5
16A7
330
1F
100
AcDbEntity
  8
LATER
100
AcDbCircle
 10
2794.74403499617
 20
2975.031741326355
 30
0.0
 40
435.0
  0
LWPOLYLINE
  5
16E1
330
1F
100
AcDbEntity
  8
LAYER
 48
5.0
100
AcDbPolyline
 90
        6
 70
   129
 43
0.0
 10
2207.24403499617
 20
2127.531741326356
 10
2207.24403499617
 20
2378.531741326355
 10
2216.24403499617
 20
2387.531741326355
 10
3373.24403499617
 20
2387.531741326355
 10
3382.244034996169
 20
2378.531741326355
 10
3382.244034996169
 20
2127.531741326356
  0
LWPOLYLINE
  5
1714
330
1F
100
AcDbEntity
  8
LAYER
 48
5.0
100
AcDbPolyline
 90
        4
 70
   129
 43
0.0
 10
2414.74403499617
 20
1427.531741326355
 10
2414.74403499617
 20
1937.531741326355
 10
3174.74403499617
 20
1937.531741326355
 10
3174.74403499617
 20
1427.531741326355
  0
LWPOLYLINE
  5
1715
330
1F
100
AcDbEntity
  8
LAYER
 48
5.0
100
AcDbPolyline
 90
        4
 70
   129
 43
0.0
 10
2444.74403499617
 20
1457.531741326356
 10
2444.74403499617
 20
1907.531741326355
 10
3144.74403499617
 20
1907.531741326355
 10
3144.74403499617
 20
1457.531741326356
  0
LINE
  5
1716
330
1F
100
AcDbEntity
  8
LAYER
 48
5.0
100
AcDbLine
 10
2414.74403499617
 20
1427.531741326355
 30
0.0
 11
2444.74403499617
 21
1457.531741326356
 31
0.0
  0
LINE
  5
1717
330
1F
100
AcDbEntity
  8
LAYER
 48
5.0
100
AcDbLine
 10
2414.74403499617
 20
1937.531741326355
 30
0.0
 11
2444.74403499617
 21
1907.531741326355
 31
0.0
  0
LINE
  5
1718
330
1F
100
AcDbEntity
  8
LAYER
 48
5.0
100
AcDbLine
 10
3144.74403499617
 20
1457.531741326356
 30
0.0
 11
3174.74403499617
 21
1427.531741326355
 31
0.0
  0
LINE
  5
1719
330
1F
100
AcDbEntity
  8
LAYER
 48
5.0
100
AcDbLine
 10
3144.74403499617
 20
1907.531741326355
 30
0.0
 11
3174.74403499617
 21
1937.531741326355
 31
0.0
  0
LWPOLYLINE
  5
1720
330
1F
100
AcDbEntity
  8
LAYER
 48
5.0
100
AcDbPolyline
 90
        6
 70
   129
 43
0.0
 10
2207.24403499617
 20
1276.531741326355
 10
2207.24403499617
 20
2127.531741326356
 10
3382.244034996169
 20
2127.531741326356
 10
3382.244034996169
 20
1276.531741326355
 10
3373.24403499617
 20
1267.531741326356
 10
2216.24403499617
 20
1267.531741326356
  0
LWPOLYLINE
  5
175A
330
1F
100
AcDbEntity
  8
LAYER
 48
5.0
100
AcDbPolyline
 90
        6
 70
   129
 43
0.0
 10
4493.244034996169
 20
2387.531741326354
 10
3642.244034996169
 20
2387.531741326354
 10
3642.244034996169
 20
3562.531741326355
 10
4493.244034996169
 20
3562.531741326355
 10
4502.244034996169
 20
3553.531741326354
 10
4502.244034996169
 20
2396.531741326354
  0
LINE
  5
175B
330
1F
100
AcDbEntity
  8
LAYER
 48
5.0
100
AcDbLine
 10
3862.244034996169
 20
3325.031741326355
 30
0.0
 11
3832.244034996169
 21
3355.031741326354
 31
0.0
  0
LINE
  5
175C
330
1F
100
AcDbEntity
  8
LAYER
 48
5.0
100
AcDbLine
 10
4312.244034996169
 20
3325.031741326355
 30
0.0
 11
4342.244034996169
 21
3355.031741326354
 31
0.0
  0
LINE
  5
175D
330
1F
100
AcDbEntity
  8
LAYER
 48
5.0
100
AcDbLine
 10
3832.244034996169
 20
2595.031741326355
 30
0.0
 11
3862.244034996169
 21
2625.031741326354
 31
0.0
  0
LINE
  5
175E
330
1F
100
AcDbEntity
  8
LAYER
 48
5.0
100
AcDbLine
 10
4342.244034996169
 20
2595.031741326355
 30
0.0
 11
4312.244034996169
 21
2625.031741326354
 31
0.0
  0
LWPOLYLINE
  5
175F
330
1F
100
AcDbEntity
  8
LAYER
 48
5.0
100
AcDbPolyline
 90
        4
 70
   129
 43
0.0
 10
4312.244034996169
 20
2625.031741326354
 10
3862.244034996169
 20
2625.031741326354
 10
3862.244034996169
 20
3325.031741326355
 10
4312.244034996169
 20
3325.031741326355
  0
LWPOLYLINE
  5
1760
330
1F
100
AcDbEntity
  8
LAYER
 48
5.0
100
AcDbPolyline
 90
        4
 70
   129
 43
0.0
 10
4342.244034996169
 20
2595.031741326355
 10
3832.244034996169
 20
2595.031741326355
 10
3832.244034996169
 20
3355.031741326354
 10
4342.244034996169
 20
3355.031741326354
  0
LWPOLYLINE
  5
1761
330
1F
100
AcDbEntity
  8
LAYER
 48
5.0
100
AcDbPolyline
 90
        6
 70
   129
 43
0.0
 10
3642.244034996169
 20
2387.531741326354
 10
3391.24403499617
 20
2387.531741326355
 10
3382.244034996169
 20
2396.531741326355
 10
3382.244034996169
 20
3553.531741326355
 10
3391.24403499617
 20
3562.531741326355
 10
3642.244034996169
 20
3562.531741326355
  0
LWPOLYLINE
  5
1762
330
1F
100
AcDbEntity
  8
LAYER
 48
5.0
100
AcDbPolyline
 90
        6
 70
   129
 43
0.0
 10
1096.244034996171
 20
3562.531741326356
 10
1947.244034996171
 20
3562.531741326356
 10
1947.24403499617
 20
2387.531741326355
 10
1096.244034996171
 20
2387.531741326356
 10
1087.24403499617
 20
2396.531741326356
 10
1087.24403499617
 20
3553.531741326356
  0
LINE
  5
1763
330
1F
100
AcDbEntity
  8
LAYER
 48
5.0
100
AcDbLine
 10
1727.24403499617
 20
2625.031741326356
 30
0.0
 11
1757.24403499617
 21
2595.031741326355
 31
0.0
  0
LINE
  5
1764
330
1F
100
AcDbEntity
  8
LAYER
 48
5.0
100
AcDbLine
 10
1277.244034996171
 20
2625.031741326356
 30
0.0
 11
1247.244034996171
 21
2595.031741326356
 31
0.0
  0
LINE
  5
1765
330
1F
100
AcDbEntity
  8
LAYER
 48
5.0
100
AcDbLine
 10
1757.24403499617
 20
3355.031741326356
 30
0.0
 11
1727.244034996171
 21
3325.031741326356
 31
0.0
  0
LINE
  5
1766
330
1F
100
AcDbEntity
  8
LAYER
 48
5.0
100
AcDbLine
 10
1247.244034996171
 20
3355.031741326357
 30
0.0
 11
1277.244034996171
 21
3325.031741326356
 31
0.0
  0
LWPOLYLINE
  5
1767
330
1F
100
AcDbEntity
  8
LAYER
 48
5.0
100
AcDbPolyline
 90
        4
 70
   129
 43
0.0
 10
1277.244034996171
 20
3325.031741326356
 10
1727.244034996171
 20
3325.031741326356
 10
1727.24403499617
 20
2625.031741326356
 10
1277.244034996171
 20
2625.031741326356
  0
LWPOLYLINE
  5
1768
330
1F
100
AcDbEntity
  8
LAYER
 48
5.0
100
AcDbPolyline
 90
        4
 70
   129
 43
0.0
 10
1247.244034996171
 20
3355.031741326357
 10
1757.24403499617
 20
3355.031741326356
 10
1757.24403499617
 20
2595.031741326355
 10
1247.244034996171
 20
2595.031741326356
  0
LWPOLYLINE
  5
1769
330
1F
100
AcDbEntity
  8
LAYER
 48
5.0
100
AcDbPolyline
 90
        6
 70
   129
 43
0.0
 10
1947.244034996171
 20
3562.531741326356
 10
2198.24403499617
 20
3562.531741326355
 10
2207.24403499617
 20
3553.531741326355
 10
2207.24403499617
 20
2396.531741326355
 10
2198.24403499617
 20
2387.531741326355
 10
1947.24403499617
 20
2387.531741326355
  0
LWPOLYLINE
  5
176A
330
1F
100
AcDbEntity
  8
LAYER
 48
5.0
100
AcDbPolyline
 90
        6
 70
   129
 43
0.0
 10
3382.244034996169
 20
4673.531741326353
 10
3382.244034996169
 20
3822.531741326354
 10
2207.24403499617
 20
3822.531741326354
 10
2207.24403499617
 20
4673.531741326353
 10
2216.24403499617
 20
4682.531741326354
 10
3373.24403499617
 20
4682.531741326354
  0
LINE
  5
176B
330
1F
100
AcDbEntity
  8
LAYER
 48
5.0
100
AcDbLine
 10
2444.74403499617
 20
4042.531741326353
 30
0.0
 11
2414.74403499617
 21
4012.531741326354
 31
0.0
  0
LINE
  5
176C
330
1F
100
AcDbEntity
  8
LAYER
 48
5.0
100
AcDbLine
 10
2444.74403499617
 20
4492.531741326353
 30
0.0
 11
2414.74403499617
 21
4522.531741326353
 31
0.0
  0
LINE
  5
176D
330
1F
100
AcDbEntity
  8
LAYER
 48
5.0
100
AcDbLine
 10
3174.74403499617
 20
4012.531741326354
 30
0.0
 11
3144.74403499617
 21
4042.531741326353
 31
0.0
  0
LINE
  5
176E
330
1F
100
AcDbEntity
  8
LAYER
 48
5.0
100
AcDbLine
 10
3174.74403499617
 20
4522.531741326353
 30
0.0
 11
3144.74403499617
 21
4492.531741326353
 31
0.0
  0
LWPOLYLINE
  5
176F
330
1F
100
AcDbEntity
  8
LAYER
 48
5.0
100
AcDbPolyline
 90
        4
 70
   129
 43
0.0
 10
3144.74403499617
 20
4492.531741326353
 10
3144.74403499617
 20
4042.531741326353
 10
2444.74403499617
 20
4042.531741326353
 10
2444.74403499617
 20
4492.531741326353
  0
LWPOLYLINE
  5
1770
330
1F
100
AcDbEntity
  8
LAYER
 48
5.0
100
AcDbPolyline
 90
        4
 70
   129
 43
0.0
 10
3174.74403499617
 20
4522.531741326353
 10
3174.74403499617
 20
4012.531741326354
 10
2414.74403499617
 20
4012.531741326354
 10
2414.74403499617
 20
4522.531741326353
  0
LWPOLYLINE
  5
1771
330
1F
100
AcDbEntity
  8
LAYER
 48
5.0
100
AcDbPolyline
 90
        6
 70
   129
 43
0.0
 10
3382.244034996169
 20
3822.531741326354
 10
3382.244034996169
 20
3571.531741326356
 10
3373.244034996169
 20
3562.531741326355
 10
2216.24403499617
 20
3562.531741326355
 10
2207.24403499617
 20
3571.531741326356
 10
2207.24403499617
 20
3822.531741326354
  0
TEXT
  5
1776
330
1F
100
AcDbEntity
  8
TXT
  6
Continuous
 48
5.0
100
AcDbText
 10
3483.942523358527
 20
1134.761584955612
 30
0.0
 40
100.0
  1
Ｃ面
 41
2.0
 72
     4
 11
3710.609190025194
 21
1181.428251622278
 31
0.0
100
AcDbText
  0
TEXT
  5
1777
330
1F
100
AcDbEntity
  8
TXT
  6
Continuous
 48
5.0
100
AcDbText
 10
683.108667520373
 20
2226.389809944455
 30
0.0
 40
100.0
  1
Ｄ面
 41
2.0
 72
     4
 11
916.4420008537062
 21
2273.056476611122
 31
0.0
100
AcDbText
  0
TEXT
  5
1778
330
1F
100
AcDbEntity
  8
TXT
  6
Continuous
 48
5.0
100
AcDbText
 10
4439.7127358053
 20
3630.340339374921
 30
0.0
 40
100.0
  1
Ｂ面
 41
2.0
 72
     4
 11
4673.046069138632
 21
3677.007006041588
 31
0.0
100
AcDbText
  0
DIMENSION
  5
1BC8
330
1F
100
AcDbEntity
  8
DIM
100
AcDbDimension
  2
*D99
 10
7105.963322618932
 20
4418.103882954329
 30
0.0
 11
6800.963322618932
 21
4453.103882954329
 31
0.0
 70
    32
 71
     5
 42
610.0
  3
Standerd1
100
AcDbAlignedDimension
 13
6519.750867216811
 23
4483.459624601273
 33
0.0
 14
7129.750867216812
 24
4483.459624601273
 34
0.0
100
AcDbRotatedDimension
1001
ACAD
1000
DSTYLE
1002
{
1070
    42
1040
35.0
1002
}
  0
LINE
  5
1BC9
330
1F
100
AcDbEntity
  8
DASHED
 48
2.0
100
AcDbLine
 10
7129.750867216812
 20
4483.459624601273
 30
0.0
 11
7138.510688688687
 21
4387.101588410636
 31
0.0
  0
ARC
  5
1BCA
330
1F
100
AcDbEntity
  8
DASHED
 48
2.0
100
AcDbCircle
 10
7153.449086785703
 20
4388.459624601273
 30
0.0
 40
15.0
100
AcDbArc
 50
185.1944289077301
 51
270.0
  0
LINE
  5
1BCD
330
1F
100
AcDbEntity
  8
DASHED
 48
2.0
100
AcDbLine
 10
6354.250867216812
 20
4373.459624601273
 30
0.0
 11
7295.250867216812
 21
4373.459624601273
 31
0.0
  0
LWPOLYLINE
  5
1BCE
330
1F
100
AcDbEntity
  8
LAYER
 48
5.0
100
AcDbPolyline
 90
        6
 70
   129
 43
0.0
 10
6237.250867216811
 20
4223.459624601273
 10
6237.250867216811
 20
4474.459624601273
 10
6246.250867216811
 20
4483.459624601273
 10
7403.250867216812
 20
4483.459624601273
 10
7412.250867216811
 20
4474.459624601273
 10
7412.250867216811
 20
4223.459624601273
  0
LINE
  5
1BCF
330
1F
100
AcDbEntity
  8
DASHED
 48
2.0
100
AcDbLine
 10
7295.250867216812
 20
4373.459624601273
 30
0.0
 11
7325.250867216812
 21
4343.459624601273
 31
0.0
  0
LINE
  5
1BD0
330
1F
100
AcDbEntity
  8
DASHED
 48
2.0
100
AcDbLine
 10
7325.250867216812
 20
4343.459624601273
 30
0.0
 11
7332.250867216811
 21
4223.459624601273
 31
0.0
  0
LINE
  5
1BD1
330
1F
100
AcDbEntity
  8
DASHED
 48
2.0
100
AcDbLine
 10
6354.250867216812
 20
4373.459624601273
 30
0.0
 11
6324.250867216811
 21
4343.459624601273
 31
0.0
  0
LINE
  5
1BD2
330
1F
100
AcDbEntity
  8
DASHED
 48
2.0
100
AcDbLine
 10
6317.250867216811
 20
4223.459624601273
 30
0.0
 11
6324.250867216811
 21
4343.459624601273
 31
0.0
  0
ARC
  5
1BD3
330
1F
100
AcDbEntity
  8
DASHED
 48
2.0
100
AcDbCircle
 10
6496.05264764792
 20
4388.459624601273
 30
0.0
 40
15.0
100
AcDbArc
 50
270.0
 51
354.80557109227
  0
LINE
  5
1BD4
330
1F
100
AcDbEntity
  8
DASHED
 48
2.0
100
AcDbLine
 10
6519.750867216811
 20
4483.459624601273
 30
0.0
 11
6510.991045744934
 21
4387.101588410636
 31
0.0
  0
DIMENSION
  5
1BD6
330
1F
100
AcDbEntity
  8
DIM
100
AcDbDimension
  2
*D100
 10
6237.250867216811
 20
4883.459624601274
 30
0.0
 11
6824.750867216811
 21
4918.459624601274
 31
0.0
 70
    32
 71
     5
 42
1175.0
  3
Standerd
100
AcDbAlignedDimension
 13
7412.250867216811
 23
4474.459624601273
 33
0.0
 14
6237.250867216811
 24
4474.459624601273
 34
0.0
100
AcDbRotatedDimension
  0
DIMENSION
  5
1BD7
330
1F
100
AcDbEntity
  8
DIM
100
AcDbDimension
  2
*D101
 10
7862.250867216811
 20
4483.459624601273
 30
0.0
 11
7827.25086721681
 21
4533.459624601274
 31
0.0
 70
    32
 71
     5
 42
100.0
  3
Standerd
100
AcDbAlignedDimension
 13
7244.750867216811
 23
4583.459624601274
 33
0.0
 14
7403.250867216812
 24
4483.459624601273
 34
0.0
 50
90.0
100
AcDbRotatedDimension
  0
DIMENSION
  5
1BD8
330
1F
100
AcDbEntity
  8
DIM
100
AcDbDimension
  2
*D102
 10
7862.250867216811
 20
4223.459624601273
 30
0.0
 11
7827.246930208936
 21
4353.459624601274
 31
0.0
 70
    32
 71
     5
 42
260.0
  3
Standerd
100
AcDbAlignedDimension
 13
7403.250867216812
 23
4483.459624601273
 33
0.0
 14
7412.250867216811
 24
4223.459624601273
 34
0.0
 50
90.0
100
AcDbRotatedDimension
  0
DIMENSION
  5
1BD9
330
1F
100
AcDbEntity
  8
DIM
100
AcDbDimension
  2
*D103
 10
7712.250867216811
 20
4373.459624601273
 30
0.0
 11
7677.25086721681
 21
4428.459624601274
 31
0.0
 70
    32
 71
     5
 42
110.0
  3
Standerd
100
AcDbAlignedDimension
 13
7403.250867216812
 23
4483.459624601273
 33
0.0
 14
7295.250867216812
 24
4373.459624601273
 34
0.0
 50
90.0
100
AcDbRotatedDimension
  0
DIMENSION
  5
1BDA
330
1F
100
AcDbEntity
  8
DIM
100
AcDbDimension
  2
*D104
 10
7712.250867216811
 20
4223.459624601273
 30
0.0
 11
7677.25086721681
 21
4298.459624601274
 31
0.0
 70
    32
 71
     5
 42
150.0
  3
Standerd
100
AcDbAlignedDimension
 13
7295.250867216812
 23
4373.459624601273
 33
0.0
 14
7412.250867216811
 24
4223.459624601273
 34
0.0
 50
90.0
100
AcDbRotatedDimension
  0
TEXT
  5
1BDB
330
1F
100
AcDbEntity
  8
TXT
100
AcDbText
 10
5787.250867216812
 20
4403.459624601273
 30
0.0
 40
60.0
  1
B2-150
 41
1.5
100
AcDbText
  0
DIMENSION
  5
1BDC
330
1F
100
AcDbEntity
  8
DIM
100
AcDbDimension
  2
*D105
 10
6389.750867216811
 20
4733.459624601273
 30
0.0
 11
6457.250867216811
 21
4768.459624601273
 31
0.0
 70
    32
 71
     5
 42
135.0
  3
Standerd
100
AcDbAlignedDimension
 13
6524.750867216811
 23
4583.459624601274
 33
0.0
 14
6389.750867216811
 24
4568.459624601273
 34
0.0
100
AcDbRotatedDimension
  0
DIMENSION
  5
1BDD
330
1F
100
AcDbEntity
  8
DIM
100
AcDbDimension
  2
*D106
 10
7124.75086721681
 20
4733.459624601273
 30
0.0
 11
6836.505996698766
 21
4733.459624601273
 31
0.0
 70
   160
 71
     5
 42
600.0
  3
Standerd
100
AcDbAlignedDimension
 13
6524.750867216811
 23
4583.459624601274
 33
0.0
 14
7124.75086721681
 24
4583.459624601274
 34
0.0
100
AcDbRotatedDimension
  0
LINE
  5
1BDE
330
1F
100
AcDbEntity
  8
DASHED
 48
2.0
100
AcDbLine
 10
6524.750867216811
 20
4583.459624601274
 30
0.0
 11
6519.750867216811
 21
4483.459624601273
 31
0.0
  0
LINE
  5
1BDF
330
1F
100
AcDbEntity
  8
DASHED
 48
2.0
100
AcDbLine
 10
7124.75086721681
 20
4583.459624601274
 30
0.0
 11
7129.750867216812
 21
4483.459624601273
 31
0.0
  0
TEXT
  5
1BE0
330
1F
100
AcDbEntity
  8
TXT
100
AcDbText
 10
5787.250867216812
 20
4503.459624601273
 30
0.0
 40
60.0
  1
C  R
 41
1.5
100
AcDbText
  0
LWPOLYLINE
  5
1BE1
330
1F
100
AcDbEntity
  8
LATER
100
AcDbPolyline
 90
        6
 70
     1
 43
0.0
 10
6404.750867216812
 20
4583.459624601274
 10
7244.750867216811
 20
4583.459624601274
 42
-0.4142135623730951
 10
7259.750867216812
 20
4568.459624601273
 10
7259.750867216812
 20
4483.459624601273
 10
6389.750867216811
 20
4483.459624601273
 10
6389.750867216811
 20
4568.459624601273
 42
-0.4142135623730951
  0
DIMENSION
  5
1BE2
330
1F
100
AcDbEntity
  8
DIM
100
AcDbDimension
  2
*D107
 10
7259.750867216812
 20
4733.459624601273
 30
0.0
 11
7192.250867216812
 21
4768.459624601273
 31
0.0
 70
    32
 71
     5
 42
135.0
  3
Standerd
100
AcDbAlignedDimension
 13
7124.75086721681
 23
4583.459624601274
 33
0.0
 14
7259.750867216812
 24
4568.459624601273
 34
0.0
100
AcDbRotatedDimension
  0
VIEWPORT
  5
1125
330
111E
100
AcDbEntity
 67
     1
  8
0
100
AcDbViewport
 10
5.249999639556163
 20
3.999999883606677
 30
0.0
 40
15.3246281934636
 41
8.992999745766947
 68
     1
 69
     1
 12
5.249999639556163
 22
3.999999883606677
 13
0.0
 23
0.0
 14
10.0
 24
10.0
 15
10.0
 25
10.0
 16
0.0
 26
0.0
 36
1.0
 17
0.0
 27
0.0
 37
0.0
 42
50.0
 43
0.0
 44
0.0
 45
8.992999745766947
 50
0.0
 51
0.0
 72
   100
 90
    32800
  1

281
     0
 71
     1
 74
     0
110
0.0
120
0.0
130
0.0
111
1.0
121
0.0
131
0.0
112
0.0
122
1.0
132
0.0
 79
     0
146
0.0
170
     0
  0
VIEWPORT
  5
1127
330
111E
100
AcDbEntity
 67
     1
  8
TXT
100
AcDbViewport
 10
5.24999976158142
 20
3.99999976158142
 30
0.0
 40
8.399999618530271
 41
6.399999618530272
 68
     2
 69
     2
 12
4090.0
 22
2857.5
 13
0.0
 23
0.0
 14
10.0
 24
10.0
 15
10.0
 25
10.0
 16
0.0
 26
0.0
 36
1.0
 17
0.0
 27
0.0
 37
0.0
 42
50.0
 43
0.0
 44
0.0
 45
6263.679025907926
 50
0.0
 51
0.0
 72
   100
 90
    32864
  1

281
     0
 71
     1
 74
     0
110
0.0
120
0.0
130
0.0
111
1.0
121
0.0
131
0.0
112
0.0
122
1.0
132
0.0
 79
     0
146
0.0
170
     0
  0
ENDSEC
  0
SECTION
  2
OBJECTS
  0
DICTIONARY
  5
C
330
0
100
AcDbDictionary
281
     1
  3
ACAD_COLOR
350
32E
  3
ACAD_GROUP
350
D
  3
ACAD_LAYOUT
350
1A
  3
ACAD_MATERIAL
350
32D
  3
ACAD_MLINESTYLE
350
17
  3
ACAD_PLOTSETTINGS
350
19
  3
ACAD_PLOTSTYLENAME
350
E
  0
DICTIONARY
  5
32E
102
{ACAD_REACTORS
330
C
102
}
330
C
100
AcDbDictionary
281
     1
  0
DICTIONARY
  5
D
102
{ACAD_REACTORS
330
C
102
}
330
C
100
AcDbDictionary
281
     1
  0
DICTIONARY
  5
1A
102
{ACAD_REACTORS
330
C
102
}
330
C
100
AcDbDictionary
281
     1
  3
Model
350
22
  3
レイアウト1
350
111F
  0
DICTIONARY
  5
32D
102
{ACAD_REACTORS
330
C
102
}
330
C
100
AcDbDictionary
281
     1
  0
DICTIONARY
  5
17
102
{ACAD_REACTORS
330
C
102
}
330
C
100
AcDbDictionary
281
     1
  3
Standard
350
18
  0
DICTIONARY
  5
19
102
{ACAD_REACTORS
330
C
102
}
330
C
100
AcDbDictionary
281
     1
  0
ACDBDICTIONARYWDFLT
  5
E
102
{ACAD_REACTORS
330
C
102
}
330
C
100
AcDbDictionary
281
     1
  3
Normal
350
F
100
AcDbDictionaryWithDefault
340
F
  0
LAYOUT
  5
22
102
{ACAD_REACTORS
330
1A
102
}
330
1A
100
AcDbPlotSettings
  1

  2
none_device
  4
Letter_(8.50_x_11.00_Inches)
  6

 40
6.349999904632568
 41
6.349999904632568
 42
6.350006103515625
 43
6.350006103515625
 44
215.8999938964844
 45
279.3999938964844
 46
0.0
 47
0.0
 48
0.0
 49
0.0
140
0.0
141
0.0
142
1.0
143
938.2644717309725
 70
 11920
 72
     0
 73
     1
 74
     0
  7

 75
     0
147
0.0010657975764074
 76
     0
 77
     2
 78
   150
148
21229.94326567703
149
842.9130745896639
100
AcDbLayout
  1
Model
 70
     1
 71
     0
 10
0.0
 20
0.0
 11
12.0
 21
9.0
 12
0.0
 22
0.0
 32
0.0
 14
0.0
 24
0.0
 34
0.0
 15
0.0
 25
0.0
 35
0.0
146
0.0
 13
0.0
 23
0.0
 33
0.0
 16
1.0
 26
0.0
 36
0.0
 17
0.0
 27
1.0
 37
0.0
 76
     0
330
1F
  0
LAYOUT
  5
111F
102
{ACAD_REACTORS
330
1A
102
}
330
1A
100
AcDbPlotSettings
  1

  2
none_device
  4
Letter_(8.50_x_11.00_Inches)
  6

 40
6.349999904632568
 41
6.349999904632568
 42
6.350006103515625
 43
6.350006103515625
 44
215.8999938964844
 45
279.3999938964844
 46
0.0
 47
0.0
 48
0.0
 49
0.0
140
0.0
141
0.0
142
1.0
143
1.0
 70
   688
 72
     0
 73
     1
 74
     5
  7
monochrome.ctb
 75
    16
147
1.0
 76
     1
 77
     2
 78
   150
148
0.0
149
0.0
100
AcDbLayout
  1
レイアウト1
 70
     1
 71
     1
 10
-0.2500002402958907
 20
-0.2499999962453767
 11
10.74999951940821
 21
8.249999763458731
 12
0.0
 22
0.0
 32
0.0
 14
1.049999952316284
 24
0.7999999523162842
 34
0.0
 15
9.449999570846555
 25
7.199999570846556
 35
0.0
146
0.0
 13
0.0
 23
0.0
 33
0.0
 16
1.0
 26
0.0
 36
0.0
 17
0.0
 27
1.0
 37
0.0
 76
     0
330
111E
331
1125
  0
MLINESTYLE
  5
18
102
{ACAD_REACTORS
330
17
102
}
330
17
100
AcDbMlineStyle
  2
STANDARD
 70
     0
  3

 62
   256
 51
90.0
 52
90.0
 71
     2
 49
0.5
 62
   256
  6
BYLAYER
 49
-0.5
 62
   256
  6
BYLAYER
  0
ACDBPLACEHOLDER
  5
F
102
{ACAD_REACTORS
330
E
102
}
330
E
  0
ENDSEC
  0
EOF
